#TITLE:Heracles;
#SUBTITLE:;
#ARTIST:Yooh;
#TITLETRANSLIT:;
#SUBTITLETRANSLIT:;
#ARTISTTRANSLIT:;
#GENRE:;
#CREDIT:;
#MUSIC:heracles.ogg;
#BANNER:heracles bn.png;
#BACKGROUND:heracles bg.png;
#CDTITLE:;
#SAMPLESTART:60.004;
#SAMPLELENGTH:10.000;
#SELECTABLE:YES;
#OFFSET:-0.343;
#BPMS:0.000=96.500
,15.000=101.000
,16.000=193.000
,48.000=96.500
,64.000=193.000
,124.000=96.500
,126.000=193.000
,154.000=96.500
,156.000=193.000
,276.000=96.500
,280.000=193.000
,340.000=48.250
;
#STOPS:;
#DISPLAYBPM:96.000:193.000;
#BGCHANGES:15.958=heracles.avi=1.000=0=0=1===CrossFade_Fastest==,
341.000=heracles bg.png=1.000=0=0=1,
99999.000=-nosongbg-=1.000=0=0=0=StretchNoLoop====
;
#FGCHANGES:;

//--------------- dance-single - KAYSTAR ----------------
#NOTES:
     dance-single:
     KAYSTAR:
     Beginner:
     4:
     0,0,0,0,0:
0000
0000
0000
0000
,
0000
0000
0000
0000
,
0000
0000
0000
0000
,
0000
0000
0000
0000
,
1000
0000
0000
0000
,
0001
0001
0001
0000
,
0010
0000
0000
0000
,
0100
0100
0100
0000
,
1000
0000
0000
0000
,
0001
0000
0000
0000
,
0100
0000
0010
0000
,
0010
0000
0000
0000
,
2000
0000
0000
0000
,
3000
0000
0000
0000
,
0001
0001
0001
0000
,
0010
0010
0010
0000
,
0100
0000
0100
0000
,
0100
0000
0100
0000
,
0100
0000
0100
0000
,
0100
0000
0100
0000
,
1000
0000
0001
0000
,
1000
0000
0001
0000
,
1000
1000
0001
0001
,
0000
0000
0000
0000
,
0100
0000
1001
0000
,
0000
0000
1000
0000
,
0100
0000
1001
0000
,
0000
0000
0001
0001
,
0001
0000
1001
0000
,
0000
0000
1000
0000
,
0100
0000
1001
0000
,
0000
0000
0001
0000
,
0110
0000
0000
0000
,
1000
0000
0100
0000
,
0110
0000
0000
0000
,
0001
0001
0001
0000
,
0100
0000
0100
0000
,
0100
0000
0010
0010
,
0010
0010
0000
0000
,
1000
0000
1000
0000
,
0001
0000
0001
0000
,
0010
0000
0100
0000
,
0010
0000
0100
0000
,
1000
0000
1000
0000
,
0001
0000
0001
0000
,
0100
0000
0010
0000
,
0100
0000
0010
0010
,
0010
0000
1000
1000
,
1000
0000
0001
0001
,
0001
0000
0010
0010
,
0010
0000
0100
0100
,
0100
0000
1000
0000
,
0001
0000
0100
0000
,
0010
0000
0010
0000
,
1000
1000
1000
0000
,
0002
0000
0000
0000
,
0000
0000
0000
1003
,
1000
0000
0010
0000
,
0100
0000
0001
0001
,
0001
0000
1000
0000
,
0100
0000
0010
0010
,
0010
0000
0001
0000
,
1000
0000
0010
0010
,
0010
0000
0100
0100
,
0100
0000
0001
0001
,
0001
0000
1000
1000
,
1000
0000
0100
0000
,
0010
0000
0001
0001
,
0001
0000
1000
1000
,
1000
0000
0000
0000
,
0020
0030
0000
0000
,
2000
3000
0000
0000
,
0002
0003
0000
0000
,
0010
0000
0100
0100
,
0200
0300
0000
0000
,
2000
3000
0000
0000
,
0002
0003
0000
0000
,
0000
0000
0000
0000
,
0100
0100
0100
0000
,
0010
0010
0010
0000
,
1000
1000
1000
0000
,
0001
0001
0001
0000
,
1000
0000
0010
0000
,
0001
0000
0100
0000
,
1000
1000
1000
1000
,
0000
0001
0000
0000
;

//--------------- dance-single - KAYSTAR ----------------
#NOTES:
     dance-single:
     KAYSTAR:
     Easy:
     9:
     0,0,0,0,0:
0000
0000
0000
0000
,
0000
0000
0000
0000
,
0000
0000
0000
0000
,
0000
0000
0000
0000
,
1000
0000
0000
1000
0000
0000
1000
0000
,
0010
0100
0001
1000
,
0001
0000
0000
0001
0000
0000
0001
0000
,
0010
0100
1000
0001
,
0100
0000
0100
0100
,
0010
0000
0010
0010
,
1000
0000
0000
0100
0000
0000
1000
0000
0001
0000
1000
0000
,
0001
0000
0000
2002
,
0000
0000
0000
0000
,
3003
0000
0000
0000
,
1000
0000
0000
0100
1000
0000
0000
0001
0000
0001
0000
0000
1000
0000
0000
0000
,
0001
0000
0000
0100
0001
0000
0000
1000
0000
1000
0000
0000
0001
0000
0000
0000
,
0010
0010
0010
0010
,
0010
0010
0010
0000
,
0100
0100
0100
0100
,
0100
0100
0100
0000
,
2000
3000
0020
0030
,
0200
0300
0002
0003
,
1000
1000
0001
0001
,
0020
0030
0000
0001
,
1000
0000
0000
0000
0000
0000
0001
0000
0100
0000
0001
0000
,
0000
0000
1000
0000
0000
0000
0001
0000
0100
0000
0001
0000
,
2000
0000
0000
0000
0000
0000
3100
0000
1000
0000
0100
0000
,
0000
0000
0010
0000
0000
0000
0001
0000
0000
1000
0000
0000
,
0002
0000
0000
0000
0000
0000
1003
0000
0010
0000
1000
0000
,
0000
0000
0001
0000
0000
0000
1000
0000
0010
0000
1000
0000
,
0001
0000
0000
1000
0000
0000
0001
0000
0010
0000
0001
0000
,
1000
0000
0001
0000
,
0100
0000
0010
0000
0100
0000
0000
0000
1000
0000
0000
0000
,
0100
0000
0010
0000
0100
0000
0001
0000
0000
0000
0000
0000
,
0010
0000
0100
0000
0010
0000
0000
0000
1000
0000
0000
0000
,
0010
0001
1000
0000
,
0010
0000
0010
0000
,
0010
0000
0100
0100
,
0100
0100
0000
0000
,
0001
0010
0100
0010
,
0001
0000
1000
0000
0010
0100
0010
0000
,
1000
0001
0010
0001
,
1000
0100
1000
0001
,
1000
0010
0100
0010
,
1000
0000
0001
0000
0010
0100
0010
0100
,
0010
0001
1000
0010
,
0100
0000
0001
0000
1000
0001
1000
0001
,
1000
0010
0100
0001
,
0010
0100
1000
0010
,
0100
1000
0100
0010
,
1000
0100
0001
0100
,
1000
0000
0000
1000
0001
0000
0101
0000
,
0001
0000
0000
0001
1000
0000
1100
0000
,
1001
0000
1001
0000
,
1000
0010
0100
0001
,
0020
0000
0000
0000
,
0000
0000
0000
0130
,
1000
0010
0001
0010
,
1000
0100
0001
0100
,
1000
0010
0100
0001
,
0010
0000
0100
0000
1000
0001
1000
0001
,
1000
0010
0100
0010
,
1000
0100
0001
0010
,
1000
0100
0001
0010
,
1000
0100
0001
0010
,
1000
0100
0001
0010
,
1000
0001
0010
0100
,
1000
0000
0000
1000
0001
0000
0011
0000
,
0001
0000
0000
0001
1000
0000
1010
0000
,
1001
0000
0000
0000
,
0002
0103
1000
0100
,
0002
1003
0100
0001
,
0200
0310
1000
0010
,
0002
0103
0010
1000
,
2000
3100
0001
0100
,
2000
3010
0001
0010
,
0200
1300
0100
0001
,
1000
0100
0010
0001
,
1000
0000
0010
0000
0100
0010
0100
0010
,
1000
0000
0001
0000
1000
0001
1000
0001
,
0010
0000
0100
0000
0010
0100
0010
0100
,
1000
0001
0100
0010
,
2000
3000
0200
0300
,
0020
0030
0002
0003
,
1000
0001
1000
0001
1000
0001
1000
0001
,
0200
0310
0000
0000
;

//--------------- dance-single - KAYSTAR ----------------
#NOTES:
     dance-single:
     KAYSTAR:
     Medium:
     12:
     0,0,0,0,0:
0000
0000
0000
0000
,
0000
0000
0000
0000
,
0000
0000
0000
0000
,
0000
0000
0000
0000
,
1000
0000
0000
0100
0000
0000
0011
0000
,
1000
0100
1000
0010
,
0100
0000
0000
0001
0000
0000
1010
0000
,
1000
0100
0010
0001
,
0101
0000
1000
0000
0100
0000
0010
0100
,
0001
0000
0100
0000
0010
0001
1000
0010
,
0100
0000
0000
0001
0000
0000
1000
0000
0100
0000
1000
0000
,
0001
0000
0100
1001
,
0002
0000
0003
0000
0002
0003
0000
0000
0020
0000
0030
0000
0020
0030
0000
0000
,
0002
0003
2000
3000
0020
0030
0200
0300
,
0001
0000
0000
1000
0001
0000
0000
0010
0000
0010
0000
0000
0001
0000
0000
0000
,
1000
0000
0000
0001
1000
0000
0000
0010
0000
0010
0000
0000
1000
0000
0000
0000
,
0001
0001
0001
0001
,
0010
0010
0010
0010
,
0100
0100
0100
0100
,
1000
0000
1000
0000
1000
0001
0100
0010
,
1000
0000
0000
0100
0000
0000
0001
0000
0100
0000
0000
0010
0000
0000
0001
0000
,
1000
0000
0000
0001
0000
0000
0100
0000
1000
0000
0000
0100
0000
0000
0010
0000
,
1000
0100
0010
0001
,
1000
0000
0010
0100
0010
0100
0001
0000
,
1002
0000
0000
0010
0000
0000
1003
0000
0010
0000
0100
0000
,
0000
0000
0001
0000
0010
0000
0100
0000
0001
0000
0100
0000
,
2000
0000
0000
0100
0000
0000
3001
0000
0100
0000
0010
0000
,
0000
0000
0001
0000
0010
0000
0100
0000
0000
0001
0000
0000
,
1002
0000
0000
0100
0000
0000
1003
0000
0100
0000
0010
0000
,
0000
0000
0100
0000
0001
0000
0100
0000
0010
0000
0001
0000
,
2000
0000
0000
0100
0000
0000
3001
0000
0100
0000
0010
0000
,
1000
0001
2100
0001
,
3010
0000
0100
0000
1000
0000
0000
0000
0100
0000
0001
0000
,
1000
0000
0100
0000
0010
0000
0002
0000
0000
1000
0000
0000
,
0103
0000
0010
0000
0001
0000
0000
0000
0010
0000
1000
0000
,
0100
0110
0001
1000
,
0010
0000
1000
0000
0100
0000
0010
0000
0001
0000
0100
0000
,
0010
0000
1000
0000
0100
0000
1000
0000
0000
0001
0000
0000
,
0100
0010
2000
0000
,
3100
0011
0100
1010
,
0100
0000
0011
0000
1000
0100
0001
0000
,
0100
0000
0000
0010
0000
0000
0001
0000
1000
0000
0000
0010
0000
0000
0100
0000
,
1000
0000
0000
0100
0000
0000
0010
0000
1000
0000
0001
0000
1001
0000
0000
0000
,
1000
1010
0100
0011
,
0100
0000
1010
0000
0001
0100
1000
0100
,
0010
0000
0000
1000
0000
0000
0100
0000
0010
0000
0000
0001
0000
0000
0100
0000
,
0010
0000
1001
0000
1000
0100
0010
0001
,
1000
0000
0010
0000
0100
0000
1000
0100
,
0010
0000
1000
0000
0100
0000
0001
0100
,
0010
0000
0001
0000
0100
0000
1000
0100
,
0010
0000
0100
0000
0001
0000
0010
0100
,
1000
0000
0000
0010
0000
0000
0100
0000
0001
0000
0000
0000
0011
0000
0000
0000
,
0001
0000
0000
0010
0000
0000
0100
0000
1000
0000
0000
0000
1010
0000
0000
0000
,
0001
0100
1000
0100
,
0010
1000
0100
1000
0010
0000
0100
0000
,
0001
0010
0000
0010
0000
0010
0000
0010
,
0000
0010
0000
0010
0000
0010
0100
0000
,
1000
0000
0000
0001
0000
0000
0010
0000
1000
0000
0000
0001
0000
0000
0100
0000
,
1000
0000
0000
0010
0000
0000
0100
0000
0001
0000
1000
0000
0100
0000
0010
0000
,
0001
1100
0010
0101
,
0010
0000
1100
0000
0001
0010
1000
0010
,
0100
0000
0000
1000
0000
0000
0001
0000
0100
0000
0000
1000
0000
0000
0001
0000
,
0010
0000
1000
0000
0001
0010
1000
0100
,
0001
0000
1000
0000
0001
0100
1000
0010
,
0001
0000
1000
0000
0001
0010
1000
0100
,
0001
0000
1000
0000
0001
0100
1000
0010
,
0001
0000
0100
0000
0010
1000
0100
0010
,
0001
0000
0000
0100
0000
0000
1000
0000
0100
0000
0000
0010
0000
0000
1000
0000
,
0100
0000
0000
0001
0000
0000
0100
0000
0010
0000
0000
0001
0000
0000
1000
0000
,
0010
0000
0100
0000
0001
0001
0000
0110
,
1000
0000
0000
0000
0001
0000
0000
0010
0000
0000
0010
0000
0100
0000
1000
0000
,
0001
0000
0000
0000
1000
0000
0000
0010
0000
0000
0010
0000
1000
0000
0001
0000
,
0100
0000
0000
0000
0010
0000
0000
0010
0000
0000
1000
0000
0100
0000
0010
0000
,
0001
1000
0011
1001
,
1100
0000
0000
0000
0001
0000
0000
0001
0000
0000
0100
0000
1000
0000
0100
0000
,
0001
0000
0000
0000
1000
0000
0000
1000
0000
0000
0100
0000
0001
0000
0100
0000
,
1000
0000
0000
0000
0001
0000
0000
0001
0000
0000
0010
0000
0100
0000
1000
0000
,
0001
0000
1000
0000
0010
0000
0000
0100
,
0001
0000
0010
0100
0000
0001
0100
1000
,
0010
0000
0100
0010
0000
0001
0010
1000
,
0100
0000
0010
0100
0000
0001
0100
1000
,
0010
0000
0110
0000
1000
0100
0010
0001
,
1000
0000
0000
0100
0000
0000
0001
0000
1000
0000
0000
0010
0000
0000
0001
0000
,
1000
0000
0000
0010
0000
0000
0001
0000
1000
0000
0000
0100
0000
0000
0001
0000
,
1000
0100
0001
0010
,
2000
3100
0000
0000
;

//--------------- dance-single - KAYSTAR ----------------
#NOTES:
     dance-single:
     KAYSTAR:
     Hard:
     16:
     0,0,0,0,0:
0000
0000
0000
0000
,
0000
0000
0000
0000
,
0000
0000
0000
0000
,
0000
0000
0000
0000
,
1000
0000
0000
1100
0000
0000
0101
0000
,
0001
0100
0010
0100
1000
0100
0010
0100
,
0001
0000
0000
0101
0000
0000
1100
0000
,
1000
0000
0100
0000
0010
0000
0100
0000
1000
0000
0010
0000
0100
0001
0100
0001
,
1000
0000
1200
0000
0301
0100
1000
0010
,
0100
0000
1020
0000
0031
0010
1000
0100
,
0010
0000
0000
0100
0000
0000
0010
0000
0000
0100
0000
0000
0010
0000
0000
0100
0000
0000
0010
0000
0000
0100
0000
0000
1000
0000
0000
0000
0000
0000
0000
0000
0001
0000
0000
0000
0000
0000
0000
0000
0100
0000
0000
0000
0000
0000
0000
0000
,
0010
1000
0100
0010
0001
0000
0101
0000
,
2001
0100
3002
0010
,
0203
1000
0010
0301
,
1000
0000
0000
0100
0010
0000
0001
0100
0000
1000
0100
0000
0010
0000
0010
0000
,
1000
0000
0100
0000
0010
0000
0001
0000
0100
0000
0000
0000
1000
0000
0100
0000
0010
0100
0010
0100
0010
0100
0010
0100
0010
0000
1000
0000
0001
0000
1000
0000
,
0001
0001
0001
0001
,
0010
0000
0000
0000
0010
0000
0000
0000
0010
0000
0000
0000
0010
0000
0000
0010
,
0100
0100
0100
0100
,
1000
0000
0000
0000
1000
0000
0000
0000
0001
0000
1000
0000
0010
0000
0100
0001
,
0100
0000
0000
0010
0000
1000
0100
0000
0010
0000
0000
0100
0000
1000
0010
0000
,
0100
0000
0000
0001
0000
0010
0100
0000
0010
0000
0000
0001
0000
0100
0010
0000
,
1000
0000
1000
0000
0001
0000
0001
0000
1000
0100
1000
0100
0010
0001
0010
0001
,
2000
0000
0100
0100
3001
0100
1000
0100
,
0001
0000
0000
0000
0000
0000
0000
0000
0000
0000
0000
0000
0220
0000
0000
0330
0000
0000
0000
0000
0000
0000
0000
0000
1000
0000
0000
0000
0000
0000
0000
0000
0001
0000
0000
0000
0000
0000
0000
0000
0101
0000
0000
0000
0000
0000
0000
0000
,
0000
0000
0100
0000
1000
0000
1100
0000
0100
0000
0001
0000
,
2001
0000
0000
0100
0000
0000
3001
0000
0010
0000
0011
0000
,
0000
0000
0010
0000
0100
0000
1100
0000
0000
1001
0000
0000
,
0201
0000
0000
1000
0000
0000
0301
0000
1000
0000
1100
0000
,
0000
0000
0100
0000
0001
0000
0101
0000
0100
0000
1000
0000
,
0002
0000
0000
0000
0000
0000
0000
0000
0000
0000
0000
0000
0103
0000
0000
0010
0000
0000
0100
0000
0000
0010
0000
0000
1000
0000
0000
0000
0000
0000
0000
0000
0100
0000
0000
0000
0000
0000
0000
0000
0010
0000
0000
0000
0000
0000
0000
0000
,
2000
0000
0000
3020
0000
0000
0032
0000
0000
0203
0000
0000
0310
0000
0000
0000
0000
0000
0220
0330
0000
0000
0000
0000
,
1000
0000
0010
0000
0110
0000
0001
0000
0010
0000
1000
0000
,
1010
0000
0010
0000
0001
0000
0200
0000
0000
1000
0000
0000
,
0301
0000
0010
0000
0110
0000
1000
0000
0010
0000
0001
0000
,
0011
0110
0101
2001
,
3100
0000
0000
0000
0000
0000
0000
0000
0001
0000
0000
0000
0100
0000
0000
0000
0010
0000
0000
0000
0000
0000
0000
0000
0002
0000
0000
0003
0000
0000
0000
0000
1000
0000
0000
0000
0010
0000
0000
0000
0100
0000
0000
0000
0000
0000
0000
0000
,
2000
0000
0000
3000
0000
0000
0000
0000
0100
0000
0000
0000
0010
0000
0000
0000
1000
0000
0000
0000
0000
0000
0000
0000
0001
0000
0000
0000
0000
0000
0001
0000
0000
0000
0000
0000
1000
0000
0000
0000
0000
0000
1000
0000
0000
0000
0000
0000
,
0001
0010
0001
0010
0100
1000
0100
1000
0002
0000
0000
0000
0000
0000
0000
0000
,
1003
0000
0010
0000
1000
0100
1000
0100
0010
0000
0100
0000
1000
0000
0010
0000
,
0000
0000
0100
0000
0001
0010
0001
0010
0100
0000
1000
0000
0020
0000
0000
0000
,
0031
0000
0010
0100
0000
0010
0100
0000
0001
0000
0100
0010
0000
0100
0010
0000
,
1000
0000
0100
0010
0000
0100
0010
0000
0001
0000
1000
0000
0010
0100
0010
0100
,
0001
0000
0010
0000
0001
0100
0001
0100
0010
0000
1000
0000
0100
0000
0010
0000
,
0000
0000
0100
0000
1000
0001
1000
0001
0100
0000
0001
0000
0010
0000
0001
0000
,
0100
0000
0001
1000
0000
0001
1000
0000
0100
0000
1000
0001
0000
1000
0001
0000
,
0100
0000
0010
0000
0110
0000
0000
0100
0001
0000
0001
0000
1000
0000
1000
0000
,
0100
0000
0010
0000
0100
1000
0100
1000
0001
0000
0100
0000
0010
0000
1000
0000
,
0001
0000
0010
0100
1000
0000
0001
0010
0100
0000
1000
0000
0010
0000
0100
0000
,
0001
0000
1000
0001
0100
0000
0001
1000
0100
0000
0010
0000
0001
0000
0100
0000
,
0010
0000
1000
0010
0100
0000
0010
0100
0001
0000
0010
0000
0100
0000
1000
0000
,
0001
0000
0000
0101
0000
0000
1000
0000
0100
0000
1000
0000
0010
0000
0100
0000
,
0001
0000
0000
0011
0000
0000
1000
0000
0010
0000
1000
0000
0100
0000
0010
0000
,
0001
0000
0100
0000
0010
0100
0010
0100
0001
0000
0010
0000
0100
0010
0100
0010
,
0001
0000
0100
0000
0010
0000
1000
0000
0100
0000
1000
0000
0001
0100
0010
1000
,
0002
0010
0000
0010
0000
0010
0000
0010
,
0000
0000
0010
0000
0000
0000
0013
0000
0001
1000
0001
1000
0100
0000
0000
0000
,
0010
0000
0001
1000
0000
1000
0010
0000
0100
0000
0001
1000
0000
1000
0100
0000
,
0010
0000
0100
1000
0000
1000
0001
0000
0100
0000
0010
0000
1000
0001
1000
0001
,
0010
0000
0100
0000
0001
0100
0001
0100
0010
0000
0001
0000
1000
0000
0010
0000
,
0100
0000
1000
0000
0100
0010
0100
0010
1000
0000
0100
0000
0001
0000
0100
0000
,
1000
0000
0001
0100
0000
0100
0010
0000
1000
0000
0001
0010
0000
0010
0100
0000
,
1000
0001
1000
0000
0001
0100
0001
0100
0010
0000
1000
0000
0100
0000
0001
0000
,
0100
0000
0110
0000
0010
0001
0100
1000
,
0100
0000
0000
0000
0110
0000
0000
0000
0010
0000
1000
0000
0100
0000
0010
0100
,
0010
0000
0110
0000
0100
0001
0100
1000
,
0010
0100
0001
0100
1000
0100
0010
0010
,
1000
0000
0100
0010
0000
0010
0001
0000
1000
0000
0010
0100
0000
0100
0001
0000
,
1000
0000
0010
1000
0000
1000
0100
0000
0010
0001
1000
0000
0001
0100
0010
0000
,
2000
0000
0000
0000
0000
0000
0000
0000
3100
0000
0000
0000
0000
0000
0000
0000
1010
0000
0000
0000
0110
0000
0000
0000
0001
0010
0001
0010
0100
0000
0000
0000
,
2000
3000
0000
0000
0101
0000
0000
0110
0000
0000
1000
0000
0100
0000
0001
0000
,
0200
0300
0000
0000
1100
0000
0000
0110
0000
0000
0001
0000
0100
0000
1000
0000
,
0200
0300
0000
0000
0101
0000
0000
0110
0000
0000
1000
0000
0100
0000
0001
0000
,
0200
0300
0000
0000
0010
0000
0000
0010
0001
0000
0000
0000
0101
0000
0000
0000
,
1100
0000
0000
0000
1010
0000
0000
0110
0000
0000
0001
0000
0010
0000
1000
0000
,
0020
0030
0000
0000
0011
0000
0000
0110
0000
0000
1000
0000
0010
0000
0001
0000
,
0020
0030
0000
0000
1010
0000
0000
0110
0000
0000
0001
0000
0010
0100
0010
0100
,
0002
0203
2300
3020
,
0130
0000
0000
0000
0001
0000
1000
0100
0000
0100
0010
0000
0001
0000
0100
0000
,
0202
0303
0000
0000
1000
0000
0001
0100
0000
0100
0010
0000
1000
0000
0100
0000
,
2200
3300
0000
0000
0001
0000
0010
0001
0000
0001
0100
0000
0010
0000
1000
0000
,
2200
3300
0000
0000
0011
0000
0000
0001
1000
0000
0000
0000
1010
0000
0000
0000
,
0001
0100
0001
0100
0000
0001
1000
0000
0100
1000
0100
1000
0000
0001
1000
0000
,
0010
1000
0010
1000
0000
0001
1000
0000
0001
0010
0001
0010
0000
0001
1000
0000
,
0100
0010
0100
0010
0100
0010
0100
0010
0100
0010
0100
0010
0100
0010
0100
0010
,
0200
1300
0000
0000
;

//--------------- dance-single - KAYSTAR ----------------
#NOTES:
     dance-single:
     KAYSTAR:
     Challenge:
     18:
     0,0,0,0,0:
0000
0000
0000
0000
,
0000
0000
0000
0000
,
0000
0000
0000
0000
,
0000
0000
0000
0000
,
1100
0000
0000
0101
0000
0000
1100
0000
,
1000
0000
0010
0000
0100
0000
1000
0100
1000
0100
0010
0000
1000
0000
0100
0010
,
0001
0000
0000
1100
0000
0000
0101
0000
,
0001
0000
0100
0010
1000
0000
0100
0010
1000
0010
0001
0100
0010
1000
0010
1000
,
0100
0010
0100
0010
2000
3020
0032
0203
,
0310
0100
0010
0100
2000
3200
0302
0023
,
0130
0000
0000
0010
0000
0000
0100
0000
0000
0010
0000
0000
0001
0000
0000
1000
0000
0000
0010
0000
0000
1000
0000
0000
0100
0000
0000
0000
0000
0000
0000
0000
1100
0000
0000
0000
0000
0000
0000
0000
0101
0000
0000
0000
0000
0000
0000
0000
,
0002
0023
0230
2300
3001
0000
0110
0000
,
2002
0003
0001
0000
0020
0030
3010
0000
,
0002
0003
0002
0003
0020
0030
0200
0300
,
2000
0000
0000
0010
3010
0000
0000
0101
0000
1000
0100
0000
0110
0000
0010
0000
,
0001
0000
0100
0000
1000
0000
0100
0000
0010
0000
0000
0000
0100
0000
0001
0000
1000
0100
1000
0100
0010
0001
0010
0001
1000
0010
1000
0000
0100
0000
0100
0000
,
1000
1000
1000
1000
,
0010
0000
0000
0000
0010
0000
0000
0000
0010
0000
0000
0000
0010
0000
0000
0010
,
0100
0100
0100
0100
,
0001
0000
0000
0000
0001
0000
0000
0000
0001
0000
1000
0000
0100
0000
0010
0001
,
0200
0300
0000
0010
0000
0100
0001
0010
0200
0300
0000
0010
0000
0100
0010
0001
,
0200
0300
0000
0010
0000
0100
0010
1000
0200
0300
0000
0010
0000
0100
1000
0010
,
0100
0000
0100
0000
0010
0000
0010
0000
1000
0100
0010
0100
1000
0001
0100
0010
,
2000
0000
0000
0000
3100
0010
0100
0010
0001
0000
0100
0000
1000
0000
0100
0000
,
0120
0000
0000
0001
0000
0000
1030
0000
0101
0000
1100
0000
,
0000
0000
0000
0000
0000
0000
0000
0000
1100
0000
0000
0000
0000
0000
0000
0000
0101
0000
0000
0000
0000
0000
0010
0000
1000
0000
0000
0000
0000
0000
0000
0000
0101
0000
0000
0000
0000
0000
0000
0000
0000
1100
0000
0000
0000
0000
0000
0000
,
0120
0000
0000
1000
0000
0000
0031
0000
0101
0000
1100
0000
,
0000
0000
0000
0000
0000
0000
0000
0000
1100
0000
0000
0000
0000
0000
0000
0000
0101
0000
0000
0000
0000
0000
0001
0000
1000
0000
0000
0000
0000
0000
0000
0000
0000
0000
0000
0000
1010
0000
0000
0000
0000
0000
1000
0000
0000
0001
0000
0000
,
0200
0000
0000
1000
0000
0000
0301
0000
1010
0000
0011
0000
,
0000
0000
0000
0000
0000
0000
0000
0000
0011
0000
0000
0000
0000
0000
0000
0000
1010
0000
0000
0000
0000
0000
0100
0000
0001
0000
0000
0000
0000
0000
0000
0000
1010
0000
0000
0000
0000
0000
0000
0000
0000
0011
0000
0000
0000
0000
0000
0000
,
1200
0000
0000
0000
0000
0000
0000
0000
0000
0000
0000
0000
0301
0000
0000
0100
0000
0000
0001
0000
0000
0100
0000
0000
1000
0000
0000
0000
0000
0000
0000
0000
0011
0000
0000
0000
0000
0000
0000
0000
1010
0000
0000
0000
0000
0000
0000
0000
,
1002
0000
0103
0000
2001
0000
3100
0000
0110
0000
0000
0000
2002
3003
0000
0000
,
1100
0000
0000
0000
0101
0000
0000
0000
1200
0000
0000
0000
0310
0000
0000
0000
0011
0000
0000
0000
1010
0000
0000
1000
,
0100
0000
0000
0000
0000
0000
0000
0000
1100
0000
0000
0000
0000
0000
0000
0000
0000
1001
0000
0000
0000
0000
0000
0000
0201
0000
0000
0000
0000
0000
0000
0000
0000
0000
0000
0000
1000
0000
0000
0000
0000
0000
0000
0000
0000
0000
0000
0000
,
0301
0000
0000
0000
1010
0000
0000
0000
0021
0000
0000
0000
0130
0000
0000
0000
1100
0000
0000
0000
0101
0000
0000
0100
,
0010
0000
0000
0000
1010
0000
1000
0001
0010
0000
0000
0000
0220
0330
0000
0000
,
1001
0000
0010
1000
0100
0000
1001
0000
0010
0001
0100
0000
,
1001
0000
0000
0000
0010
0000
1000
0000
0100
0000
0000
0000
0010
0000
0000
0010
0000
0000
0100
0000
0000
0100
0000
0000
,
1000
0000
0000
0000
0010
0000
0000
0000
0100
0000
0000
0000
0001
0000
0000
0000
0100
0000
0000
0000
0010
0000
0000
0000
1000
0000
0000
0000
0100
0000
0000
0000
0002
0003
0000
0000
0200
0300
0000
0000
2000
3000
0000
0000
0020
0030
0000
0000
0200
0300
0000
0000
0000
0000
0001
0000
0010
0000
0100
0000
0010
0000
0100
0000
,
1000
0000
0001
0000
0100
0010
1000
0100
0010
0000
0100
0000
1000
0000
0010
0000
,
0100
0000
1000
0000
0100
0010
1000
0010
0100
0000
0001
0000
0012
0000
0000
0000
,
1003
0000
0100
0010
0000
0010
0100
0000
0001
0000
0100
0010
0000
0010
0100
0000
,
1000
0000
0010
0100
0000
0100
0001
0000
0100
0010
0100
0001
1000
0100
0010
0100
,
1000
0000
0001
0000
1000
0010
0100
0010
1000
0000
0100
0000
0010
0000
1000
0000
,
0010
0000
0100
0000
1000
0100
0010
0001
1000
0000
0010
0000
0100
0000
0001
0000
,
0010
0000
0001
1000
0000
1000
0100
0000
0010
0000
0001
0100
0000
0100
0010
0000
,
1000
0000
0010
0000
0110
0000
0000
0010
0002
0000
0023
0000
2030
0000
3200
0000
,
0310
0000
0001
0000
1000
0010
0100
0001
0010
0000
0001
0000
0100
0000
1000
0000
,
0100
0000
0010
1000
0001
0000
0001
1000
0100
0000
0010
0000
1000
0000
0010
0000
,
0100
1000
0001
0100
0010
0100
0001
1000
0100
0000
0001
0000
0100
0000
1000
0000
,
0010
1000
0001
0100
0010
0100
0001
1000
0002
0000
0023
0000
0230
0000
2300
0000
,
3010
0000
0000
0010
1000
0000
0100
0000
0100
0000
0010
0000
0011
0000
0001
0000
,
0100
0000
0000
0100
0001
0000
0010
0000
0010
0000
0100
0000
1100
0000
1000
0000
,
0001
0000
0100
0000
0010
1000
0100
0010
0001
0000
0100
0000
0001
0010
0100
1000
,
0010
0000
0100
0000
0001
0000
0010
0000
0001
0000
0100
0000
0010
1000
0010
0100
,
0002
0010
0000
0010
0000
0010
0000
0010
,
0000
0000
0010
0000
0000
0000
0013
0000
0001
0100
0010
1000
0100
0000
0000
0000
,
1000
0000
0010
0100
0000
0100
0010
0000
0001
0000
0010
0100
0000
0100
0010
0000
,
1000
0000
0100
0010
0000
0010
0001
0000
0100
0010
0100
0001
1000
0100
0010
0100
,
1000
0000
0010
0000
0100
1000
0100
0010
1000
0000
0001
0000
0010
0100
0001
0000
,
0100
0010
0001
0000
0100
0010
1000
0100
0010
0000
1000
0000
0010
0000
0100
0000
,
1000
0000
0001
0100
0000
0100
0010
0000
1000
0000
0100
0010
0000
0010
0001
0000
,
1000
0001
1000
0000
0010
0100
0010
0100
2000
0000
3200
0000
0302
0000
0023
0000
,
0130
0000
0001
0000
0100
0010
0100
0010
2000
0000
3020
0000
0032
0000
0203
0000
,
0310
0000
0001
0000
0010
0100
0010
0100
2000
0000
3200
0000
0302
0000
0013
0100
,
0010
0000
1000
0000
0010
0100
0010
0100
0002
0000
0203
0000
2300
0000
3020
0000
,
0130
1000
0100
0010
1010
1010
0011
0011
,
0010
0100
1000
0001
0000
0100
0010
0000
1000
0100
0010
0100
0000
1000
0010
0000
,
0100
1000
0100
0010
0000
1000
0001
0000
0010
0100
0001
0100
0010
0001
0100
0010
,
2000
0000
0000
0000
3000
0000
0000
0000
0002
0000
0000
0000
0003
0000
0000
0000
0010
0000
0000
0000
0010
0000
0000
0000
0001
0100
0010
1000
0100
0000
0000
0000
,
2002
3003
0000
0000
1100
0000
0000
0110
0000
0000
0101
0000
0110
0000
0110
0000
,
2002
3003
0000
0000
0101
0000
0000
0110
0000
0000
1100
0000
0110
0000
0110
0000
,
2002
3003
0000
0000
1100
0000
0000
0110
0000
0000
0101
0000
0110
0000
0110
0000
,
2002
3003
0000
0000
1100
0000
0000
1000
0001
0000
0000
0000
0101
0000
0000
0000
,
0220
0330
0000
0000
1001
0000
0000
1010
0000
0000
0110
0000
0101
0000
1001
0000
,
0220
0330
0000
0000
1001
0000
0000
0011
0000
0000
0110
0000
1100
0000
1001
0000
,
0220
0330
0000
0000
1001
0000
0000
1100
0000
0000
1001
0000
1000
0010
1000
0010
,
0200
0300
2000
3000
0200
0300
0002
0003
,
0020
0000
0030
0000
1001
0000
0001
1000
0100
0000
1100
0000
0110
0000
0010
0001
,
0200
0300
0000
0000
0110
0000
0100
0001
1000
0000
1010
0000
0110
0000
0010
1000
,
0200
0300
0000
0000
0110
0000
0100
1000
0001
0000
0011
0000
0110
0000
0010
0001
,
0200
0300
0000
0000
1001
0000
1000
0001
0100
0000
0101
0000
1100
0000
0100
1000
,
0010
0100
0001
0010
0000
0010
0100
0000
0010
0001
0100
0010
0000
0010
0100
0000
,
1000
0100
0010
1000
0000
1000
0100
0000
0001
0100
0010
0001
0000
0001
0100
0000
,
1000
0100
1000
0100
0001
0100
0001
0100
0010
1000
0100
1000
0010
0100
0001
0010
,
0200
1300
0000
0000
;

//--------------- dance-couple - ----------------
#NOTES:
     dance-couple:
     :
     Beginner:
     1:
     0,0,0,0,0:
00000000
00000000
00000000
00000000
,
00000000
00000000
00000000
00000000
,
00000000
00000000
00000000
00000000
,
00000000
00000000
00000000
00000000
,
00000000
00000000
00000000
00000000
,
00000000
00000000
00000000
00000000
,
00000000
00000000
00000000
00000000
,
00000000
00000000
00000000
00000000
,
00000000
00000000
00000000
00000000
,
00000000
00000000
00000000
00000000
,
00000000
00000000
00000000
00000000
,
00000000
00000000
00000000
00000000
,
00000000
00000000
00000000
00000000
,
00000000
00000000
00000000
00000000
,
00000000
00000000
00000000
00000000
,
00000000
00000000
00000000
00000000
,
00000000
00000000
00000000
00000000
,
00000000
00000000
00000000
00000000
,
00000000
00000000
00000000
00000000
,
00000000
00000000
00000000
00000000
,
00000000
00000000
00000000
00000000
,
00000000
00000000
00000000
00000000
,
00000000
00000000
00000000
00000000
,
00000000
00000000
00000000
00000000
,
00000000
00000000
00000000
00000000
,
00000000
00000000
00000000
00000000
,
00000000
00000000
00000000
00000000
,
00000000
00000000
00000000
00000000
,
00000000
00000000
00000000
00000000
,
00000000
00000000
00000000
00000000
,
00000000
00000000
00000000
00000000
,
00000000
00000000
00000000
00000000
,
00000000
00000000
00000000
00000000
,
00000000
00000000
00000000
00000000
,
00000000
00000000
00000000
00000000
,
00000000
00000000
00000000
00000000
,
00000000
00000000
00000000
00000000
,
00000000
00000000
00000000
00000000
,
00000000
00000000
00000000
00000000
,
00000000
00000000
00000000
00000000
,
00000000
00000000
00000000
00000000
,
00000000
00000000
00000000
00000000
,
00000000
00000000
00000000
00000000
,
00000000
00000000
00000000
00000000
,
00000000
00000000
00000000
00000000
,
00000000
00000000
00000000
00000000
,
00000000
00000000
00000000
00000000
,
00000000
00000000
00000000
00000000
,
00000000
00000000
00000000
00000000
,
00000000
00000000
00000000
00000000
,
00000000
00000000
00000000
00000000
,
00000000
00000000
00000000
00000000
,
00000000
00000000
00000000
00000000
,
00000000
00000000
00000000
00000000
,
00000000
00000000
00000000
00000000
,
00000000
00000000
00000000
00000000
,
00000000
00000000
00000000
00000000
,
00000000
00000000
00000000
00000000
,
00000000
00000000
00000000
00000000
,
00000000
00000000
00000000
00000000
,
00000000
00000000
00000000
00000000
,
00000000
00000000
00000000
00000000
,
00000000
00000000
00000000
00000000
,
00000000
00000000
00000000
00000000
,
00000000
00000000
00000000
00000000
,
00000000
00000000
00000000
00000000
,
00000000
00000000
00000000
00000000
,
00000000
00000000
00000000
00000000
,
00000000
00000000
00000000
00000000
,
00000000
00000000
00000000
00000000
,
00000000
00000000
00000000
00000000
,
00000000
00000000
00000000
00000000
,
00000000
00000000
00000000
00000000
,
00000000
00000000
00000000
00000000
,
00000000
00000000
00000000
00000000
,
00000000
00000000
00000000
00000000
,
00000000
00000000
00000000
00000000
,
00000000
00000000
00000000
00000000
,
00000000
00000000
00000000
00000000
,
00000000
00000000
00000000
00000000
,
00000000
00000000
00000000
00000000
,
00000000
00000000
00000000
00000000
,
00000000
00000000
00000000
00000000
,
00000000
00000000
00000000
00000000
,
00000000
00000000
00000000
00000000
,
00000000
00000000
00000000
00000000
,
00000000
10000000
00000000
00000000
00000000
00000000
00000000
00000000
;
