#VERSION:0.83;
#TITLE:Heaven Is A Place On Earth;
#SUBTITLE:;
#ARTIST:Julia;
#TITLETRANSLIT:;
#SUBTITLETRANSLIT:;
#ARTISTTRANSLIT:;
#GENRE:EUROTRANCE;
#ORIGIN:;
#CREDIT:;
#BANNER:Heaven Is A Place On Earth.png;
#BACKGROUND:Heaven Is A Place On Earth-bg.png;
#PREVIEWVID:;
#JACKET:Heaven Is A Place On Earth-jacket.png;
#CDIMAGE:;
#DISCIMAGE:;
#LYRICSPATH:;
#CDTITLE:cdtitle.png;
#MUSIC:Heaven Is A Place On Earth.ogg;
#OFFSET:0.002000;
#SAMPLESTART:105.644005;
#SAMPLELENGTH:15.000000;
#SELECTABLE:YES;
#DISPLAYBPM:143.000000;
#BPMS:0.000=142.000,
20.000=143.200,
28.000=143.500,
56.000=143.300,
60.000=143.400,
64.000=143.150,
188.000=143.000;
#STOPS:250.500=0.420;
#DELAYS:;
#WARPS:;
#TIMESIGNATURES:0.000=4=4;
#TICKCOUNTS:0.000=4;
#COMBOS:0.000=1;
#SPEEDS:0.000=1.000=0.000=0;
#SCROLLS:0.000=1.000;
#FAKES:;
#LABELS:0.000=Song Start;
#BGCHANGES:;
#KEYSOUNDS:;
#ATTACKS:
;

//---------------dance-single - Daff_4K----------------
#NOTEDATA:;
#CHARTNAME:Daff_4K;
#STEPSTYPE:dance-single;
#DESCRIPTION:Daff_4K;
#CHARTSTYLE:;
#DIFFICULTY:Beginner;
#METER:2;
#RADARVALUES:0.085956,0.138213,0.023442,0.000000,0.000000,77.000000,74.000000,3.000000,0.000000,0.000000,0.000000,0.000000,0.000000,0.000000,0.085956,0.138213,0.023442,0.000000,0.000000,77.000000,74.000000,3.000000,0.000000,0.000000,0.000000,0.000000,0.000000,0.000000;
#CREDIT:Daff_4K;
#DISPLAYBPM:143.000000;
#NOTES:
0000
0000
0000
0000
,
0000
0000
0000
0000
,
0000
0000
0000
0000
,
0000
0000
0000
0000
,
1000
0000
0000
0000
,
0000
0000
0000
0000
,
0001
0000
0000
0000
,
0000
0000
0000
0000
,
0010
0000
0000
0000
,
0100
0000
0000
0000
,
1000
0000
0000
0000
,
1000
0000
0000
0000
,
0010
0000
0000
0000
,
0100
0000
0000
0000
,
0001
0000
0000
0000
,
0001
0000
0000
0000
,
1000
0000
0000
0000
,
0001
0000
0000
0000
,
0010
0000
0000
0000
,
0100
0000
0000
0000
,
1000
0000
0000
0000
,
0001
0000
0000
0000
,
0100
0000
0000
0000
,
0010
0000
0000
0000
,
1000
0000
0000
0000
,
0001
0000
0001
0000
,
0001
0000
0000
0000
,
0100
0000
0100
0000
,
0010
0010
0010
0000
,
0000
0000
0000
0000
,
1000
0000
0000
0000
,
0001
0000
0000
0000
,
1001
0000
0000
0000
,
0000
0000
0000
0000
,
1000
0000
0000
0000
,
0000
0000
0000
0000
,
0001
0000
0000
0000
,
0000
0000
0000
0000
,
0100
0100
0100
0000
,
0000
0000
0000
0000
,
0010
0000
0000
0000
,
0000
0000
0000
0000
,
1000
0000
0000
0000
,
1000
0000
0000
0000
,
0001
0000
0000
0000
,
0001
0000
0000
0000
,
1001
0000
0000
0000
,
1000
0000
0000
0000
,
0001
0000
0000
0000
,
0100
0000
0100
0000
,
0100
0000
0000
0000
,
0010
0010
0010
0000
,
0000
0000
0000
0000
,
0100
0000
0000
0000
,
0010
0000
0000
0000
,
1000
0000
0000
0000
,
0001
0000
0000
0000
,
0010
0000
0010
0000
,
0010
0000
0000
0000
,
0100
0100
0100
0000
,
0000
0000
0000
0000
,
1000
0000
1000
0000
,
0001
0000
0001
0000
,
0000
0000
0000
1000
,
0000
1000
0000
1000
,
0000
0000
0000
0001
,
0000
0001
0000
0010
,
0010
0010
0000
0000
,
0000
0000
0000
0100
,
0000
0000
0000
1000
,
0000
0000
0000
1001
;

//---------------dance-single - Daff_4K----------------
#NOTEDATA:;
#CHARTNAME:Daff_4K;
#STEPSTYPE:dance-single;
#DESCRIPTION:Daff_4K;
#CHARTSTYLE:;
#DIFFICULTY:Easy;
#METER:6;
#RADARVALUES:0.236657,0.311589,0.171911,0.148469,0.000000,212.000000,190.000000,22.000000,19.000000,0.000000,0.000000,0.000000,0.000000,0.000000,0.236657,0.311589,0.171911,0.148469,0.000000,212.000000,190.000000,22.000000,19.000000,0.000000,0.000000,0.000000,0.000000,0.000000;
#CREDIT:Daff_4K;
#DISPLAYBPM:143.000000;
#NOTES:
0000
0000
0000
0000
,
0000
0000
0000
0000
,
0000
0000
0000
0000
,
0000
0000
0000
0000
,
0002
0000
0000
0003
,
2000
0000
0000
3000
,
0020
0000
0000
0030
,
0200
0000
0000
0300
,
0002
0003
0020
0030
,
0200
0000
0000
0300
,
1000
0010
1000
0000
,
0001
0010
0001
0000
,
2000
3000
0020
0030
,
0200
0000
0000
0300
,
0001
0010
0001
0000
,
1000
0010
1000
0000
,
0001
0000
1000
0100
,
0010
0001
0100
0010
,
1000
0000
0001
0100
,
0010
1000
0100
0010
,
0001
0000
1000
0001
,
0100
0010
0100
0000
,
0001
0010
1000
0000
,
1000
0010
0001
0000
,
1002
0000
0100
0000
,
0010
0010
0013
0000
,
2001
0000
0100
0000
,
0010
0010
3010
0000
,
1001
1001
1001
0000
,
0020
0100
0130
0000
,
1000
0100
0001
0100
,
1000
0001
1000
0000
,
1001
0000
0000
0000
,
0000
0000
0000
0000
,
0001
0100
0001
0000
,
1000
0100
1000
0000
,
0001
0001
1000
1000
,
0010
0100
0010
0000
,
1001
1001
1001
0000
,
0010
0100
0010
0000
,
0001
0100
1000
0100
,
0001
1000
0001
0000
,
1000
0100
0010
0000
,
0001
0100
0010
0000
,
1000
1000
0001
0001
,
0010
0100
1000
0001
,
1001
0000
0000
0000
,
0001
0010
0001
1000
,
0100
0010
0001
0000
,
1000
0001
0100
1000
,
0100
0001
1000
0000
,
1001
1001
1001
0000
,
0001
0010
0100
0000
,
1000
0010
0100
0001
,
0010
0100
1000
0000
,
1000
0010
1000
0001
,
0100
0010
1000
0000
,
0001
1000
0100
0001
,
0100
1000
0001
0000
,
1001
1001
1001
0000
,
2000
3000
0002
0003
,
0020
0030
0200
0300
,
1000
0001
1000
1001
,
0000
0001
0010
1000
,
0010
0001
0000
1001
,
0000
1000
0010
0001
,
0010
1000
0000
1001
,
1001
1001
0000
0100
,
0010
0100
0000
1000
,
0001
0100
0010
1000
,
0001
1000
0000
2002
,
0000
0000
0000
0000
,
0000
0000
3003
0000
;

//---------------dance-single - Daff_4K----------------
#NOTEDATA:;
#CHARTNAME:Daff_4K;
#STEPSTYPE:dance-single;
#DESCRIPTION:Daff_4K;
#CHARTSTYLE:;
#DIFFICULTY:Medium;
#METER:8;
#RADARVALUES:0.323729,0.424894,0.367265,0.414150,0.078141,290.000000,243.000000,47.000000,53.000000,0.000000,0.000000,0.000000,0.000000,0.000000,0.323729,0.424894,0.367265,0.414150,0.078141,290.000000,243.000000,47.000000,53.000000,0.000000,0.000000,0.000000,0.000000,0.000000;
#CREDIT:Daff_4K;
#DISPLAYBPM:143.000000;
#NOTES:
0000
0000
0000
0000
,
0000
0000
0000
0000
,
0000
0000
0000
0000
,
0000
0000
0000
0000
,
0002
0000
2003
0000
,
3020
0000
0000
0000
,
0230
0000
0000
0000
,
0302
0000
2003
0000
,
3200
0000
0310
0000
,
2002
0000
3003
0000
,
0001
0100
0001
0000
1000
0000
0000
0000
,
1000
0100
1000
0000
0001
0000
0000
0000
,
0020
0000
0130
0000
,
2002
0000
3003
0000
,
1000
0010
1000
0000
0001
0000
0000
0000
,
0001
0010
0001
0000
1000
0000
0000
0000
,
1001
0000
0001
0100
0000
0100
0010
0000
,
2000
3100
0002
0103
,
1000
0000
1000
0010
0000
0010
0100
0000
,
0002
0013
2000
3010
,
0001
0000
1000
0010
0000
0010
0001
0000
,
0020
0130
0002
1003
,
0100
0010
0100
0000
2002
0000
3003
0000
,
0001
1000
0001
0000
0220
0000
0330
0000
,
2001
0000
0100
0000
,
0010
0010
0020
3030
,
1002
0000
0100
0000
,
0010
0010
0020
0033
,
1001
0110
1001
0000
,
0020
0100
0130
0000
,
0010
0100
0000
0010
0000
1000
0001
0000
,
0020
0100
0130
0000
,
1001
0000
0000
0000
,
0000
0000
0000
0000
,
1000
0000
0000
0010
0000
0000
1000
0000
0001
0000
0000
0000
0000
0000
0000
0000
,
0001
0000
0000
0010
0000
0000
0001
0000
1000
0000
0000
0000
0000
0000
0000
0000
,
0010
0000
0000
0100
0000
0000
0010
0000
2000
0000
0000
0000
3002
0000
0000
0000
,
0013
0000
0000
0100
0000
0000
1000
0000
0001
0000
0000
0000
0000
0000
0000
0000
,
1001
0110
1001
0000
,
1000
0000
0000
0001
0000
0000
1000
0000
0100
0000
0000
0000
0000
0000
0000
0000
,
0010
0000
0000
0100
0000
0000
0010
0000
0002
0000
0000
0000
2003
0000
0000
0000
,
3010
0000
0000
0100
0000
0000
0001
0000
1000
0000
0000
0000
0000
0000
0000
0000
,
1100
0011
1100
0000
,
0101
1010
0101
0000
,
0001
0000
0000
0010
0000
0000
0001
0000
1000
0000
0000
0010
0000
0000
1000
0000
,
0100
0000
0010
0000
0001
1000
0001
1000
,
2002
0000
0000
3003
,
0001
0000
0000
0100
0000
0000
1000
0000
0100
0000
0000
0000
0010
0000
0000
0000
,
1000
0000
0000
0100
0000
0000
0001
0000
0100
0000
0000
0000
0010
0000
0000
0000
,
0001
0000
0000
1000
0000
0000
0010
0000
0100
0000
0000
0000
1001
0000
0000
0000
,
1000
0000
0000
0001
0000
0000
0010
0000
0100
0000
0000
0000
0010
0000
0000
0000
,
1001
0110
2002
3003
,
0001
0000
0000
1000
0000
0000
0100
0000
0010
0000
0000
0000
0100
0000
0000
0000
,
1000
0000
0000
0001
0000
0000
0010
0000
0100
0000
0000
0000
1001
0000
0000
0000
,
0001
0000
0000
1000
0000
0000
0010
0000
0100
0000
0000
0000
0001
0000
1000
0000
,
0001
0000
0000
0010
0000
0000
1000
0000
0010
0000
0000
0000
0001
0000
0000
0000
,
1000
0000
0000
0010
0000
0000
0001
0000
0010
0000
0000
0000
1000
0000
0000
0000
,
0100
0000
0000
0010
0000
0000
0001
0000
1000
0000
0000
0000
0101
0000
0000
0000
,
0100
0000
0000
0010
0000
0000
1000
0000
0001
0000
0000
0000
1001
0000
0000
0000
,
0110
1001
0220
0330
,
2000
0000
0000
3010
0000
0010
0100
0000
,
0002
0000
0000
0013
0000
0010
0100
0000
,
2000
0000
0000
0001
0000
3001
1000
0000
,
1100
0000
0001
0100
0001
0000
0010
0000
,
0100
2002
3003
0001
,
0101
0000
1000
0100
1000
0000
0010
0000
,
0100
2002
3003
0011
,
1100
2002
3003
1010
,
0101
2002
3003
1000
,
1100
0001
0101
1001
,
0110
2002
3003
0220
,
0000
0000
0000
0000
,
0000
0000
0330
0000
;

//---------------dance-single - Daff_4K----------------
#NOTEDATA:;
#CHARTNAME:Daff_4K;
#STEPSTYPE:dance-single;
#DESCRIPTION:Daff_4K;
#CHARTSTYLE:;
#DIFFICULTY:Hard;
#METER:12;
#RADARVALUES:0.424197,0.481547,0.359451,0.570433,0.113305,380.000000,334.000000,46.000000,73.000000,0.000000,0.000000,0.000000,0.000000,0.000000,0.424197,0.481547,0.359451,0.570433,0.113305,380.000000,334.000000,46.000000,73.000000,0.000000,0.000000,0.000000,0.000000,0.000000;
#CREDIT:Daff_4K;
#DISPLAYBPM:143.000000;
#NOTES:
0000
0000
0000
0000
,
0000
0000
0000
0000
,
0000
0000
0000
0000
,
0000
0000
0000
0000
,
1002
0000
0203
0000
,
0320
0000
2030
0000
,
3200
0000
0000
0000
,
0320
0000
0000
0000
0032
0000
1003
0001
,
0200
0310
2000
3001
,
0020
0000
0130
1000
,
0001
0100
0000
0020
0000
1030
0001
0000
,
1000
0100
0000
0020
0000
0031
1000
0000
,
0200
0310
0002
1003
,
0020
0000
0130
0001
,
1000
0100
0000
0020
0000
0031
1000
0000
,
0001
0100
0000
0020
0000
1030
0001
0000
,
2001
0000
3100
0020
0000
0031
1000
0000
,
0020
0100
1000
0130
,
1002
0000
0103
0020
0000
1030
0001
0000
,
0020
0100
0001
0130
,
2001
0000
3010
0200
0000
0310
1000
0001
,
0020
1000
0100
0031
,
0001
1000
0000
2020
0000
3030
0100
0001
,
1000
0100
0000
0012
0000
1003
0000
0000
,
1002
0000
0000
0100
0000
0103
0010
1000
,
0200
0001
0020
0330
,
2001
0000
0000
0100
0000
3100
0010
0001
,
0200
1000
0020
0330
,
1001
0110
2002
3003
,
0110
1001
0220
0330
,
1000
0001
0000
0200
0000
0310
1000
0000
,
1001
0110
2002
3003
,
0220
0000
0000
0000
,
0000
0000
0000
0330
,
0001
0000
0000
1000
0000
0000
0010
0000
0100
0000
0000
0000
0100
0000
0001
0000
,
1000
0000
0000
0001
0000
0000
0010
0000
0100
0000
0000
0000
0100
0000
1000
0000
,
0001
0000
0000
0100
0000
0000
1000
0000
0100
0000
0001
0000
0100
0000
0001
0000
,
0010
0000
0000
1000
0000
0000
0010
0000
0001
0000
0000
0000
1001
0000
0000
0000
,
1010
0101
2002
3003
,
1000
0000
0000
0001
0000
0000
0010
0000
0200
0000
0000
0000
0310
0000
0001
0000
,
1000
0000
0000
0100
0000
0000
0001
0000
0100
0000
1000
0000
0100
0000
1000
0000
,
0010
0000
0000
0001
0000
0000
0010
0000
1000
0000
0000
0000
1001
0000
0000
0000
,
0011
1100
1002
0103
,
1010
0101
2001
3100
,
0010
0001
0100
0000
0010
1000
0100
0000
,
0010
0001
1000
0001
0100
0100
0010
0010
,
2002
0000
0000
3003
,
1000
0000
0000
0100
0000
1000
0100
0000
0001
0000
0000
0000
0100
0000
1000
0000
,
0001
0000
0000
0100
0000
0001
0100
0000
1000
0000
0000
0000
0100
0000
0001
0000
,
0010
0000
0000
0100
0000
0010
0100
0000
1000
0000
0010
0000
0001
0000
0010
0000
,
1000
0000
0000
0001
0000
1000
0001
0000
0020
0000
0000
0000
0130
0000
0000
0000
,
1001
0110
2002
3003
,
1000
0000
0000
0001
0000
0010
0100
0000
0010
0000
0000
0000
0001
0000
1000
0000
,
0010
0000
0000
0100
0000
0010
0100
0000
0001
0000
0010
0000
1000
0000
0010
0000
,
0001
0000
0000
1000
0000
0001
1000
0000
0020
0000
0000
0000
0130
0000
0000
0000
,
0001
0010
1000
0010
0001
0010
1000
0010
,
0001
0100
1000
0100
0001
0100
0010
1000
,
0100
0001
0100
1000
0100
0001
0100
1000
,
0010
0001
0010
1000
0010
0100
0001
0000
,
1001
0110
2002
3003
,
2001
0000
3010
0200
0000
0301
1000
0000
,
1002
0000
0013
0200
0000
1300
0001
0000
,
2001
0000
3010
0200
0000
0301
2001
0000
,
3100
0000
0001
0000
0100
0000
1000
0000
0100
0000
0010
0000
0001
1000
0000
0000
,
1000
0010
0000
0000
0210
0000
0000
0000
0301
0000
1000
0000
0200
0000
0000
0000
,
0310
0000
0001
0000
1000
0000
0010
0000
0100
0000
0001
0000
0010
0100
0000
0000
,
0100
1000
0000
0000
1020
0000
0000
0000
0130
0000
0000
0000
1002
0000
0000
0000
,
0103
0000
1000
0000
0100
0000
0001
0000
0100
0000
0010
0000
1000
0001
0000
0000
,
0001
0010
0000
0000
0210
0000
0000
0000
1300
0000
0001
0000
0200
0000
0000
0000
,
0310
0000
1000
0000
0001
0000
0010
0000
0100
0000
1000
0000
0010
0100
0000
0000
,
0100
0001
0000
0000
0021
0000
0000
0000
0130
0000
0000
0000
2002
0000
0000
0000
,
0000
0000
0000
0000
,
0000
0000
3003
0000
;

//---------------dance-single - Daff_4K----------------
#NOTEDATA:;
#CHARTNAME:Daff_4K;
#STEPSTYPE:dance-single;
#DESCRIPTION:Daff_4K;
#CHARTSTYLE:;
#DIFFICULTY:Challenge;
#METER:13;
#RADARVALUES:0.514618,0.708157,0.296938,0.515734,0.386800,461.000000,423.000000,38.000000,66.000000,0.000000,0.000000,0.000000,0.000000,0.000000,0.514618,0.708157,0.296938,0.515734,0.386800,461.000000,423.000000,38.000000,66.000000,0.000000,0.000000,0.000000,0.000000,0.000000;
#CREDIT:Daff_4K;
#DISPLAYBPM:143.000000;
#NOTES:
// measure 0
0000
0000
0000
0000
,  // measure 1
0000
0000
0000
0000
,  // measure 2
0000
0000
0000
0000
,  // measure 3
0000
0000
0000
0000
,  // measure 4
2002
3000
0200
0003
,  // measure 5
2000
0300
0200
3000
,  // measure 6
0020
0000
0000
0300
,  // measure 7
2000
0000
0030
0000
3002
0000
1003
0100
,  // measure 8
0002
0103
2000
3010
,  // measure 9
0202
0000
0300
0000
1003
0000
0001
1000
,  // measure 10
0100
0010
0000
2002
0000
3003
0001
1000
,  // measure 11
0010
0100
0000
2002
0000
3003
0001
0100
,  // measure 12
2000
3100
0002
0013
,  // measure 13
2200
0000
0300
0000
3001
0000
1000
0001
,  // measure 14
0100
0010
0000
2002
0000
3003
1000
0001
,  // measure 15
0010
0100
0000
2002
0000
3003
1000
0001
,  // measure 16
0200
0000
0310
2000
0000
3001
1000
0200
,  // measure 17
0001
0010
1300
1001
,  // measure 18
0002
0000
0103
0020
0000
1030
0001
0010
,  // measure 19
0100
0000
0110
0000
1001
0000
0001
1000
,  // measure 20
0200
0000
0310
0002
0000
1003
0001
0200
,  // measure 21
1000
0000
0010
0000
0301
0000
1000
0100
,  // measure 22
0010
0002
0000
1000
0000
0013
0001
0100
,  // measure 23
0010
2000
0000
0001
0000
3100
0010
0000
,  // measure 24
1002
0000
0013
0200
0000
0310
1000
0010
,  // measure 25
0001
1000
0000
0000
1000
0010
0000
0000
0210
0000
0000
0000
0301
0000
0000
0000
,  // measure 26
2001
0000
3010
0200
0000
0310
0001
0010
,  // measure 27
1000
0001
0000
0000
0001
0010
0000
0000
0210
0000
0000
0000
1300
0000
0000
0000
,  // measure 28
1001
0110
2002
3003
,  // measure 29
0001
1000
0000
0000
1000
0010
0000
0000
0210
0000
0000
0000
0301
0000
0000
0000
,  // measure 30
0001
1000
0000
1001
0000
0001
0010
0100
,  // measure 31
1000
0001
0000
0000
0001
0100
0000
0000
0120
0000
0000
0000
1030
0000
0000
0000
,  // measure 32
2002
0000
0000
0000
,  // measure 33
0000
0000
0000
3003
,  // measure 34
0001
0010
0000
0010
0000
0100
1000
0000
0001
0000
0000
0000
0010
0000
0100
0000
,  // measure 35
1000
0010
0000
0010
0000
0100
0001
0000
1000
0000
0000
0000
1001
0000
0000
0000
,  // measure 36
0001
1000
0000
1000
0000
0100
0010
0000
0001
0000
0100
0000
1000
0000
0100
0000
,  // measure 37
0001
1000
0000
1000
0000
0100
0010
0000
0002
0000
0000
0000
1003
0000
0000
0000
,  // measure 38
1001
0000
0110
0000
1001
0000
1000
0001
,  // measure 39
0100
0010
0000
0010
0000
1000
0001
0000
0010
0000
0000
0000
0010
0000
0100
0000
,  // measure 40
1000
0001
0000
0001
0000
0100
0010
0000
1000
0000
0100
0000
0001
0000
0100
0000
,  // measure 41
1000
0001
0000
0001
0000
0100
0010
0000
2000
0000
0000
0000
3001
0000
0000
0000
,  // measure 42
1000
0100
0000
0100
0000
1000
0100
0000
0010
0000
0000
0000
0100
0000
0010
0000
,  // measure 43
0001
0100
0000
0100
0000
0001
0100
0000
0010
0000
0000
0000
0100
0000
0010
0000
,  // measure 44
1000
0100
0000
0100
0000
0010
0001
0000
0001
0100
0000
0100
0000
0010
1000
0000
,  // measure 45
0001
0000
1000
0100
1000
0000
0001
0100
0001
0000
0010
0000
0100
0000
1000
0000
,  // measure 46
2002
0000
0000
3003
,  // measure 47
0001
0010
0000
0010
0000
0100
1000
0000
0002
0000
0000
0000
0103
0000
0010
0000
,  // measure 48
1000
0010
0000
0010
0000
0100
0001
0000
2000
0000
0000
0000
3100
0000
0010
0000
,  // measure 49
0001
1000
0000
1000
0000
0010
0100
0000
0001
0000
0010
0000
1000
0000
0010
0000
,  // measure 50
0001
1000
0000
1000
0000
0010
0100
0000
0002
0000
0000
0000
1003
0000
0000
0000
,  // measure 51
1100
0000
0011
0000
1001
0000
1000
0001
,  // measure 52
0100
0010
0000
0100
0000
0001
1000
0000
0200
0000
0000
0000
0310
0000
0001
0000
,  // measure 53
1000
0001
0000
0001
0000
0010
0100
0000
1000
0000
0010
0000
0001
0000
0010
0000
,  // measure 54
1000
0001
0000
0001
0000
0010
0100
0000
2000
0000
0000
0000
3001
0000
0000
0000
,  // measure 55
1000
0100
0000
0100
0000
0100
0010
0001
2000
0000
0000
0000
3001
0000
1000
0000
,  // measure 56
0001
0100
0000
0100
0000
0100
0010
1000
0002
0000
0000
0000
1003
0000
0001
0000
,  // measure 57
0010
0100
0000
0100
0000
0010
0100
1000
0001
0000
0100
0000
1000
0000
0100
0000
,  // measure 58
0010
0100
0000
0100
0000
0010
0100
0001
2000
0000
0000
0000
3001
0000
0000
0000
,  // measure 59
0011
0000
1100
0000
1001
0000
0001
1000
,  // measure 60
0010
0000
0000
0010
0100
0000
0002
0000
0000
0000
1003
0000
0001
0000
0001
0000
,  // measure 61
0010
0000
0000
0010
0100
0000
2000
0000
0000
0000
3001
0000
1000
0000
1000
0000
,  // measure 62
0010
0000
0000
0010
0100
0000
0002
0000
0000
0000
1003
0000
1001
0000
0000
1000
,  // measure 63
0100
0000
0001
0000
0100
0000
1000
0000
0100
0000
0010
0000
0001
0100
0001
0000
,  // measure 64
1000
0100
1000
0000
0020
0000
0000
0000
0130
0000
0000
0000
1001
0000
0000
0001
,  // measure 65
0100
0000
1000
0000
0100
0000
0001
0000
0100
0000
0010
0000
1000
0100
1000
0000
,  // measure 66
0001
0100
0001
0000
0020
0000
0000
0000
0130
0000
0000
0000
1001
0000
0000
0000
,  // measure 67
0110
0000
0000
0000
1001
0000
0000
0001
0100
0000
0010
0000
1000
0100
1000
0000
,  // measure 68
0001
0100
0001
0000
0020
0000
0000
0000
0130
0000
1000
0000
0001
0000
1000
0010
,  // measure 69
1000
0000
0001
0010
0001
0000
0100
0000
0010
0000
1000
0000
0001
0010
0100
0000
,  // measure 70
1000
0010
0100
0000
0001
1000
0001
1000
0100
0010
0001
0000
2002
0000
0000
0000
,  // measure 71
0000
0000
0000
0000
,  // measure 72
0000
0000
3003
0000
;
