#VERSION:0.83;
#TITLE:Hardware Store;
#SUBTITLE:;
#ARTIST:"Weird Al" Yankovic;
#TITLETRANSLIT:;
#SUBTITLETRANSLIT:;
#ARTISTTRANSLIT:;
#GENRE:;
#ORIGIN:;
#CREDIT:;
#BANNER:;
#BACKGROUND:;
#PREVIEWVID:;
#JACKET:;
#CDIMAGE:;
#DISCIMAGE:;
#LYRICSPATH:;
#CDTITLE:;
#MUSIC:Hardware Store.ogg;
#OFFSET:-0.180000;
#SAMPLESTART:108.594002;
#SAMPLELENGTH:17.118000;
#SELECTABLE:YES;
#DISPLAYBPM:126.000000;
#BPMS:0.000=126.183,
160.000=31.546,
176.000=126.183;
#STOPS:;
#DELAYS:;
#WARPS:;
#TIMESIGNATURES:0.000=4=4;
#TICKCOUNTS:0.000=4;
#COMBOS:0.000=1;
#SPEEDS:0.000=1.000=0.000=0,
152.000=0.020=3.000=0,
155.000=0.080=5.000=0,
160.000=1.000=1.000=0;
#SCROLLS:0.000=1.000,
160.000=4.000,
176.000=1.000;
#FAKES:;
#LABELS:0.000=Song Start;
#BGCHANGES:;
#KEYSOUNDS:;
#ATTACKS:
;

//---------------dance-single - FS+ DS XO SS-----------------
#NOTEDATA:;
#CHARTNAME:;
#STEPSTYPE:dance-single;
#DESCRIPTION:FS+ DS XO SS-;
#CHARTSTYLE:;
#DIFFICULTY:Challenge;
#METER:17;
#RADARVALUES:0.782556,2.807281,0.103496,0.362236,1.460032,741.000000,727.000000,14.000000,49.000000,7.000000,0.000000,4.000000,0.000000,0.000000,0.782556,2.807281,0.103496,0.362236,1.460032,741.000000,727.000000,14.000000,49.000000,7.000000,0.000000,4.000000,0.000000,0.000000;
#CREDIT:Kingly;
#DISPLAYBPM:126.000000;
#NOTES:
// measure 0
0000
0000
0000
0000
,  // measure 1
0000
0000
0000
0000
,  // measure 2
0000
0000
0000
0000
,  // measure 3
0000
0000
0000
0000
,  // measure 4
0102
0000
2003
0000
0010
0000
3001
0000
0010
0000
0100
0001
0000
0100
1000
0000
,  // measure 5
2100
0000
3002
0000
0010
0000
1003
0000
0010
0000
0100
1000
0000
0100
0001
0000
,  // measure 6
0102
0000
2003
0000
0010
0000
3001
0000
0010
0000
0100
0001
0000
0100
1000
0000
,  // measure 7
0001
0000
0100
0000
0010
0000
1000
0000
0001
1000
0001
1000
0001
0000
0010
0100
,  // measure 8
1000
0000
0000
0000
0001
0000
1000
0000
0100
0000
0100
0000
0020
0030
0020
0030
0001
0000
0010
0000
0100
0000
1000
0000
0001
0000
0000
0000
0100
0000
0010
0000
,  // measure 9
1000
0000
0000
0000
0100
0000
00M0
0000
0200
0300
0000
0000
0001
0000
1000
0000
0001
0000
0100
0000
0100
0000
1000
0000
0100
0000
0000
0000
0010
0000
0001
0000
,  // measure 10
1000
0000
0010
0100
0000
0010
1000
0010
0100
0001
1000
0100
0000
0010
0001
0100
,  // measure 11
0001
2000
0000
3200
0000
0001
0000
0310
,  // measure 12
0001
0000
0000
0000
1000
0000
0000
0000
0010
0000
0M00
0000
0020
0030
0001
0000
0010
0000
0100
0000
1000
0000
0001
0000
0200
0000
0000
0000
0010
0000
0000
0000
,  // measure 13
0000
0301
1000
0100
1000
0000
0001
0010
0100
1000
0100
0100
0001
0000
0100
0010
,  // measure 14
1000
0000
0010
0100
0000
0010
1000
0001
0010
0000
0100
1000
0000
0100
0010
0001
,  // measure 15
1000
0002
0000
0203
0000
1000
0000
0310
,  // measure 16
2000
0000
0000
0000
0100
0000
0000
0000
3001
0000
0000
0000
0100
0000
0010
0000
1000
0000
0001
0000
1000
0000
0000
0000
0010
0000
0M00
0000
0020
0030
0001
0000
,  // measure 17
0000
0010
0100
1000
0001
0000
0100
0010
0000
0100
0001
1000
0010
0000
0100
0001
,  // measure 18
0010
0000
0001
1000
0000
0010
1000
0001
0100
0100
1000
0000
0100
0000
0010
0001
,  // measure 19
1000
0002
0000
0023
0000
1000
0000
0130
,  // measure 20
1000
0000
0001
1000
0010
0000
0100
0001
0000
0100
0010
1000
0001
0000
2000
0000
,  // measure 21
0000
0000
3001
0000
0100
0000
0100
0000
0020
0030
0020
0030
1000
0000
0001
0000
1000
0000
0100
0000
0010
0000
0001
0000
1000
0000
0000
0000
0001
0000
0100
0000
,  // measure 22
0000
0001
0010
0100
1000
0000
0100
0010
0000
0001
0100
0001
1000
0000
0100
0010
,  // measure 23
0001
2000
0000
3020
0000
0001
0000
0130
,  // measure 24
1001
0000
0000
0000
0001
0000
0000
0000
1000
0000
0100
0000
0000
0000
1000
0000
0010
0000
0000
0000
1000
0000
0000
0000
0400
0300
00M0
0000
0400
0300
0000
0000
,  // measure 25
0001
0000
0100
0000
0010
1000
0000
0001
0010
0000
0001
0100
00M0
0100
1000
0000
,  // measure 26
0100
0000
0010
0000
0001
1000
0000
0000
0010
0000
0100
0001
0000
1000
0000
0000
,  // measure 27
1100
0000
0000
0101
0000
0000
2001
0000
0000
0000
3010
0100
0001
1000
0001
1000
,  // measure 28
0001
0000
1000
0000
0100
0100
0001
1000
0100
0100
0001
1000
0100
0100
0010
0010
,  // measure 29
0001
0010
0100
2000
0010
0000
3001
0000
0010
0100
1000
0001
0010
0010
1000
0001
,  // measure 30
0100
0100
1000
0100
0010
0010
1000
0010
0100
0100
1000
0100
0001
0001
0010
0100
,  // measure 31
2000
0002
3003
2002
0000
0000
0000
3000
,  // measure 32
0023
0000
0230
0000
2300
0000
0002
3003
,  // measure 33
1000
0000
0010
0000
1000
0000
0001
0010
0000
0001
1000
0000
0010
0000
0100
0000
,  // measure 34
0001
0000
0010
0000
0001
0000
1000
0010
0000
1000
0001
0000
0010
0000
0100
0000
,  // measure 35
1000
0000
0001
0000
1000
0000
0010
0100
0000
0010
1000
0000
0100
0000
0010
0000
,  // measure 36
0001
0000
1000
0000
0001
0000
0010
0100
0000
0010
0001
0000
1000
0000
0001
0000
,  // measure 37
2002
0000
0000
0000
,  // measure 38
0000
0000
0000
3003
,  // measure 39
0000
0000
0000
0000
,  // measure 40
0000
0000
0000
0000
0000
0000
0000
0000
0000
0000
0000
0000
0000
0001
1000
0000
0100
0100
0001
0100
0010
1000
0010
0010
0001
0010
0100
1000
0001
0100
1000
0100
0010
0100
0100
1000
0010
0010
0001
0010
0100
1000
0100
0001
0100
0010
0001
1000
0100
0100
0010
0010
0001
1000
0010
0100
0001
1000
0100
0100
0010
0001
0010
1000
,  // measure 41
0010
0010
0001
0010
0100
1000
0010
1000
0001
0100
0100
1000
0001
0010
1000
0010
0100
0100
0001
0100
0010
1000
0010
0010
0001
0010
0100
0100
0001
0100
1000
0100
0010
0100
0100
1000
0001
1000
0010
0010
0001
0010
0100
0100
0001
0100
0010
1000
0001
0100
0100
0010
0001
0010
0010
1000
0001
0100
1000
0100
0010
0100
0100
1000
,  // measure 42
0100
0010
0001
1000
0100
0001
0100
0010
0001
0010
0010
1000
0001
0100
0100
1000
0010
0010
0001
0100
0010
0100
1000
0100
0001
0100
0100
1000
0100
0001
0100
1000
0001
0010
0010
1000
0001
0100
0100
1000
0001
0010
0001
0010
0100
1000
0100
1000
0001
0100
0100
1000
0010
1000
0001
0100
0100
1000
0100
0010
0001
1000
0100
0100
,  // measure 43
0001
0100
1000
0100
0010
1000
0010
0010
0001
1000
0100
0001
0100
0010
0001
1000
0100
0100
0001
0100
0010
1000
0100
1000
0001
0100
0010
0100
1000
0100
0010
0100
0001
1000
0100
0100
0010
0001
0010
1000
0001
0100
0100
1000
0001
0100
0100
1000
0001
0010
0100
1000
0100
0100
0010
1000
0001
0010
0010
1000
0100
0100
0001
1000
,  // measure 44
0001
0100
0001
0100
0010
1000
0010
1000
0001
0100
0100
1000
0010
0010
0001
1000
,  // measure 45
0001
0000
0000
0000
1000
0000
0000
0000
0001
0000
0100
0000
0000
0000
0001
0000
0010
0000
0000
0000
0001
0000
0000
0000
0400
0300
00M0
0000
0400
0300
0000
0000
,  // measure 46
1000
0000
0100
0000
0010
0001
0000
1000
0010
0000
1000
0100
00M0
0100
0001
0000
,  // measure 47
0100
0000
0010
0000
1000
0001
0000
0000
0010
0000
0100
1000
0000
0001
0000
0000
,  // measure 48
0101
0000
0000
1100
0000
0000
1002
0000
0000
0000
0013
0100
1000
0001
1000
0001
,  // measure 49
1000
0000
0001
0000
0100
0100
1000
0001
0100
0100
1000
0001
0100
0100
0010
0010
,  // measure 50
1000
0010
0100
0002
0010
0000
1003
0000
0010
0100
0001
1000
0010
0010
0001
1000
,  // measure 51
0100
0100
0001
0100
0010
0010
0001
0010
0100
0100
0001
0100
1000
1000
0010
0100
,  // measure 52
0002
2000
3003
2002
0000
0000
0000
0003
,  // measure 53
3020
0000
0000
0000
0230
0000
0000
0000
0301
0100
0001
1000
0100
0010
0001
1000
,  // measure 54
0001
0000
1000
0000
0100
0100
0001
1000
0100
0100
0001
1000
0100
0100
0010
0010
,  // measure 55
0001
0010
0100
2000
0010
0000
3001
0000
0010
0100
1000
0001
0010
0010
1000
0001
,  // measure 56
0100
0100
1000
0100
0010
0010
1000
0010
0100
0100
1000
0100
0001
0001
0010
0100
,  // measure 57
2000
0000
0000
0000
0000
0000
0002
3003
,  // measure 58
2002
0000
0000
0000
0000
0000
0000
3003
;

//---------------dance-single - ----------------
#NOTEDATA:;
#CHARTNAME:;
#STEPSTYPE:dance-single;
#DESCRIPTION:;
#CHARTSTYLE:;
#DIFFICULTY:Hard;
#METER:15;
#RADARVALUES:0.676948,2.567901,0.081318,0.325273,1.119974,641.000000,630.000000,11.000000,44.000000,2.000000,0.000000,0.000000,0.000000,0.000000,0.676948,2.567901,0.081318,0.325273,1.119974,641.000000,630.000000,11.000000,44.000000,2.000000,0.000000,0.000000,0.000000,0.000000;
#CREDIT:Kingly;
#DISPLAYBPM:126.000000;
#NOTES:
0000
0000
0000
0000
,
0000
0000
0000
0000
,
0000
0000
0000
0000
,
0000
0000
0000
0000
,
1000
0000
0100
0000
1000
0000
0001
0000
0010
0000
0001
0100
0000
0000
1010
0000
,
0001
0000
0100
0000
0001
0000
1000
0000
0010
0000
1000
0100
0000
0000
0011
0000
,
1000
0000
0100
0000
1000
0000
0001
0000
0010
0000
0001
0100
0000
0000
1010
0000
,
0001
0000
0010
0000
0100
0000
1000
0000
0001
1000
0001
1000
0001
0000
0100
0000
,
0001
0000
0010
0100
1000
0001
1000
0001
1000
0000
0010
0000
0100
0000
0001
1000
,
0001
0000
0010
0000
0100
0000
1000
0001
1000
0000
0010
0000
1000
0000
0100
0010
,
0001
0000
1000
0010
0000
1000
0010
0000
0100
0000
0001
0010
0000
0001
0010
0000
,
0100
2000
0000
3020
0000
0032
0000
0013
,
1000
0000
0001
0000
0010
0000
1000
0000
0010
0001
0010
0001
0010
0000
0200
0000
,
0000
1300
0001
0000
0100
0000
0010
0000
1000
0100
1000
0000
0001
0000
1000
0010
,
1000
0000
0100
0010
0000
0100
1000
0100
1000
0000
0001
0100
0000
0010
1000
0010
,
1000
0002
0000
0023
0000
2030
0000
3010
,
0001
0000
1000
0000
0010
0000
0100
0001
0100
0001
1000
0000
0100
0000
0001
0100
,
0000
1000
0100
0010
0001
0000
1000
0010
0000
1000
0010
0100
0001
0000
1000
0100
,
1000
0000
0001
0100
0000
0001
0100
0000
0010
1000
0001
0000
0010
0000
0001
1000
,
0010
0200
0000
2300
0000
3200
0000
0301
,
1000
0000
0100
0010
0100
0000
1000
0001
0000
1000
0001
0000
0100
0000
0020
0000
,
0000
1030
0100
0000
0001
0100
0010
0000
0001
1000
0001
1000
0010
0000
0100
0001
,
0000
0010
0001
0010
0001
0000
1000
0010
0000
0100
0001
0100
0001
0000
1000
0001
,
0010
0200
0000
0302
0000
0203
0000
1300
,
0001
0000
1000
0100
0000
0001
0100
0000
0020
0000
0000
0031
0100
00M0
0100
0000
,
1000
0000
0001
0100
0000
1000
0100
0000
0020
0000
0000
1030
0001
0000
0010
0000
,
0100
0000
1000
0000
0010
1000
0000
0000
0001
0000
0010
0001
0000
2000
0000
0000
,
3010
0000
0000
0110
0000
0000
2002
0000
0000
0000
0000
0000
0000
0000
3003
0000
,
1000
0000
0001
0000
1000
0000
0100
0100
0001
0000
0100
0010
1000
0000
0010
0010
,
0001
0000
0010
0100
0001
0000
0100
0000
1000
0000
0010
0100
1000
0000
0100
0001
,
1000
0000
0100
0100
0001
0000
0010
0010
1000
0000
0001
0010
1000
0000
0010
0001
,
2000
0002
3003
2002
0000
0000
0000
3000
,
0023
0230
2300
3002
,
0103
0000
0010
0000
1000
0000
0001
0010
0000
0001
0010
0000
0100
0000
1000
0000
,
0100
0000
0010
0000
0001
0000
1000
0010
0000
1000
0010
0000
0100
0000
0001
0000
,
0010
0000
0100
0000
1000
0000
0010
0100
0000
0010
0100
0000
0001
0000
1000
0000
,
0010
0000
0100
0000
0001
0000
0010
0100
0000
0010
0100
0000
1000
0000
0001
0000
,
2002
0000
0000
0000
,
0000
0000
0000
3003
,
0000
0000
0000
0000
,
0000
0000
0000
0000
0000
0000
0000
0000
0000
0000
0000
0000
0000
0000
0000
0000
1000
0100
1000
0000
0001
0010
0001
0000
1000
0100
1000
0100
0010
0001
1000
0000
0001
0100
0001
0000
1000
0010
1000
0000
0001
0100
0001
0100
0010
1000
0001
0000
0010
0001
0010
0000
0100
1000
0100
0000
0010
0001
0010
0001
1000
0010
0100
0000
,
0010
1000
0010
0000
0100
0001
0100
0000
0010
1000
0010
1000
0001
0010
0100
0000
1000
0100
0010
0000
0001
0100
0010
0000
1000
0001
1000
0001
0010
0100
1000
0000
0001
0100
0010
0000
1000
0100
0010
0000
0001
1000
0001
1000
0010
0100
0001
0000
1000
0001
0010
0000
0001
1000
0010
0000
0100
0001
0010
0001
1000
0010
0100
0000
,
0001
1000
0010
0000
1000
0001
0010
0000
0100
1000
0010
1000
0001
0010
0100
0000
1000
0001
0100
0001
1000
0001
0100
0000
0010
1000
0001
1000
0010
1000
0001
0000
0010
0100
1000
0100
0010
0100
1000
0000
0001
0010
0100
0010
0001
0010
0100
0000
1000
0010
0100
0010
1000
0010
0100
0000
0001
0100
0010
0100
0001
0100
0010
0000
,
1000
0001
0010
0001
1000
0001
0010
0000
0100
1000
0001
1000
0100
1000
0001
0000
1000
0010
0100
0001
1000
0100
0010
0001
1000
0001
0100
0001
1000
0001
0010
0100
1000
0001
1000
0100
1000
0010
0100
0001
1000
0001
0010
0100
1000
0010
1000
0001
0100
0001
0010
0100
1000
0001
0010
0001
0100
0010
1000
0100
1000
0001
0010
0001
,
1000
0010
1000
0010
0100
0001
0100
0001
1000
0100
1000
0100
0010
0001
0010
0001
,
1000
0000
0001
0100
0000
1000
0100
0000
0020
0000
0000
1030
0100
00M0
0100
0000
,
0001
0000
1000
0100
0000
0001
0100
0000
0020
0000
0000
0031
1000
0000
0010
0000
,
0100
0000
0001
0000
0010
0001
0000
0000
1000
0000
0010
1000
0000
0002
0000
0000
,
0013
0000
0000
0110
0000
0000
2002
0000
0000
0000
0000
0000
0000
0000
3003
0000
,
0001
0000
1000
0000
0001
0000
0100
0100
1000
0000
0100
0010
0001
0000
0010
0010
,
1000
0000
0010
0100
1000
0000
0100
0000
0001
0000
0010
0100
0001
0000
0100
1000
,
0001
0000
0100
0100
1000
0000
0010
0010
0001
0000
1000
0010
0001
0000
0010
1000
,
0002
2000
3003
2002
0000
0000
0000
0003
,
3020
0000
0000
0000
0230
0000
0000
0000
0301
1000
0001
1000
0001
1000
0001
1000
,
0001
0000
0010
0000
0001
0000
0100
0100
1000
0000
0100
0010
0001
0000
0010
0010
,
1000
0000
0010
0100
1000
0000
0100
0000
0001
0000
0010
0100
0001
0000
0100
1000
,
0001
0000
0100
0100
1000
0000
0010
0010
0001
0000
1000
0010
0001
0000
0010
1000
,
0002
0000
0000
0000
0000
0000
2000
3003
,
2002
0000
0000
0000
0000
0000
0000
3003
;

//---------------dance-single - ----------------
#NOTEDATA:;
#CHARTNAME:;
#STEPSTYPE:dance-single;
#DESCRIPTION:;
#CHARTSTYLE:;
#DIFFICULTY:Medium;
#METER:11;
#RADARVALUES:0.458339,1.414522,0.066533,0.354843,0.447250,434.000000,425.000000,9.000000,48.000000,0.000000,0.000000,0.000000,0.000000,0.000000,0.458339,1.414522,0.066533,0.354843,0.447250,434.000000,425.000000,9.000000,48.000000,0.000000,0.000000,0.000000,0.000000,0.000000;
#CREDIT:Kingly;
#DISPLAYBPM:126.000000;
#NOTES:
0000
0000
0000
0000
,
0000
0000
0000
0000
,
0000
0000
0000
0000
,
0000
0000
0000
0000
,
1000
0000
0100
0000
0010
0000
0001
0000
0010
0000
0000
1000
0000
0000
0010
0000
,
0001
0000
0010
0000
0100
0000
1000
0000
0100
0000
0000
0001
0000
0000
0100
0000
,
1000
0000
0010
0000
0100
0000
0001
0000
0100
0000
0000
1000
0000
0000
0100
0000
,
0001
0100
0010
1000
0001
0010
0100
1000
,
0001
0100
0001
0001
1000
0100
0010
0001
,
1000
0100
0100
1000
0001
0100
0010
1000
,
0001
0000
0000
0100
0000
0000
0001
0000
1000
0000
0000
0100
0000
0000
1000
0000
,
0010
2000
0000
3200
0000
0302
0000
0103
,
0010
0001
1000
1000
0010
0100
0001
1000
,
0000
0100
0010
0100
1000
0001
0100
0010
,
1000
0000
0000
0100
0000
0000
1000
0000
0001
0000
0000
0100
0000
0000
0001
0000
,
0010
0002
0000
0203
0000
2300
0000
3100
,
0010
1000
0001
0010
0100
1000
0001
0001
,
0100
0001
0010
0100
1000
0010
1000
0001
,
1000
0000
0000
0010
0000
0000
1000
0000
0001
0000
0010
0000
0100
0000
1000
0000
,
0001
2000
0000
3020
0000
0032
0000
0013
,
0100
0000
0001
0000
1000
0000
0000
0100
0000
0000
1000
0000
0001
0000
0200
0000
,
0000
0000
0310
0000
0010
0000
1000
0000
0001
0000
0010
0000
0100
0000
1000
0001
,
0000
0000
0001
0000
1000
0000
0001
1000
0000
0000
0001
0000
1000
0000
0010
0000
,
0100
0002
0000
0023
0000
2030
0000
3010
,
0100
0000
1000
0000
0000
1100
0000
0000
0002
0000
0000
0203
0000
0000
1300
0000
,
0100
0000
0001
0000
0000
0101
0000
0000
2000
0000
0000
3200
0000
0000
0301
0000
,
0100
0000
1000
0000
0001
0100
0000
0000
0001
0000
1000
0100
0000
0020
0000
0000
,
0032
0000
0000
2000
3003
0000
2002
0000
0000
0000
0000
0000
0000
0000
3003
0000
,
1000
0001
0100
0100
0010
0010
1000
1000
,
0001
0001
0010
0010
0100
0100
1000
1000
,
0010
0010
0100
0100
0001
0001
1000
1000
,
0020
0200
0330
0220
0000
0000
0000
0000
,
0330
0000
0000
0000
,
1000
0000
0100
0000
1000
0000
0000
0001
0000
0000
1000
0000
0010
0000
0100
0000
,
0001
0000
0100
0000
0001
0000
0000
1000
0000
0000
0001
0000
0010
0000
0100
0000
,
1000
0000
0001
0000
0100
0000
0000
0010
0000
0000
0100
0000
0001
0000
1000
0000
,
0100
0000
0010
0000
0001
0000
0000
1000
0000
0000
0001
0000
0100
0000
0010
0000
,
2000
0000
0000
0000
,
0000
0000
0000
3000
,
0000
0000
0000
0000
,
0000
0000
0000
0000
0000
0000
0000
0000
1000
0100
0010
0001
0100
0001
1000
0010
1000
0100
0010
0001
1000
0001
0100
0010
1000
0100
1000
0001
0100
0010
1000
0100
,
1000
0010
0100
0001
0010
0001
1000
0100
0010
0001
0010
0100
1000
0010
1000
0001
0100
0001
1000
0010
0100
0001
1000
0001
0010
0100
1000
0010
1000
0001
0100
0001
,
0010
0001
1000
0100
0010
0001
1000
0010
0100
0001
0010
0001
1000
0010
0001
0010
0100
0001
1000
0100
0010
0100
0001
0100
0010
0001
1000
0001
0100
1000
0100
0010
,
1000
0001
0010
0100
1000
0100
0001
0100
0010
0001
0100
0010
0001
0010
1000
0001
0010
1000
0010
0100
1000
0001
0100
1000
0001
0010
1000
0001
0010
0100
0001
1000
,
0010
0001
0010
0001
1000
0010
1000
0010
,
0100
0000
0001
0000
0000
0101
0000
0000
2000
0000
0000
3200
0000
0000
0301
0000
,
0100
0000
1000
0000
0000
1100
0000
0000
0002
0000
0000
0203
0000
0000
1300
0000
,
0100
0000
0001
0000
1000
0100
0000
0000
1000
0000
0001
0100
0000
0020
0000
0000
,
2030
0000
0000
0002
3003
0000
2002
0000
0000
0000
0000
0000
0000
0000
3003
0000
,
0001
1000
0100
0100
0010
0010
0001
0001
,
1000
1000
0010
0010
0100
0100
0001
0001
,
0010
0010
0100
0100
1000
1000
0001
0001
,
0020
0200
0330
0220
0000
0000
0330
0000
,
2000
3002
0203
0320
,
1030
0100
0001
1000
0010
0001
0100
1000
,
0001
0010
0100
0001
0010
0100
0001
1000
,
0010
0100
1000
0010
0100
1000
0001
0010
,
2000
0000
0000
0000
0000
0000
0002
3003
,
2002
0000
0000
0000
0000
0000
0000
3003
;
