#TITLE:Hardcore of the North;
#SUBTITLE:;
#ARTIST:Digital Explosion;
#TITLETRANSLIT:;
#SUBTITLETRANSLIT:;
#ARTISTTRANSLIT:;
#GENRE:;
#CREDIT:;
#MUSIC:Hardcore of the North.ogg;
#BANNER:Hardcore of the North-bn.png;
#BACKGROUND:Hardcore of the North-bg.png;
#CDTITLE:;
#SAMPLESTART:94.856;
#SAMPLELENGTH:11.980;
#SELECTABLE:YES;
#OFFSET:-0.070;
#BPMS:0.000=109.990
,16.000=125.000
,32.000=136.640
,33.000=142.000
,34.000=145.000
,35.000=146.000
,36.000=147.181
,40.000=150.000
,42.000=154.902
,44.000=154.501
,48.000=154.200
,52.000=154.000
,150.000=155.000
,152.000=154.000
,188.000=169.000
,264.000=170.000
,265.000=169.000
,299.000=168.200
,300.000=115.000
;
#STOPS:188.000=1.425;
#BGCHANGES:;
#FGCHANGES:;

//--------------- dance-single - Peter ----------------
#NOTES:
     dance-single:
     Peter:
     Beginner:
     7:
     0,0,0,0,0:
0000
0000
0000
0000
,
0000
0000
0000
0000
,
1000
0000
0100
0000
,
0010
0000
0000
0000
0001
0000
2002
3003
,
0001
0000
0100
0000
,
0010
0000
1000
0000
,
0001
0000
0010
0000
,
0100
0000
0000
0000
1000
0000
2002
3003
,
1000
0000
0010
0000
,
0100
0000
0001
0000
,
1000
0000
0100
0000
,
0010
0000
0000
0000
0001
0000
2002
3003
,
0000
1000
0100
0010
,
0011
0000
0011
0000
,
0011
0000
0011
0000
,
0101
0000
0101
0000
,
0101
0000
0101
0110
,
1010
0000
1010
0000
,
1010
0000
1010
0000
,
1100
0000
1100
0000
,
1100
0000
1100
1001
,
1000
0100
0010
0000
,
0001
0100
0010
0000
,
1000
0010
0100
0000
,
0001
0010
0100
1000
,
0001
0100
0010
0000
,
1000
0100
0010
0000
,
0001
0010
0100
0000
,
1000
0010
0100
0001
,
1000
0100
0010
0001
,
0000
1000
0100
0010
,
0100
0000
1000
0000
0100
0010
0001
0000
,
0100
0001
0100
0010
,
0100
0000
0001
0000
0100
0010
1000
0000
,
0100
1000
0100
0010
,
0001
0000
0010
0000
0100
0010
0001
0000
,
0100
0000
0010
0000
1000
0100
0010
0000
,
0001
0100
0010
0100
,
0001
0010
0100
1000
,
0001
0100
0010
0100
,
0010
1000
0100
0010
,
0001
0010
0100
1000
,
0010
0000
0100
0000
0001
0000
2002
3003
,
1000
0100
0010
0100
,
0010
0001
0100
0010
,
1000
0010
0100
0001
,
0010
0000
0100
0000
1000
0000
2002
3003
,
1001
0000
0000
0000
,
0000
0000
0000
0000
,
1000
0100
0010
0100
,
1000
0010
0100
0010
,
1000
0100
0010
0001
,
1000
0010
0100
0001
,
1000
0010
0100
0010
,
1000
0100
0010
0100
,
1000
0010
0100
0001
,
1000
0100
0010
0001
,
0100
0010
0100
0010
,
1000
0001
0010
0100
,
0010
0000
0001
0000
0010
0100
1000
0000
,
0010
0100
0010
1000
,
0010
0000
0100
0000
0001
0100
0010
0000
,
1000
0001
0010
0100
,
1000
0000
0100
0000
0010
0001
0010
0000
,
0001
0000
0100
0000
0010
1000
0010
0000
,
0100
0001
0010
0100
,
1000
0100
0010
0001
,
1000
0010
0100
0010
,
0100
0001
0010
0100
,
1000
0100
0010
0001
,
0100
0000
0010
0000
1000
0000
2002
3003
,
0001
0010
0100
0010
,
0100
1000
0010
0100
,
0001
0100
0010
1000
,
0100
0000
0010
0000
0001
0000
2002
3003
,
1000
0100
0010
0001
,
0100
0010
0100
0001
,
1000
0100
0010
0001
,
0100
0000
0010
0000
1000
0000
2002
3003
;

//--------------- dance-single - Peter ----------------
#NOTES:
     dance-single:
     Peter:
     Easy:
     11:
     0,0,0,0,0:
0000
0000
0000
0000
,
0000
0000
0000
0000
,
1000
0100
0010
0000
0001
0010
0100
0000
,
1000
0010
0100
0000
0001
0000
2002
3003
,
0001
0100
0010
0000
1000
0010
0100
0000
,
0001
0010
0100
0000
1000
0000
0001
0000
,
1000
0100
0010
0000
0001
0010
0100
0000
,
1000
0010
0100
0000
0001
0000
2002
3003
,
1000
0010
0100
0000
0001
0100
0010
0000
,
1000
0100
0010
0000
0001
0000
1000
0000
,
0001
0010
0100
0000
1000
0100
0010
0000
,
0001
0100
0010
0000
1000
0000
2002
3003
,
0000
0110
1001
0110
,
1100
1000
1010
0010
,
0110
0100
0101
0001
,
0011
0010
0110
0100
,
1100
1000
1001
0110
,
0011
0001
0101
0100
,
0110
0010
1010
1000
,
1100
0100
0110
0010
,
0011
0001
1001
0110
,
1000
0000
0100
0010
0001
0000
0100
0000
,
0001
0000
0010
0100
1000
0000
0010
0000
,
1000
0000
0100
0010
0100
0000
1000
0000
,
0001
0000
0100
0010
0100
0000
0001
1000
,
0001
0000
0100
0010
1000
0000
0100
0000
,
1000
0000
0010
0100
0001
0000
0010
0000
,
0001
0000
0100
0010
0100
0000
0001
0000
,
1000
0000
0100
0010
0100
0000
1000
0001
,
1000
0000
0100
0010
0001
0000
0100
0010
,
0000
1000
0100
0010
,
0100
0000
1000
0000
0100
1000
0100
0000
,
0010
0001
0100
0010
,
0100
0000
0001
0000
0100
0001
0100
0000
,
0010
1000
0100
0010
,
0001
0000
0010
0000
0100
1000
0100
0000
,
1000
0000
0010
0000
0100
0001
0100
0000
,
0010
1000
0100
0010
,
0011
0101
1010
1100
,
1000
0100
0010
0000
0001
0100
0010
0000
,
1000
0010
0100
0000
0001
0000
0010
0000
,
0001
0010
0100
0000
1000
0100
0010
0000
,
0001
0100
0010
0000
1000
0000
2002
3003
,
0001
0100
0010
0000
1000
0100
0010
0000
,
0001
0010
0100
0000
1000
0000
0010
0000
,
1000
0010
0100
0000
0001
0100
0010
0000
,
1000
0100
0010
0000
0001
0000
2002
3003
,
1001
0000
0000
0000
,
0000
0000
0000
0000
,
1000
0100
0010
0000
0001
0010
0002
0003
,
1000
0010
0100
0000
0001
0100
0002
0003
,
1000
0100
0001
0000
0100
0010
0200
0300
,
1000
0010
0001
0000
0010
0100
0010
0100
,
0001
0010
0100
0000
1000
0100
2000
3000
,
0001
0100
0010
0000
1000
0010
2000
3000
,
0001
0010
1000
0000
0010
0100
0020
0030
,
0001
0100
1000
0000
0100
0010
0100
0010
,
1000
0100
0001
0000
0100
0010
0100
1000
,
0001
0000
0001
0000
0010
0100
1000
0000
,
0100
0010
0001
0000
0010
0001
0010
0001
,
0010
0000
0100
0000
1000
0010
0100
0000
,
0001
0100
0010
0000
1000
0010
1000
0010
,
1000
0001
0010
0100
,
1000
0100
0010
0000
0001
0010
0001
0010
,
0001
0000
0100
0000
0010
1000
0010
0000
,
0100
0000
0001
1000
0100
1000
0010
0000
,
0101
0000
0011
0000
1100
0000
1010
0010
,
1000
0010
0100
0000
0001
0010
0100
0000
,
1000
0100
0010
0000
0001
0000
0100
0000
,
0001
0100
0010
0000
1000
0010
0100
0000
,
1000
0100
0001
0000
1000
0000
2002
3003
,
0001
0010
0100
0000
1000
0010
0100
0000
,
0001
0100
0010
0000
1000
0000
0100
0000
,
1000
0100
0010
0000
0001
0010
0100
0000
,
0001
0100
1000
0000
0001
0000
2002
3003
,
1000
0100
0010
0000
0001
0010
0100
0000
,
0010
0001
1000
0000
0010
0000
0100
0000
,
0001
0010
0100
0000
1000
0100
0010
0000
,
0001
0100
0010
0000
1000
0000
2002
3003
;

//--------------- dance-single - Peter ----------------
#NOTES:
     dance-single:
     Peter:
     Medium:
     13:
     0,0,0,0,0:
0000
0000
0000
0000
,
0000
0000
0000
0000
,
1000
0100
0010
0001
0010
0100
1000
0001
,
0100
0010
1000
0001
1000
0000
2002
3003
,
0001
0010
0100
1000
0010
0100
0010
1000
,
0001
0010
0100
1000
0010
0100
0001
1000
,
0001
0010
0100
1000
0100
0010
0001
1000
,
0010
0100
0001
1000
0001
0000
2002
3003
,
1000
0100
0010
0001
0100
0010
0100
0001
,
1000
0100
0010
0001
0100
0010
1000
0001
,
1000
0100
0010
0001
0010
0100
1000
0001
,
0100
0010
1000
0001
1000
0000
2002
3003
,
0000
1100
0011
1001
,
1100
0110
1100
0101
,
1100
1001
0101
1001
,
0011
1010
0110
0011
,
0101
0000
1010
0000
1000
0100
0010
0001
,
1010
0110
1010
0011
,
1010
1001
0011
1001
,
0101
1100
0110
0101
,
0011
0000
1100
0000
1000
0010
0100
0001
,
1000
0100
0010
0100
1000
0100
0010
0001
,
1000
0010
0100
0010
1000
0010
0100
0001
,
1000
0100
0010
0100
1000
0010
0100
0001
,
1000
0010
0100
0010
1000
1000
1000
1000
,
0001
0010
0100
0010
0001
0010
0100
1000
,
0001
0100
0010
0100
0001
0100
0010
1000
,
0001
0010
0100
0010
0001
0100
0010
1000
,
0001
0100
0010
0100
0001
0001
0001
0001
,
1000
0010
0100
0010
1000
0100
0010
0001
,
0000
0000
1000
0100
0010
0001
1000
0100
,
0010
0000
0100
0000
1000
0000
0010
0000
0100
0001
0100
0000
0001
0000
0100
0000
,
0010
1000
0001
0100
0010
0100
0001
1000
,
0010
0000
0100
0000
0001
0000
0010
0000
0100
1000
0100
0000
1000
0000
0100
0000
,
0010
0001
1000
0010
0100
0001
1000
0100
,
0010
0000
0100
0000
1000
0000
0100
0000
0010
0001
0010
0000
0001
0000
0010
0000
,
0100
0000
1000
0000
0001
0000
0100
0000
0010
0000
1000
0010
1000
0000
0010
0000
,
0100
0001
1000
0000
0100
0010
0001
0000
,
0101
1010
0110
1001
,
1000
0100
0010
0100
0010
0001
0010
0100
,
1000
0010
0100
0010
1000
0010
0100
0001
,
1000
0100
0010
0100
0010
0001
0100
0010
,
1000
0001
0010
0100
1000
0000
2002
3003
,
0001
0010
0100
0010
0100
1000
0100
0010
,
0001
0100
0010
0100
0001
0100
0010
1000
,
0001
0010
0100
0010
0100
1000
0010
0100
,
0001
1000
0100
0010
0001
0000
2002
3003
,
1001
0000
0000
0000
,
0000
0000
0000
0000
,
1000
0100
0010
0001
0010
0100
2000
3000
,
0001
0100
0010
1000
0010
0100
0002
0003
,
1000
0100
0010
0001
0100
0010
2000
3000
,
0001
0010
0100
1000
0010
0100
0001
1000
,
0001
0010
0100
1000
0100
0010
0002
0003
,
1000
0010
0100
0001
0100
0010
2000
3000
,
0001
0010
0100
1000
0010
0100
0002
0003
,
1000
0010
0100
0001
0010
0100
1000
0001
,
1000
0100
0010
0001
0100
0010
1000
0001
,
1000
0000
0001
0010
0100
0010
0001
0010
,
0100
0000
1000
0000
0100
0000
0010
0000
0001
0010
0001
0010
0001
0000
1000
0000
,
0010
0100
0001
0000
1000
0010
0100
0010
,
1000
0000
0010
0000
0100
0000
0001
0000
0100
0001
0100
0001
0100
0000
0010
0000
,
1000
0001
0010
0000
0100
1000
0100
0010
,
0001
0000
1000
0000
0100
0000
0010
0000
0100
1000
0100
1000
0100
0000
0010
0000
,
0001
0000
0100
0000
0010
0000
1000
0000
0010
0000
0100
0001
1000
0000
0010
0000
,
0100
0001
0010
0100
1000
0100
0010
0001
,
0011
0000
1100
0000
0110
0000
1001
0001
,
1000
0010
0100
0010
0100
0001
0100
0010
,
1000
0100
0010
0100
1000
0100
0010
0001
,
1000
0010
0100
0010
0100
0001
0010
0100
,
1000
0010
0001
0010
1000
0000
2002
3003
,
0001
0010
0100
0010
0100
1000
0100
0010
,
0001
0100
0010
0100
0001
0100
0010
1000
,
0001
0010
0100
0010
0100
1000
0010
0100
,
0001
0010
1000
0010
0001
0000
2002
3003
,
1000
0100
0010
0001
0100
0010
1000
0010
,
0100
0001
0010
0100
1000
0100
0010
0100
,
1000
0001
0010
0100
1000
0100
0010
0100
,
1000
0010
0100
0001
1000
0000
2002
3003
;

//--------------- dance-single - Peter ----------------
#NOTES:
     dance-single:
     Peter:
     Hard:
     15:
     0,0,0,0,0:
0000
0000
0000
0000
,
0000
0000
0000
0000
,
0001
0000
0010
0100
1000
0000
0001
0000
1000
0010
0100
0000
0001
0000
0010
0000
,
0100
0000
1000
0100
0010
0000
0001
0000
1000
0000
0000
0000
2MM2
0000
3003
0000
,
1000
0000
0100
0010
0001
0000
1000
0000
0010
0100
0001
0000
0010
0000
0100
0000
,
1000
0000
0100
0010
0001
0000
0100
0000
0010
1000
0010
0000
0100
0000
0001
0000
,
1000
0000
0100
0010
0001
0000
1000
0000
0001
0100
0010
0000
1000
0000
0100
0000
,
0010
0000
0001
0010
0100
0000
1000
0000
0001
0000
0000
0000
2MM2
0000
3003
0000
,
0001
0000
0010
0100
1000
0000
0001
0000
0100
0010
1000
0000
0100
0000
0010
0000
,
0001
0000
0010
0100
1000
0000
0010
0000
0100
0001
0100
0000
0010
0000
1000
0000
,
0001
0000
0010
0100
1000
0000
0001
0000
1000
0010
0100
0000
0001
0000
0010
0000
,
0100
0000
1000
0100
0010
0000
0001
0000
1000
0000
0000
0000
2MM2
0000
3003
0000
,
0000
0110
0101
1001
,
1100
0110
0101
0110
,
0011
0110
1010
0110
,
0011
1001
0101
1001
,
1100
0000
1001
0000
1010
0110
0101
1001
,
0101
0110
1100
0110
,
1010
0110
0011
0110
,
0101
1001
0011
1001
,
1010
0000
1001
0000
1100
0110
0011
1001
,
1000
0000
0100
0000
0010
0001
0200
0000
0310
0000
0001
0000
0010
0000
1000
0000
,
0001
0000
0010
0000
0100
1000
0020
0000
0031
0000
0010
0000
0100
0000
0001
0000
,
1000
0000
0100
0000
0010
0100
2000
0000
3001
0000
0100
0000
1000
0000
0100
0000
,
0001
0000
0010
0000
0100
0010
0002
0003
0011
0000
0110
0000
1100
0000
1001
0000
,
1000
0000
0010
0000
0100
0001
0020
0000
0130
0000
0001
0000
0100
0000
1000
0000
,
0001
0000
0100
0000
0010
1000
0200
0000
0301
0000
0100
0000
0010
0000
0001
0000
,
1000
0000
0010
0000
0100
0010
2000
0000
3001
0000
0010
0000
1000
0000
0010
0000
,
0001
0000
0100
0000
0010
0100
0002
0003
0101
0000
0110
0000
1010
0000
1001
0000
,
1000
0000
0100
0000
0001
0100
1000
0000
1100
0000
1001
0000
0101
0000
1001
0000
,
0000
0000
1000
0100
0010
0001
1000
0100
,
0010
0000
0100
0000
1000
0000
0001
0000
0010
0100
1000
0001
0100
0000
0010
0000
,
1000
0010
0100
0000
0001
0100
0010
0100
,
0001
0000
1000
0000
0010
0000
0100
0000
0001
0100
0010
1000
0100
0000
0010
0000
,
0001
0010
0100
1000
0001
0100
0001
0010
,
0100
0000
1000
0000
0100
0000
0010
0000
0100
1000
0100
0010
0001
0000
1000
0000
,
0010
0000
0100
0000
0001
0000
0010
0000
0100
0000
0010
0001
1000
0000
0010
0000
,
0100
0001
0100
0010
1000
0001
0010
0100
,
1100
0000
0000
0000
1001
0000
0000
0000
0101
0000
0000
0000
1001
0000
1000
0100
,
0010
0000
0001
0100
0010
0000
0100
0000
0001
0010
0100
0000
1000
0000
0100
0000
,
0010
0000
0001
0010
0100
0000
1000
0000
0010
0100
0001
0000
0100
0000
0010
0000
,
1000
0000
0100
1000
0100
0000
0010
0000
0001
0100
0010
0000
1000
0000
0010
0000
,
0100
0000
0001
0010
0100
0000
1000
0000
0001
0000
0000
0000
2MM2
0000
3003
0000
,
0001
0000
1000
0100
0010
0000
0100
0000
1000
0010
0100
0000
0001
0000
0100
0000
,
0010
0000
1000
0010
0100
0000
0001
0000
0010
0100
1000
0000
0100
0000
0010
0000
,
0001
0000
0100
0001
0100
0000
0010
0000
1000
0100
0010
0000
0001
0000
0010
0000
,
0100
0000
1000
0010
0100
0000
0001
0000
1000
0000
0000
0000
2MM2
0000
3003
0000
,
1001
0000
0000
0000
,
0000
0000
0000
0000
,
1000
0100
0010
0000
0100
0010
0001
0000
0010
0100
2000
0000
0002
0000
3003
0000
,
0001
0100
0010
0000
0100
0010
1000
0000
0010
0100
0002
0000
2000
0000
3003
0000
,
1000
0100
0010
0000
0100
0001
0100
0000
0010
0001
2000
0000
0002
0000
3003
0000
,
0001
0100
0010
0000
0100
1000
0100
0000
0110
0000
1010
0000
1001
0000
0101
0000
,
1000
0010
0100
0000
0010
0100
0001
0000
0100
0010
2000
0000
0002
0000
3003
0000
,
0001
0010
0100
0000
0010
0100
1000
0000
0100
0010
0002
0000
2000
0000
3003
0000
,
1000
0010
0100
0000
0010
0001
0010
0000
0100
0001
2000
0000
0002
0000
3003
0000
,
0001
0010
1000
0000
0010
0100
0010
0000
0110
0000
0011
0000
1001
0000
1100
0000
,
1000
0100
0010
0000
0001
0100
0010
0000
1010
0000
0110
0000
0101
0000
1001
0000
,
1100
0000
0000
0000
1000
0000
0100
0000
0010
0001
0010
0100
1000
0000
0100
0000
,
1000
0100
0010
0001
1000
0000
0100
0000
0010
0001
0010
0001
0010
0000
0100
0000
,
1000
0000
0001
0000
0100
0000
0000
0000
0010
1000
0010
0100
0001
0000
0100
0000
,
0001
0100
0010
1000
0001
0000
0100
0000
0010
0100
0010
0100
0010
0000
0100
0000
,
0001
0010
0100
1000
0010
0100
0001
0010
,
0100
1000
0100
0010
0001
0000
0100
0000
0010
1000
0010
1000
0010
0000
0100
0000
,
0001
0010
0100
1000
0100
0000
0010
0000
0001
0000
1000
0010
1000
0000
0010
0000
,
0100
0000
0001
0000
0010
0100
0010
0000
0001
0000
1000
0000
0010
0000
0100
0000
,
0101
0000
0000
0000
1001
0000
0000
0000
1100
0000
0000
0000
1001
0000
1000
0010
,
0100
0000
0001
0010
0100
0000
0010
0000
0001
0100
0010
0000
1000
0000
0010
0000
,
0100
0000
0001
0100
0010
0000
1000
0000
0100
0010
0001
0000
0010
0000
0100
0000
,
1000
0000
0010
1000
0010
0000
0100
0000
0001
0010
0100
0000
1000
0000
0100
0000
,
0010
0000
0100
0001
0100
0000
1000
0000
0001
0000
0000
0000
2MM2
0000
3003
0000
,
0001
0000
1000
0010
0100
0000
0010
0000
1000
0100
0010
0000
0001
0000
0010
0000
,
0100
0000
1000
0100
0010
0000
0001
0000
0100
0010
1000
0000
0010
0000
0100
0000
,
0001
0000
0010
0001
0010
0000
0100
0000
1000
0010
0100
0000
0001
0000
0100
0000
,
0010
0000
0100
1000
0100
0000
0001
0000
1000
0000
0000
0000
2MM2
0000
3003
0000
,
1000
0000
0100
0010
0001
0000
0010
0000
0100
1000
0001
0000
0100
0000
0010
0000
,
1000
0000
0010
0100
0001
0000
0010
0000
0100
0000
0010
0000
0100
0000
1000
0000
,
0001
0000
0100
0010
1000
0000
0010
0000
0100
0001
1000
0000
0100
0000
0010
0000
,
0001
0000
0010
0100
1000
0000
0001
0000
1000
0000
0000
0000
2MM2
0000
3003
0000
;

//--------------- dance-single - Peter ----------------
#NOTES:
     dance-single:
     Peter:
     Challenge:
     18:
     0,0,0,0,0:
0000
0000
0000
0000
,
0000
0000
0000
0000
,
1000
0000
0000
0000
0000
0000
0100
0000
0010
0000
0001
0000
1000
0000
0000
0000
0000
0000
0001
0000
0000
0000
0000
0000
0010
0000
0100
0000
1000
0000
0001
0000
0000
0000
0000
0000
0100
0000
0000
1000
0000
0000
0100
0000
0000
0001
0000
0000
,
1000
0000
0000
0100
0010
0001
0100
0000
0000
0010
0000
0000
1000
0000
0000
0000
0000
0000
2MM2
0000
0000
3003
0000
0000
,
1000
0000
0000
0000
0000
0000
0100
0000
0010
0000
0001
0000
1000
0000
0000
0000
0000
0000
0001
0000
0000
0000
0000
0000
0100
0000
0010
0000
1000
0000
0001
0000
0000
0000
0000
0000
0010
0000
0000
1000
0000
0000
0010
0000
0000
0001
0000
0000
,
1000
0000
0000
0000
0000
0000
0010
0000
0100
0000
0001
0000
0010
0000
0000
0000
0000
0000
0100
0000
0000
0000
0000
0000
0010
0000
0000
0001
0000
0000
0010
0000
0000
0000
0000
0000
0100
0000
0000
1000
0000
0000
0010
0000
0000
0100
0000
0000
,
0001
0000
0000
0000
0000
0000
0010
0000
0100
0000
1000
0000
0001
0000
0000
0000
0000
0000
1000
0000
0000
0000
0000
0000
0100
0000
0010
0000
0001
0000
1000
0000
0000
0000
0000
0000
0010
0000
0000
0001
0000
0000
0010
0000
0000
1000
0000
0000
,
0001
0000
0000
0010
0100
1000
0010
0000
0000
0100
0000
0000
0001
0000
0000
0000
0000
0000
2MM2
0000
0000
3003
0000
0000
,
0001
0000
0000
0000
0000
0000
0010
0000
0100
0000
1000
0000
0001
0000
0000
0000
0000
0000
1000
0000
0000
0000
0000
0000
0010
0000
0100
0000
0001
0000
1000
0000
0000
0000
0000
0000
0100
0000
0000
0001
0000
0000
0100
0000
0000
1000
0000
0000
,
0001
0000
0000
0000
0000
0000
0100
0000
0010
0000
1000
0000
0100
0000
0000
0000
0000
0000
0010
0000
0000
0000
0000
0000
0100
0000
0000
1000
0000
0000
0100
0000
0000
0000
0000
0000
0010
0000
0000
0001
0000
0000
0100
0000
0000
0010
0000
0000
,
1000
0000
0000
0000
0000
0000
0100
0000
0010
0000
0001
0000
1000
0000
0000
0000
0000
0000
0001
0000
0000
0000
0000
0000
0010
0000
0100
0000
1000
0000
0001
0000
0000
0000
0000
0000
0100
0000
0000
1000
0000
0000
0100
0000
0000
0001
0000
0000
,
1000
0000
0000
0100
0010
0001
0100
0000
0000
0010
0000
0000
1000
0000
0000
0000
0000
0000
2MM2
0000
0000
3003
0000
0000
,
MMMM
0110
0101
0011
,
1MM1
1000
11MM
0100
M11M
0010
MM11
0001
,
1MM1
0001
M1M1
0100
M11M
0010
1M1M
1000
,
1MM1
1000
1M1M
0010
M11M
0100
M1M1
0001
,
1MM1
0001
MM11
0010
0110
1100
1001
0110
,
1001
0001
MM11
0010
M11M
0100
11MM
1000
,
1MM1
1000
1M1M
0010
M11M
0100
M1M1
0001
,
1MM1
0001
M1M1
0100
M11M
0010
1M1M
1000
,
1MM1
1000
11MM
0100
0110
0011
1001
0110
,
1000
0100
1000
0010
0100
0001
0020
0000
0130
1000
0100
0010
0001
1000
0002
0000
,
1003
0010
1000
0100
0010
0001
0200
0000
0310
1000
0010
0100
0001
1000
0002
0000
,
1003
0100
1000
0010
0100
0001
0020
0000
0130
1000
0100
0010
0001
1000
0002
0000
,
1003
0010
1000
0100
0010
0001
0200
0300
0101
0000
1001
0000
1100
0000
1001
0000
,
1000
0100
1000
0010
0100
0001
0020
0000
0130
1000
0001
0100
0010
1000
0002
0000
,
1003
0010
1000
0100
0010
0001
0200
0000
0310
1000
0001
0010
0100
1000
0002
0000
,
1003
0100
1000
0010
0100
0001
0020
0000
0130
1000
0001
0100
0010
1000
0002
0000
,
1003
0010
1000
0100
0010
0001
0200
0300
0101
0000
0110
0000
1010
0000
1001
0000
,
1000
0100
1000
0010
0100
0001
0020
0030
0011
0000
1001
0000
1010
0000
1001
0000
,
MMMM
0000
0000
0000
1000
0100
1000
0100
0010
0001
0010
0100
1000
0100
0010
0100
,
1000
0000
0000
0100
0000
0000
0010
0000
0000
0001
0000
0000
0010
0000
0000
0100
0000
0000
0010
0000
0000
0001
0000
0000
0010
0000
0001
0000
0010
0000
0001
0000
0000
0010
0000
0000
0001
0000
0000
0000
0000
0000
0010
0000
0000
0000
0000
0000
,
0100
1000
0001
0100
0010
0000
0000
1000
0010
0100
0010
1000
0001
0100
0010
1000
,
0010
0000
0000
0100
0000
0000
0001
0000
0000
0100
0000
0000
0010
0000
0000
0100
0000
0000
0001
0000
0000
0100
0000
0000
0010
0000
1000
0000
0010
0000
1000
0000
0000
0010
0000
0000
1000
0000
0000
0000
0000
0000
0010
0000
0000
0000
0000
0000
,
0100
0001
1000
0100
0010
0000
0001
0100
0010
0000
0000
1000
0100
0010
0001
0010
,
0001
0000
0000
0010
0000
0000
0100
0000
0000
1000
0000
0000
0001
0000
0000
0010
0000
0000
0100
0000
0000
0010
0000
0000
0001
0000
0010
0000
0001
0000
0010
0000
0000
0001
0000
0000
1000
0000
0000
0000
0000
0000
0010
0000
0000
0000
0000
0000
,
0100
0000
0000
0001
0000
0000
0100
0000
0000
0010
0000
0000
1000
0000
0000
0100
0000
0000
0010
0000
0000
0100
0000
0000
1000
0000
0000
0000
0000
0000
0001
0000
0100
0000
0001
0000
0100
0000
0000
0000
0000
0000
0010
0000
0000
0000
0000
0000
,
0100
0001
0010
0100
0010
0001
1000
0000
0010
0100
0001
1000
0100
0000
0010
0000
,
MM11
0000
0000
0000
0000
0000
M1M1
0000
0000
0000
0000
0000
1M1M
0000
0000
0000
0000
0000
11MM
0000
0000
1000
0100
0010
,
0001
0000
0000
0000
0000
0000
0100
0000
0001
0000
0100
0000
0010
0000
0000
0000
0000
0000
1000
0000
0000
0000
0000
0000
0100
0000
0010
0000
0001
0000
0010
0000
0000
0000
0000
0000
0100
0000
0000
1000
0000
0000
0001
0000
0000
0100
0000
0000
,
0010
0000
0000
0000
0000
0000
1000
0000
0010
0000
1000
0000
0001
0000
0000
0000
0000
0000
0010
0000
0000
0000
0000
0000
0100
0000
0000
0010
0000
0000
0001
0000
0000
0000
0000
0000
1000
0000
0000
0010
0000
0000
0100
0000
0000
0001
0000
0000
,
1000
0000
0000
0000
0000
0000
0100
0000
1000
0000
0100
0000
0010
0000
0000
0000
0000
0000
0001
0000
0000
0000
0000
0000
0100
0000
0010
0000
1000
0000
0010
0000
0000
0000
0000
0000
0100
0000
0000
0001
0000
0000
1000
0000
0000
0100
0000
0000
,
0010
0000
0000
0000
0000
0000
0001
0000
0010
0000
0001
0000
1000
0000
0000
0000
0000
0000
0010
0000
0000
0100
0000
0000
0001
0000
0000
1000
0000
0000
0000
0000
0000
0000
0000
0000
2MM2
0000
0000
0000
0000
0000
3003
0000
0000
0000
0000
0000
,
0001
0000
0000
0000
0000
0000
0010
0000
0001
0000
0010
0000
0100
0000
0000
0000
0000
0000
1000
0000
0000
0000
0000
0000
0010
0000
0100
0000
0001
0000
0100
0000
0000
0000
0000
0000
0010
0000
0000
1000
0000
0000
0001
0000
0000
0010
0000
0000
,
0100
0000
0000
0000
0000
0000
1000
0000
0100
0000
1000
0000
0001
0000
0000
0000
0000
0000
0100
0000
0000
0000
0000
0000
0010
0000
0000
0100
0000
0000
0001
0000
0000
0000
0000
0000
1000
0000
0000
0100
0000
0000
0010
0000
0000
0001
0000
0000
,
1000
0000
0000
0000
0000
0000
0010
0000
1000
0000
0010
0000
0100
0000
0000
0000
0000
0000
0001
0000
0000
0000
0000
0000
0010
0000
0100
0000
1000
0000
0100
0000
0000
0000
0000
0000
0010
0000
0000
0001
0000
0000
1000
0000
0000
0010
0000
0000
,
0100
0000
0000
0000
0000
0000
0001
0000
0100
0000
0001
0000
1000
0000
0000
0000
0000
0000
0100
0000
0000
0010
0000
0000
0001
0000
0000
1000
0000
0000
0000
0000
0000
0000
0000
0000
2MM2
0000
0000
0000
0000
0000
3003
0000
0000
0000
0000
0000
,
0220
0330
0000
0000
0000
0000
0000
0000
0000
0000
0000
0000
0000
0000
0000
0000
0000
0000
0000
0000
0000
0000
0000
0000
0000
0000
0000
0000
0000
0000
0000
0000
0000
0000
0000
0000
0000
0000
0000
0000
0000
0000
0000
0000
0000
0000
0000
0000
0000
0000
0000
0000
0000
0000
0000
0000
0000
0000
0000
0000
0000
0000
0000
0000
,
0000
0000
0000
0000
,
1000
0100
1000
0010
0100
0001
0010
0001
0010
0100
2000
0000
0002
0000
3003
0000
,
0001
0100
0001
0010
0100
1000
0010
1000
0010
0100
0002
0000
2000
0000
3003
0000
,
1000
0100
0010
0100
0001
0100
0010
0001
0010
0100
2000
0000
0002
0000
3003
0000
,
0001
0100
0010
0100
1000
0100
0010
1000
0010
0100
0001
0000
1001
0000
0110
0000
,
1000
0010
1000
0100
0010
0001
0100
0001
0100
0010
2000
0000
0002
0000
3003
0000
,
0001
0010
0001
0100
0010
1000
0100
1000
0100
0010
0002
0000
2000
0000
3003
0000
,
1000
0010
0100
0010
0001
0010
0100
0001
0100
0010
2000
0000
0002
0000
3003
0000
,
0001
0010
1000
0010
0100
0010
0001
1000
0010
0100
0001
0000
1001
0000
0110
0000
,
1000
0100
1000
0010
0100
0001
0010
0001
1000
0000
1100
0000
1010
0000
0101
0000
,
0011
0000
0000
0000
1000
0100
0010
0100
1000
0001
0100
0010
1000
0010
0100
0010
,
1000
0000
0000
0001
0000
0000
0010
0000
0000
0100
0000
0000
1000
0000
0000
0100
0000
0000
0010
0000
0000
0001
0000
0000
0010
0000
0001
0000
0010
0000
0001
0000
0000
0010
0000
0000
0001
0000
0000
0000
0000
0000
0100
0000
0000
0000
0000
0000
,
0010
1000
0010
0100
0001
0000
1000
0100
0010
0001
0010
0100
1000
0100
0010
0100
,
1000
0000
0000
0001
0000
0000
0100
0000
0000
0010
0000
0000
1000
0000
0000
0010
0000
0000
0100
0000
0000
0010
0000
0000
0100
0000
0010
0000
0100
0000
0010
0000
0000
0100
0000
0000
0010
0000
0000
0000
0000
0000
1000
0000
0000
0000
0000
0000
,
0100
0010
0001
1000
0010
0000
0100
0001
0100
0000
0010
1000
0001
0010
0100
0010
,
0001
0000
0000
0010
0000
0000
0100
0000
0000
1000
0000
0000
0001
0000
0000
0100
0000
0000
0010
0000
0000
1000
0000
0000
0010
0000
1000
0000
0010
0000
1000
0000
0000
0010
0000
0000
1000
0000
0000
0000
0000
0000
0100
0000
0000
0000
0000
0000
,
0010
0000
0000
0001
0000
0000
0010
0000
0000
0100
0000
0000
1000
0000
0000
0001
0000
0000
0100
0000
0000
0010
0000
0000
0100
0000
0000
0000
0000
0000
0001
0000
0100
0000
0001
0000
0100
0000
0000
0000
0000
0000
0010
0000
0000
0000
0000
0000
,
1000
0100
0010
0100
1000
0100
0010
0001
1000
0010
0100
0001
1000
0001
1000
0001
,
1000
0000
0000
0100
0000
0000
1000
0000
0000
0010
0000
0000
0100
0000
0000
0001
0000
0000
0010
0000
0000
0001
0000
0000
1000
0000
0000
0010
0000
0000
1000
0000
0000
0100
0000
0000
0010
0000
0000
0001
0000
0000
1000
0000
0010
0000
0100
0000
,
0001
0000
0000
0000
0000
0000
0010
0000
0001
0000
0010
0000
0100
0000
0000
0000
0000
0000
1000
0000
0000
0000
0000
0000
0010
0000
0100
0000
0001
0000
0100
0000
0000
0000
0000
0000
0010
0000
0000
1000
0000
0000
0001
0000
0000
0010
0000
0000
,
0100
0000
0000
0000
0000
0000
1000
0000
0100
0000
1000
0000
0001
0000
0000
0000
0000
0000
0100
0000
0000
0000
0000
0000
0010
0000
0000
0100
0000
0000
0001
0000
0000
0000
0000
0000
1000
0000
0000
0100
0000
0000
0010
0000
0000
0001
0000
0000
,
1000
0000
0000
0000
0000
0000
0010
0000
1000
0000
0010
0000
0100
0000
0000
0000
0000
0000
0001
0000
0000
0000
0000
0000
0010
0000
0100
0000
1000
0000
0100
0000
0000
0000
0000
0000
0010
0000
0000
0001
0000
0000
1000
0000
0000
0010
0000
0000
,
0100
0000
0000
0000
0000
0000
0001
0000
0100
0000
0001
0000
1000
0000
0000
0000
0000
0000
0100
0000
0000
0001
0000
0000
0100
0000
0000
1000
0000
0000
0000
0000
0000
0000
0000
0000
2MM2
0000
0000
0000
0000
0000
3003
0000
0000
0000
0000
0000
,
0001
0000
0000
0000
0000
0000
0100
0000
0001
0000
0100
0000
0010
0000
0000
0000
0000
0000
1000
0000
0000
0000
0000
0000
0100
0000
0010
0000
0001
0000
0010
0000
0000
0000
0000
0000
0100
0000
0000
1000
0000
0000
0001
0000
0000
0100
0000
0000
,
0010
0000
0000
0000
0000
0000
1000
0000
0010
0000
1000
0000
0001
0000
0000
0000
0000
0000
0010
0000
0000
0000
0000
0000
0100
0000
0000
0010
0000
0000
0001
0000
0000
0000
0000
0000
1000
0000
0000
0010
0000
0000
0100
0000
0000
0001
0000
0000
,
1000
0000
0000
0000
0000
0000
0100
0000
1000
0000
0100
0000
0010
0000
0000
0000
0000
0000
0001
0000
0000
0000
0000
0000
0100
0000
0010
0000
1000
0000
0010
0000
0000
0000
0000
0000
0100
0000
0000
0001
0000
0000
1000
0000
0000
0100
0000
0000
,
0010
0000
0000
0000
0000
0000
0001
0000
0010
0000
0001
0000
1000
0000
0000
0000
0000
0000
0010
0000
0000
0001
0000
0000
0010
0000
0000
1000
0000
0000
0000
0000
0000
0000
0000
0000
2MM2
0000
0000
0000
0000
0000
3003
0000
0000
0000
0000
0000
,
0001
0000
0000
0000
0000
0000
0010
0000
0001
0000
0010
0000
0100
0000
0000
0000
0000
0000
1000
0000
0000
0000
0000
0000
0100
0000
0010
0000
0001
0000
0010
0000
0000
0000
0000
0000
0001
0000
0000
0100
0000
0000
0010
0000
0000
1000
0000
0000
,
0010
0000
0000
0000
0000
0000
0100
0000
0001
0000
0100
0000
0001
0000
0000
0000
0000
0000
0010
0000
0000
0000
0000
0000
0100
0000
0000
1000
0000
0000
0100
0000
0000
0000
0000
0000
0010
0000
0000
0001
0000
0000
1000
0000
0000
0001
0000
0000
,
1000
0000
0000
0000
0000
0000
0010
0000
1000
0000
0010
0000
0100
0000
0000
0000
0000
0000
0001
0000
0000
0000
0000
0000
0100
0000
0010
0000
1000
0000
0010
0000
0000
0000
0000
0000
1000
0000
0000
0100
0000
0000
0010
0000
0000
0001
0000
0000
,
0010
0000
0000
0100
1000
0010
0100
0000
0000
0001
0000
0000
1000
0000
0000
0000
0000
0000
2MM2
0000
0000
3MM3
0000
0000
;
