#VERSION:0.83;
#TITLE:HIGHS OFF U (Scorccio XY Mix);
#SUBTITLE:;
#ARTIST:4 REEEL;
#TITLETRANSLIT:;
#SUBTITLETRANSLIT:;
#ARTISTTRANSLIT:;
#GENRE:;
#ORIGIN:;
#CREDIT:;
#BANNER:HIGHS OFF U (Scorccio XY Mix).png;
#BACKGROUND:HIGHS OFF U (Scorccio XY Mix)-bg.png;
#PREVIEWVID:;
#JACKET:HIGHS OFF U (Scorccio XY Mix)-jacket.png;
#CDIMAGE:;
#DISCIMAGE:;
#LYRICSPATH:;
#CDTITLE:;
#MUSIC:HIGHS OFF U (Scorccio XY Mix).ogg;
#OFFSET:0.000000;
#SAMPLESTART:18.430000;
#SAMPLELENGTH:15.000000;
#SELECTABLE:YES;
#DISPLAYBPM:130.000000;
#BPMS:0.000=129.535,
4.000=129.991;
#STOPS:;
#DELAYS:;
#WARPS:;
#TIMESIGNATURES:0.000=4=4;
#TICKCOUNTS:0.000=4;
#COMBOS:0.000=1;
#SPEEDS:0.000=1.000=0.000=0;
#SCROLLS:0.000=1.000;
#FAKES:;
#LABELS:0.000=Song Start;
#BGCHANGES:;
#KEYSOUNDS:;
#ATTACKS:
;

//---------------dance-single - ----------------
#NOTEDATA:;
#CHARTNAME:;
#STEPSTYPE:dance-single;
#DESCRIPTION:;
#CHARTSTYLE:;
#DIFFICULTY:Challenge;
#METER:15;
#RADARVALUES:0.676536,0.721758,0.377971,0.177869,0.805967,426.000000,392.000000,34.000000,16.000000,37.000000,0.000000,0.000000,0.000000,0.000000,0.676536,0.721758,0.377971,0.177869,0.805967,426.000000,392.000000,34.000000,16.000000,37.000000,0.000000,0.000000,0.000000,0.000000;
#CREDIT:Embrace;
#DISPLAYBPM:130.000000;
#NOTES:
0000
0000
0000
0000
,
0000
0000
0000
0000
,
0000
0000
0000
0000
,
0000
0000
0000
0000
0000
0000
0000
0000
0000
0000
0000
0000
0000
0001
1000
0000
,
0100
00M0
0100
0001
1000
0000
0001
0100
00M0
0100
0010
0000
0001
0000
0000
0000
,
0021
0000
0000
0000
0100
0000
0000
0000
0031
0000
0001
0000
0001
1000
0010
0000
,
0110
0000
0100
1000
0100
0000
0001
0010
0100
0000
1000
0000
0001
0000
1000
0000
,
1000
0100
0012
2003
0010
0000
3100
0010
,
0110
0000
0100
0001
0100
0000
1000
0010
1000
0000
0010
0001
0010
1000
0000
0000
,
0100
0000
0010
1000
0010
0001
0000
0000
0100
0000
0010
0001
0010
1000
0000
0000
,
1100
00M0
0100
0001
0010
0000
0100
0000
0010
000M
0010
1000
0100
0000
0020
0000
,
0130
M000
0100
0001
0010
0000
0200
0000
0000
0000
1300
0000
0000
0000
1000
0000
,
0010
0M00
0010
0100
1000
0000
0001
0000
0100
00M0
0100
0010
0001
0000
1000
0000
,
0100
00M0
0100
0010
1000
0000
0010
0100
1000
0000
0100
0000
0110
0000
0100
0000
,
0101
00M0
0100
1000
0010
0000
0100
0000
0010
M000
0010
0001
0100
0000
0020
0000
,
0130
000M
0100
1000
0001
0000
0020
0000
0000
0000
0130
0000
0000
0000
0100
0000
,
2000
0000
3020
0000
0001
0000
1030
0100
,
0210
0000
0301
0100
2100
0000
3010
0000
,
0110
0000
0000
0000
1001
0000
0000
0000
0011
0M00
0010
0000
1000
0001
0000
0000
,
1001
0000
1000
0000
0010
0100
0010
1000
0000
0001
0010
0000
0100
0000
0000
0100
,
0010
0001
0100
0001
0010
0000
0000
0010
0100
1000
0010
1000
0100
0000
0010
0001
,
0100
00M0
0100
0000
1000
0000
0000
0000
0001
0000
0000
0000
1000
0000
0100
0000
00M0
0000
0100
0000
0001
0000
0010
0000
0000
0000
0000
0000
0100
0000
0001
0000
,
0100
0000
0000
1000
0000
0000
0001
0000
0000
0000
0000
0000
0100
0000
0010
0000
1000
0000
0010
0000
0100
0000
0010
0000
0001
0000
0000
0000
0000
0000
0000
0000
,
0110
0000
0000
0000
1000
0000
0000
0000
0001
0000
0000
0000
1000
0000
0100
0000
0010
000M
0010
0000
1000
0000
0001
0000
0000
0000
0010
0000
0000
0000
0010
0000
,
0001
1000
0001
0100
0010
0100
0001
1000
0100
0000
0010
0001
0100
0000
0000
0010
,
1000
0000
1000
0100
0010
0100
1000
0000
0001
0000
0001
0100
1000
0000
0000
0000
,
0110
0000
0010
0100
0001
0000
1000
0100
1000
0010
0000
0010
0000
0010
0100
0010
,
1000
0000
1000
0001
0010
0100
1000
0010
0M00
0010
0001
0100
0000
0000
0010
0001
,
0010
0000
1000
0001
0010
0000
0100
0000
0010
0000
1000
0010
0001
0000
1000
0000
,
0000
0100
0010
0001
1000
0000
0001
0010
0000
0010
0000
0010
0001
0000
0000
0000
,
1001
0000
0000
0000
0001
0000
0100
0000
0001
0000
0100
0000
0010
0000
0000
0000
0100
0000
0000
0100
0000
0000
1001
0000
0000
0000
0000
0000
0000
0000
0000
0000
,
0011
0000
0001
0000
0100
0000
0000
0000
0001
0010
1000
0010
0001
0000
0000
0001
,
1000
0100
0010
0100
0001
0000
0001
0100
0000
0100
1000
0000
0001
0000
0000
0000
,
0010
0001
0100
0001
0010
0000
0001
1000
0100
0010
1000
0000
0010
0001
0100
0001
,
0010
0M00
0010
0000
1000
0000
0001
0000
1000
0000
0010
0000
000M
0000
0010
0000
0000
0000
0001
0000
1000
0000
0000
0000
1010
0000
0000
0000
1000
0000
0000
0000
,
0110
0000
0001
0100
0001
0000
1000
0100
0010
0000
0001
1000
0100
0001
0000
MM00
,
0001
0000
1000
0001
0100
1000
0000
00MM
1000
0000
0001
1000
0100
0010
0000
0000
,
0110
0000
0000
0000
0100
0000
1000
0000
0001
0000
0000
0000
0100
0000
0000
0000
1000
0000
0000
0000
1000
0M0M
0010
0000
0100
0000
0000
0000
0010
0000
0000
0000
,
1000
0000
0000
0000
1000
00MM
0100
0000
0010
0000
0000
0000
1010
0000
0000
0000
0000
0000
0000
0000
1001
0000
0000
0000
0000
0000
0000
0000
0011
0000
0000
0000
,
1000
0000
0001
0010
0100
M000
0100
0000
0001
0000
0010
0100
0001
MM00
0001
0000
,
1000
0000
0010
0100
1000
00MM
1000
0010
0100
000M
0100
0000
1100
0000
0100
0000
,
0011
0000
0000
0000
0010
0000
0001
0000
1000
0000
0000
0000
0010
0000
0000
0000
0001
0000
0000
0000
0001
M0M0
0100
0000
0010
0000
0000
0000
0100
0000
0000
0000
,
0001
0000
0000
0000
0001
MM00
0010
0000
1000
0000
0000
0000
1010
0000
0000
0000
0000
0000
0000
0000
1100
0000
0000
0000
0000
0000
0000
0000
0110
0000
0000
0000
,
0002
0000
0023
0000
1000
0000
0031
0100
,
0120
0000
0031
0010
2010
0000
3100
0000
,
0011
0000
0000
0000
1010
0000
0000
0000
0101
00M0
0100
0000
1000
0010
0000
0000
,
0200
0000
0000
0300
0000
0000
0000
0000
;

//---------------dance-single - ----------------
#NOTEDATA:;
#CHARTNAME:;
#STEPSTYPE:dance-single;
#DESCRIPTION:;
#CHARTSTYLE:;
#DIFFICULTY:Hard;
#METER:13;
#RADARVALUES:0.584426,0.592872,0.377971,0.266803,0.427997,368.000000,334.000000,34.000000,24.000000,0.000000,0.000000,0.000000,0.000000,0.000000,0.584426,0.592872,0.377971,0.266803,0.427997,368.000000,334.000000,34.000000,24.000000,0.000000,0.000000,0.000000,0.000000,0.000000;
#CREDIT:Embrace;
#DISPLAYBPM:130.000000;
#NOTES:
// measure 0
0000
0000
0000
0000
,  // measure 1
0000
0000
0000
0000
,  // measure 2
0000
0000
0000
0000
,  // measure 3
0000
0000
0000
0000
0000
0000
0000
0001
,  // measure 4
0010
0000
0100
1000
0100
0000
0010
0001
0000
0001
0100
0000
0010
0000
0000
0000
,  // measure 5
1020
0000
0000
0000
1030
0000
0000
0000
0011
0000
0001
0000
0010
0100
1000
0000
,  // measure 6
1001
0000
0001
0100
0000
0000
0010
1000
0001
0000
0010
0000
0100
0000
1000
0000
,  // measure 7
1000
0001
0200
0020
0000
0030
0301
1000
,  // measure 8
1001
0000
0001
0010
0000
0000
0010
0001
1000
0000
0010
0100
0010
1000
0000
0000
,  // measure 9
0001
0000
0010
0100
0010
0001
0000
0000
1000
0000
0010
0100
0010
1000
0000
0000
,  // measure 10
2100
0000
3001
1000
2010
0000
3001
0010
,  // measure 11
0001
0000
0100
0001
0100
0000
0001
0000
0010
0000
0100
0000
0000
0000
0010
0000
,  // measure 12
0021
0000
0130
1000
0201
0000
0310
1000
,  // measure 13
0100
0001
0100
1000
0010
0100
0110
0000
,  // measure 14
0102
0000
1003
0001
0012
0000
1003
0010
,  // measure 15
0100
0000
0001
0010
0001
0000
1000
0000
0010
0000
0100
0000
0000
0000
0100
0000
,  // measure 16
0201
0000
1000
0000
0010
0000
0301
1000
,  // measure 17
1200
0000
0310
0001
0201
0000
0310
0000
,  // measure 18
1002
0000
0000
0000
1000
0000
0000
0000
1003
0000
1000
0000
0100
0010
0000
0000
,  // measure 19
0001
0000
1000
0000
0010
0100
0010
1000
0000
1000
0001
0000
0010
0000
0000
0000
,  // measure 20
0001
0100
0010
0000
1000
0000
0000
0000
0001
0100
0010
0000
1000
0000
0001
0000
,  // measure 21
0010
0100
0010
0000
0001
0000
1000
0010
0000
0010
1000
0010
0000
0000
0100
0000
,  // measure 22
0001
0000
0010
0000
0100
0000
0010
0000
0001
1000
0001
1000
0100
0000
0000
0000
,  // measure 23
0110
0000
0010
0000
0001
0000
0100
0010
1000
0000
0010
0100
0000
0001
0000
0001
,  // measure 24
1000
0000
0100
0000
0010
0000
0001
0100
0010
0000
0100
0000
1001
0000
0000
0000
,  // measure 25
0001
0000
0010
0000
0100
1000
0100
0000
1000
0000
0100
0010
0001
0000
0000
0000
,  // measure 26
1000
0000
0010
0000
1000
0000
0100
0010
0001
0010
0000
0010
0000
0000
0001
0000
,  // measure 27
1001
0000
1000
0000
0010
1000
0001
0100
0000
0001
1000
0100
0000
0000
0010
0001
,  // measure 28
0100
0000
0001
0000
1000
0000
0010
0000
1000
0000
0100
0010
0000
0000
0011
0000
,  // measure 29
0000
0001
1000
0001
1000
0000
0000
0010
0000
0010
0000
0010
0100
0000
0000
0000
,  // measure 30
0010
0000
1000
0100
1000
0100
1000
0000
0001
0000
0000
1001
0000
0000
0000
0000
,  // measure 31
0101
0000
1000
0000
0010
0000
0000
0000
1000
0001
0010
0100
0010
0000
0000
0001
,  // measure 32
0100
0001
0100
0000
0010
0000
0010
1000
0000
1000
0100
0000
0110
0000
0000
0000
,  // measure 33
0010
0001
0100
0010
0000
0000
1000
0010
1000
0010
1000
0000
0010
0100
0001
0000
,  // measure 34
1000
0000
0100
0000
0010
0001
0000
0100
0000
0100
0010
0000
1000
0000
0001
0000
,  // measure 35
1001
0000
1000
0100
0000
0000
0100
0010
0100
0000
1000
0010
1000
0100
0000
0000
,  // measure 36
0010
0000
0001
0100
0001
0010
0000
0000
0100
0000
1000
0010
1000
0100
0000
0000
,  // measure 37
0012
0000
0103
0010
2010
0000
3100
0010
,  // measure 38
0001
0000
0100
0010
0100
0000
0001
0000
1000
0000
0100
0000
0000
0000
0010
0000
,  // measure 39
2001
0000
3010
0100
2001
0000
3100
0010
,  // measure 40
1000
0010
0001
0100
1000
0100
0110
0000
,  // measure 41
0102
0000
0013
0100
2100
0000
3010
0100
,  // measure 42
0001
0000
0010
0100
0010
0000
0001
0000
1000
0000
0010
0000
0000
0000
0010
0000
,  // measure 43
0120
0000
0001
0000
0100
0000
1030
0001
,  // measure 44
0021
0000
0130
0010
1002
0000
0103
0000
,  // measure 45
2001
0000
0000
0000
0100
0000
0000
0000
3001
0000
0001
0000
1000
0010
0000
0000
,  // measure 46
0200
0000
0000
0300
0000
0000
0000
0000
;
