#TITLE:Grand Chariot;
#SUBTITLE:;
#ARTIST:xi;
#TITLETRANSLIT:;
#SUBTITLETRANSLIT:;
#ARTISTTRANSLIT:;
#GENRE:;
#CREDIT:;
#MUSIC:Grand Chariot.ogg;
#BANNER:Grand Chariot.png;
#BACKGROUND:Grand Chariot-bg.png;
#CDTITLE:;
#SAMPLESTART:94.595;
#SAMPLELENGTH:15.000;
#SELECTABLE:YES;
#OFFSET:-0.355;
#BPMS:0.000=191.000
,212.000=95.500
,232.000=191.000
;
#STOPS:;
#BGCHANGES:;
#FGCHANGES:;

//--------------- dance-single - Extraordiberry ----------------
#NOTES:
     dance-single:
     Extraordiberry:
     Beginner:
     3:
     0,0,0,0,0:
0000
0000
0000
0000
,
0000
0000
0000
0000
,
0000
0000
0000
0000
,
0000
0000
0000
0000
,
0000
0000
0000
0000
,
1000
0000
0000
0000
,
0001
0000
0000
0000
,
1000
0000
0000
0000
,
0001
0000
0000
0000
,
1001
0000
0000
0000
,
0000
0000
0000
0000
,
1000
0000
0000
0000
,
0010
0000
0000
0000
,
0100
0000
0000
0000
,
0001
0000
0000
0000
,
1000
0000
0000
0000
,
0001
0000
1001
0000
,
1000
0000
0000
0000
,
0100
0000
0000
0000
,
0010
0000
0000
0000
,
0001
0000
0000
0000
,
1000
0000
0000
0000
,
0010
0000
0000
0000
,
0100
0000
0000
0000
,
0001
0000
0000
0000
,
0000
1001
0000
0000
,
1000
0000
0000
0000
,
0100
0000
0000
0000
,
0010
0000
0000
0000
,
0100
0000
0000
0000
,
1000
0000
0000
0000
,
0001
0000
0000
0000
,
1000
0000
0000
0000
,
1001
0000
0000
0000
,
0001
0000
0000
0000
,
0100
0000
0000
0000
,
0010
0000
0000
0000
,
0100
0000
0000
0000
,
0001
0000
0000
0000
,
0001
0000
0000
0000
,
1000
0000
0000
0000
,
1001
0000
0000
0000
,
1000
0000
0000
0000
,
0001
0000
0000
0000
,
1000
0000
0000
0000
,
0001
0000
1000
0000
,
0001
0000
1000
0001
,
1000
0000
0000
0000
,
0000
0000
0000
0000
,
0001
0000
0000
0000
,
0000
0000
0000
0000
,
1000
0000
0000
0000
,
0000
0000
0000
0000
,
0001
0000
0000
0000
,
1000
0000
0000
0000
,
0000
0000
0000
0000
,
0001
0000
1000
0000
,
0001
0000
1000
0000
,
1001
0000
0000
0000
,
0000
0000
0000
0000
,
0001
0000
0000
0000
,
0000
0000
0000
0000
,
0010
0000
0000
0000
,
0100
0000
0000
0000
,
1000
0000
0000
0000
,
0001
0000
0000
0000
,
0100
0000
0000
0000
,
0010
0000
0000
0000
,
1000
0000
0000
0000
,
0000
0000
0000
0000
,
1001
0000
1000
0000
,
1001
0000
0000
0000
,
1001
0000
0001
0000
,
1001
0000
0000
0000
,
1000
0000
1000
0000
,
1000
0000
0000
0000
,
0001
0000
0001
0000
,
0001
0000
0001
0000
,
0000
1001
0000
0000
,
0001
0000
1001
0000
,
1000
0000
1001
0000
,
0001
0000
1001
0000
,
1000
0000
1000
0000
,
0001
0000
0001
0000
,
0010
0000
0100
0000
,
0010
0000
0110
0000
,
0110
0000
0000
0000
,
0110
0000
0000
0000
,
0000
1001
0000
0000
;

//--------------- dance-single - Extraordiberry ----------------
#NOTES:
     dance-single:
     Extraordiberry:
     Easy:
     8:
     0,0,0,0,0:
0000
0000
0000
0000
,
0000
0000
0000
0000
,
0000
0000
0000
0000
,
0000
0000
0000
0000
,
0000
0000
0000
0000
,
1000
1000
1000
0000
,
0001
0001
0001
0000
,
1000
0000
0001
0000
,
1000
0000
0000
0000
0000
0000
0000
0001
0000
0000
0000
0000
0000
0000
0000
0000
,
2002
0000
0000
0000
,
0000
0000
3003
0000
,
2000
0000
0000
0000
,
3200
0000
0320
0000
,
0031
0001
0001
0000
,
0100
0100
0100
0000
,
0010
0010
0010
0010
,
1000
0100
0110
0000
,
1000
0010
1000
0000
,
0001
0100
0001
0000
,
1000
0100
1000
0000
,
0001
0010
0001
0000
,
0001
0100
0010
0000
,
1000
0100
0010
0000
,
0001
0001
1000
1000
,
0001
0100
0010
1000
,
0000
1001
0000
0001
,
0010
0100
1000
0000
,
1000
0010
0100
0001
,
0100
0001
0100
0000
,
1001
0001
0001
0000
,
1001
1000
1000
0000
,
1001
0000
0110
0000
,
1001
1000
1001
0001
,
1001
0000
1000
0000
,
0100
0000
0110
0000
,
0001
0000
0001
0000
,
0100
0000
0110
0000
,
1000
1000
0100
0000
,
0001
0001
0100
0000
,
1000
0001
0100
0100
,
1000
1000
0100
0100
,
0001
0000
0000
1000
0000
0000
0001
0000
,
0010
0000
0000
0100
0000
0000
1000
0000
,
1000
0000
0000
0001
0000
0000
1000
0000
,
0010
0000
0000
0100
0000
0000
0001
0000
,
0001
0010
0010
0100
,
0100
1000
1000
0001
,
1001
0000
0000
0010
0000
0000
1001
0000
,
0000
0100
0000
0000
1001
0000
1000
0000
,
1001
0000
0000
0010
0000
0000
1001
0000
,
0000
0100
0000
0000
1001
0000
1000
0000
,
1002
0000
0000
0000
,
0000
0000
0000
0000
,
2000
0000
0000
3003
,
0001
0000
0001
0000
,
1000
0000
1000
0000
,
0100
0000
0100
0000
,
0010
0010
0100
0010
,
0002
0000
0000
0003
,
2000
0000
0000
3000
,
0020
0000
0000
0030
,
0200
0000
0000
0300
,
0001
0000
1001
0000
,
1000
0000
1001
0000
,
0001
0000
0000
1000
0000
0000
0001
0000
,
1000
0000
0000
0001
0000
0000
0000
0000
,
0002
0000
0010
0000
,
1000
0000
0100
0000
,
0003
0000
0000
0000
,
0000
0000
0000
1001
,
1000
0100
0010
0100
,
1000
0100
0010
0000
,
0001
0100
0010
0100
,
0001
0100
0010
0000
,
1000
0100
0010
0001
,
1000
0100
0010
0000
,
0001
0000
0000
0100
0000
0000
0010
0000
,
0000
1000
0000
0000
0001
0000
0100
0000
,
0000
0001
0100
1000
,
0100
0001
1000
0000
,
0001
1000
0100
0001
,
0100
1000
0010
0000
,
1000
1000
0010
0010
,
0100
0100
0001
0001
,
1000
0000
0000
0001
0000
0000
1000
0000
0000
0001
0000
0000
1000
0000
0000
0000
,
0001
0000
0000
1000
0000
0000
0001
0000
0000
0000
0000
0000
0000
0000
0000
0000
,
1001
0000
0000
0110
0000
0000
0000
1001
,
0000
0000
0000
0000
,
0000
2002
0000
0000
,
0000
0000
0000
0000
,
0000
0000
0000
0000
,
0000
0000
0000
0000
,
3003
0000
0000
0000
;

//--------------- dance-single - Extraordiberry ----------------
#NOTES:
     dance-single:
     Extraordiberry:
     Medium:
     12:
     0,0,0,0,0:
0000
0000
0000
0000
,
0000
0000
0000
0000
,
0000
0000
0000
0000
,
0000
0000
0000
0000
,
0000
0000
0000
0000
,
1000
0010
1000
0010
,
0100
0001
0100
0001
,
0010
0000
0000
0010
0000
0000
0000
0000
0100
0000
0000
0100
0000
0000
0000
0000
,
2000
0000
0000
0000
0000
0000
0000
3001
0000
0000
0000
0000
0000
0000
0000
0000
,
2002
0000
0000
0000
,
0000
0000
3000
0000
,
0203
0000
0000
0000
,
0320
0000
2030
0000
,
3100
0100
0010
0001
,
0100
0100
0010
1000
,
0001
0001
1000
1000
,
0001
1000
0001
1000
0001
0000
1001
0000
,
1000
0000
0001
0100
0000
0100
0001
0000
,
1000
0000
0001
0010
0000
0010
0001
0000
,
0001
0000
1000
0010
0000
0010
1000
0000
,
0001
0000
1000
0100
0000
0100
1000
0000
,
1000
0010
0000
0100
0001
0000
0100
0000
,
0001
0010
0000
0100
1000
0000
0001
0000
,
0110
1000
1001
0001
,
0101
0000
0000
0000
1000
0000
0000
0000
1010
0000
0000
1000
0000
0000
1000
0000
,
0000
2020
3030
0001
,
0010
0100
1000
0100
0000
0010
0001
0000
,
0001
0000
0100
0010
0000
0010
1000
0000
,
0010
0100
0001
0100
0000
0010
1000
0000
,
1001
0000
0001
0010
0000
0010
0100
0000
,
0110
0000
0010
0100
0010
0100
1000
0000
,
1000
0001
0000
0000
0001
1000
0000
0000
,
0110
0000
0000
0001
0000
0000
0100
0000
0010
0000
0000
1000
0000
0000
0100
0000
,
0010
0000
0001
1000
0010
0000
0010
1000
,
0001
0010
0001
0010
0100
0000
0110
0000
,
0001
0000
1000
0001
0010
0000
0010
0001
,
1000
0010
1000
0010
0100
0000
0110
0000
,
0001
0000
1000
0000
0100
0000
1000
0000
0001
0000
0000
0010
0000
0000
0001
0000
,
1000
0010
1000
0001
0100
0000
0010
0000
,
1000
0000
0000
0000
0100
0000
0000
0010
0100
0000
0000
0010
0000
0000
0001
0000
,
1000
0000
0000
1000
0000
0000
1000
0000
0001
0000
1000
0000
0001
0000
1000
0000
,
0020
0000
0000
0030
,
2000
0000
0000
0000
0000
0000
0000
0000
0000
0000
0000
0000
0000
3000
0000
0000
,
0200
0000
0320
0000
,
0032
0000
0000
0003
,
1000
0000
0010
0000
1010
0000
1000
0001
,
0010
0000
0001
0000
0011
0000
0010
0001
,
0100
0000
0000
0010
0000
0000
1000
0000
0000
0010
0000
0000
0100
0000
0000
0001
,
0000
0000
0100
0000
0000
0010
0000
0000
1000
0000
0001
0000
0010
0000
0000
0000
,
0001
0000
0000
0010
0000
0000
0100
0000
0000
0010
0000
0000
0001
0000
0000
1000
,
0000
0000
0100
0000
0000
0010
0000
0000
0001
0000
1000
0000
0010
0000
0100
0000
,
0002
0000
0000
0000
,
0000
0000
0000
0000
,
2000
0000
0000
3003
,
2000
0000
3200
0000
,
0320
0000
0032
0000
,
1003
1000
0010
0010
,
0100
0000
0000
0100
0000
0000
0001
0000
0000
0001
0000
0000
1000
0000
0001
0000
,
2000
0001
0010
3001
,
0002
1000
0010
1003
,
1001
0001
0100
0010
,
0110
0100
0010
1000
,
1001
1000
1001
0001
,
1001
1001
1001
1000
,
0001
0000
0000
0010
0000
0000
0100
0000
0000
0010
0000
0000
0001
0000
0000
0000
,
0100
0000
0000
0010
0000
0000
1000
0000
0000
0000
0000
0000
0001
0000
0000
0000
,
1000
0000
0000
1000
0000
0000
1000
0000
0000
1000
0000
0000
0001
0000
1000
0000
,
0100
0000
0000
0100
0000
0000
0100
0000
0000
0100
0000
0000
0110
0000
0000
0000
,
2002
0000
0000
0000
,
0000
0000
3003
1001
,
1000
0000
0000
0100
0000
0000
0010
0000
0000
0100
0000
0000
1000
0000
0000
0000
,
0001
0000
0000
0100
0000
0000
0010
0000
0000
0100
0000
0000
0001
0000
0000
0000
,
0010
0000
0000
0010
0000
0000
0100
0000
0000
0100
0000
0000
1000
0000
0000
0000
,
0010
0000
0000
0010
0000
0000
0100
0000
0000
0100
0000
0000
0001
0000
0000
0000
,
1000
0000
0000
0100
0000
0000
0010
0000
0000
0001
0000
0000
1000
0000
0000
0000
,
0001
0000
0000
0100
0000
0000
0010
0000
0000
1000
0000
0000
0001
0000
0000
0000
,
1000
0000
0000
1000
0000
0000
0001
0000
0000
0001
0000
0000
0010
0000
0000
0010
,
0000
0000
0100
0000
0000
0100
0000
0000
1000
0000
0001
0000
1000
0000
0001
0000
,
0000
0000
1001
0000
1000
0001
0100
0000
,
0001
0000
0000
0100
0000
0000
0010
0000
0000
0100
0000
0000
0001
0000
0001
0000
,
1000
0000
0000
0100
0000
0000
0010
0000
0000
0001
0000
0000
0010
0000
0010
0000
,
0001
0000
0000
0100
0000
0000
0010
0000
0000
1000
0000
0000
0010
0000
0010
0000
,
1000
1000
1100
0010
,
0011
1001
0101
0110
,
0001
0000
0000
1000
0000
0000
0100
0000
0000
0010
0000
0000
0001
0000
0100
0000
,
0010
0000
0000
1000
0000
0000
1010
0000
0000
0000
0000
0000
0000
0000
0000
0000
,
1001
0000
0000
0001
0000
0000
1001
0000
0000
0000
0010
0000
0000
0000
0110
0000
,
0000
0000
0000
0000
,
0000
2002
0000
0000
,
0000
0000
0000
0000
,
0000
0000
0000
0000
,
0000
0000
0000
0000
,
3003
0000
0000
0000
;

//--------------- dance-single - Extraordiberry ----------------
#NOTES:
     dance-single:
     Extraordiberry:
     Hard:
     14:
     0,0,0,0,0:
0000
0000
0000
0000
,
0000
0000
0000
0000
,
0000
0000
0000
0000
,
0000
0000
0000
0000
,
0000
0000
0000
0000
,
1000
0100
0010
0001
,
1000
0010
0100
0001
,
1000
0000
0000
1000
0000
0000
0100
0000
0010
0000
0000
0010
0000
0000
0001
0000
,
0100
0010
0100
0000
0010
0000
1000
0010
0000
0000
0000
0000
0000
0000
0000
0000
,
2001
0000
0001
0000
,
0001
0000
0100
0000
,
3200
0000
1000
0000
,
0320
0001
0032
0103
,
0001
0100
0001
0000
1000
0010
1000
0000
,
0001
0010
0001
0000
1000
0100
1000
0000
,
1000
0000
1000
0010
0000
0000
0100
0000
0001
0000
0001
0010
0000
0000
0001
0000
,
0100
0100
0010
0010
0120
0000
1030
0000
,
0001
0000
0000
0010
0000
0000
0100
0000
0000
1000
0000
0000
0010
0000
0010
0000
,
1000
0000
0000
0010
0000
0000
0100
0000
0000
0001
0000
0000
0010
0000
0010
0000
,
0001
0000
0000
0100
0000
0000
0010
0000
0000
1000
0000
0000
0100
0000
0100
0000
,
0010
0000
0000
0001
0000
0000
0100
0000
0000
0010
0000
0000
1000
0000
1000
0000
,
0001
0000
0000
0010
0000
0000
0100
0000
1000
0000
0010
0000
0100
0000
0001
0000
,
1000
0000
0000
0100
0000
0000
0010
0000
0001
0000
1000
0000
0010
0000
0100
0000
,
0001
0000
0000
0000
0010
0000
0100
0010
0100
0000
0000
0000
1000
0000
0010
0100
,
0010
0000
0000
0000
0100
0000
0001
0000
0010
0000
0000
0010
0000
0000
0010
0000
,
0000
0000
0110
0000
0001
1000
0010
0100
,
0001
0000
1000
0000
0001
0000
0010
0000
0100
0000
0000
1000
0000
0000
0100
0000
,
1000
0001
0100
0010
1000
0001
0010
0100
,
1000
0001
0010
0001
0100
0000
0110
0000
,
0010
0000
0010
0000
1000
0000
0100
0000
0100
0000
0000
1000
0000
0000
0100
0000
,
0010
0000
0010
0000
0001
0000
0100
0000
0100
0000
0000
0000
0010
0000
1000
0010
,
1000
0000
1000
0000
0000
0000
0001
0010
0001
0000
0001
0000
0000
0000
0100
0001
,
0100
0000
0000
0010
0000
0000
1000
0000
1000
0000
0000
0100
0000
0000
0010
0000
,
0011
0000
0000
0000
0001
0000
0100
0000
1000
0000
0000
0100
0000
0000
0001
0000
,
1000
0100
0010
0100
0100
0000
1100
0000
,
1000
0000
0000
0100
0000
0000
0001
0000
0001
0000
0000
0100
0000
0000
1000
0000
,
0001
0100
0010
0100
0100
0000
0101
0000
,
0001
0000
0000
1000
0000
0000
0100
0010
0100
0000
0000
0001
0000
0000
0100
0000
,
1000
1000
0001
0001
0100
0000
0110
0000
,
1000
0000
0000
0001
0000
0000
0100
0010
0100
0000
0000
1000
0000
0000
0100
0000
,
0100
0000
0000
0001
0000
0000
1000
0000
0100
0000
0100
0000
0100
0000
0100
0000
,
0010
0002
0000
1000
0000
0100
0000
1003
,
0001
0000
2000
0000
0000
0000
0100
0000
0000
0000
0001
0000
0000
0000
3100
1000
,
0200
0000
0000
0320
0000
0000
0032
0000
,
0103
0000
0020
0000
0000
0000
1000
0000
0000
0000
0100
0000
0000
0000
1030
0010
,
1000
0000
0000
0001
0000
0000
0010
0000
0100
0000
0000
1000
0000
0000
0010
0000
,
0100
0000
0000
0001
0000
0000
0010
0000
0010
0000
0100
0000
0100
0000
1000
0001
,
1000
0000
0000
0001
0000
0000
1001
0000
0000
1000
0000
0000
1001
0000
0000
0001
,
0000
0000
0011
0000
0000
1000
0000
0000
1100
0000
0000
0000
0011
0000
0000
0000
,
0110
0000
0000
0110
0000
0000
0110
0000
0000
0110
0000
0000
1001
0000
0000
1001
,
0000
0000
1001
0000
0000
1001
0000
0000
0001
0000
0001
0000
1000
0000
1000
0000
,
0002
0000
0000
0000
,
0000
0000
0000
0000
,
0203
0000
0000
0300
,
0002
1000
1000
1000
,
2003
0001
0001
0001
,
3001
0100
0010
1000
0001
0010
0100
1000
,
0001
0000
0000
0001
0000
0000
0010
0000
0000
0010
0000
0000
0100
0000
0000
0100
0000
0000
1000
0000
0000
1000
0000
0000
0010
0000
0100
0000
0010
0000
0100
0000
,
0002
0100
0100
0100
,
2003
0100
0100
0100
,
3001
0000
0000
0001
0000
0000
0100
0000
0000
0100
0000
0000
0010
0000
0010
0000
,
1000
0000
0000
1000
0000
0000
0100
0000
0000
0100
0000
0000
0010
0000
0010
0000
,
0001
0000
0100
0001
0000
0000
1000
0000
0010
1000
0000
0000
0001
0000
0001
0000
,
1000
0000
0100
1000
0000
0000
0001
0000
0010
0001
0000
0000
1000
0000
1000
0000
,
0010
0000
0000
1010
0000
0000
0001
0000
0000
0011
0000
0000
0001
0000
0001
0000
,
0100
0000
0000
0101
0000
0000
1100
0000
0000
0000
1000
0001
1000
0000
0000
0000
,
2000
0000
0000
0010
0000
0000
0001
0000
0000
0100
0000
0000
0001
0000
0001
0000
,
3002
0000
0000
0010
0000
0000
1000
0000
0000
0100
0000
0000
1000
0000
1000
0000
,
2000
0000
0000
0000
,
0000
0000
3003
1001
,
1000
0000
0100
0010
0000
0000
0001
0000
0010
0100
0000
0000
1000
0000
1000
0000
,
0001
0000
0100
0010
0000
0000
1000
0000
0010
0100
0000
0000
0001
0000
0001
0000
,
1000
0000
0001
0010
0000
0000
0100
0000
0010
0001
0000
0000
0010
0000
0010
0000
,
0001
0000
1000
0010
0000
0000
0100
0000
0010
1000
0000
0000
0010
0000
0010
0000
,
1000
0000
0100
0010
0000
0000
0001
0000
0100
0010
0000
0000
1000
0000
1000
0000
,
0001
0000
0010
0100
0000
0000
1000
0000
0010
0100
0000
0000
0001
0000
0001
0000
,
0101
0000
0000
1000
0000
0000
1010
0000
0000
0001
0000
0000
0011
0000
0000
1000
,
0000
0000
1100
0000
0000
0001
0000
0000
0100
0000
0100
0000
0010
0000
0010
0000
,
0210
0000
0000
0000
0301
0000
0010
0100
0000
0000
1000
0000
1000
0000
0010
0000
,
0100
0001
0000
1000
0010
0000
0100
0001
0000
1000
0010
0000
0100
0000
0100
0000
,
0001
0000
0000
0010
0000
0000
1000
0000
0000
0010
0001
0000
0010
0000
0100
0000
,
1000
0000
0000
0010
0000
0000
0001
0000
0000
0010
1000
0000
0001
0000
0100
0000
,
0001
0010
0000
0100
1000
0000
0001
0010
0000
0100
1000
0000
0100
0000
0100
0000
,
1000
0010
0000
0100
0001
0000
1000
0010
0000
0100
0001
0000
0100
0000
0100
0000
,
0110
0000
0000
0010
0000
0000
1001
0000
0000
1000
0000
0000
0100
0000
0100
0000
,
0110
0000
0000
1001
0000
0000
0110
0000
0000
0000
0001
1000
0001
0000
0000
0000
,
1001
0000
0000
0010
0000
0000
0110
0000
0000
0000
0001
0000
0000
0000
1001
0000
,
0000
0000
0000
0000
,
0000
2002
0000
0000
,
0000
0000
0000
0000
,
0000
0000
0000
0000
,
0000
0000
0000
0000
,
3003
0000
0000
0000
;

//--------------- dance-single - Extraordiberry ----------------
#NOTES:
     dance-single:
     Extraordiberry:
     Challenge:
     16:
     0,0,0,0,0:
0000
0000
0000
0000
,
0000
0000
0000
0000
,
0000
0000
0000
0000
,
0000
0000
0000
0000
,
0000
0000
0000
0000
,
1000
0000
0000
0001
0000
0000
1000
0000
0000
0001
0000
0000
1000
0001
1000
0000
,
0100
0000
0000
0010
0000
0000
0100
0000
0000
0010
0000
0000
0100
0010
0100
0000
,
0110
0000
0000
0110
0000
0000
1000
0000
1001
0000
0000
1001
0000
0000
1000
0000
,
0001
0100
0001
0100
0010
1000
0010
2000
0000
0000
0010
0000
0000
0000
3100
0000
,
2200
0000
0000
0000
,
0000
0000
3000
0000
,
0320
0000
0000
0000
,
0032
0000
0203
0000
,
0310
1000
0100
1000
0010
1000
0100
0100
,
0010
0001
0100
0001
0010
0001
0100
0100
,
0010
0100
0010
0000
1000
0001
1000
0000
0100
0010
0100
0000
1000
0001
1000
0000
,
0010
1000
0010
1000
0010
1000
0010
1000
0200
0000
0000
0000
0000
0000
0000
0000
,
1300
0000
0000
0100
0000
0000
0010
0000
0000
0001
0000
1000
0100
0000
0010
0000
,
0001
0000
0000
0100
0000
0000
0010
0000
0000
1000
0000
0001
0100
0000
0010
0000
,
1000
0000
0000
0100
0000
0000
0001
0000
0000
0100
0000
1000
0100
0000
0010
0000
,
0001
0000
0000
0100
0000
0000
1000
0000
0000
0100
0000
0001
0100
0000
0010
0000
,
1000
0000
0100
1000
0000
0000
0001
0010
0000
0010
0001
0000
1000
0000
1000
0000
,
0001
0000
0100
0001
0000
0000
1000
0010
0000
0010
1000
0000
0001
0000
0001
0000
,
1000
0000
0000
0100
0000
0000
0001
0100
0001
0000
0000
0100
0000
0000
1000
0100
,
1000
0000
0001
0000
0100
0000
1000
0100
1000
0000
0000
0100
0000
0000
0200
0000
,
0000
0000
0300
0000
0110
0000
0010
1000
0000
1000
0001
0000
0010
0000
0010
0000
,
0100
0000
1000
0000
0100
0000
0010
0001
0000
0001
1000
0000
0010
0000
0010
0000
,
1000
0010
1000
0000
0001
0000
0100
0000
0100
0000
0001
0000
1000
0100
1000
0000
,
0001
0000
0001
0000
1000
0000
0100
0010
0000
0010
0001
0000
1000
0000
0010
0000
,
1010
0000
1000
0010
0000
0100
0001
0000
1000
0010
0000
0100
0001
0000
1000
0000
,
1000
0000
0001
0010
0000
0100
1000
0000
0001
0010
0000
0100
1000
0000
0001
0000
,
0010
0011
0000
1000
0010
1010
0000
0001
,
0011
0000
0000
0110
0000
0000
1000
0000
1100
0000
0000
1001
0000
0000
0001
0000
,
0101
0000
0001
0000
0100
0000
1000
0000
0100
0000
0010
0100
0000
0001
0100
0000
,
0001
0000
1000
0000
0100
0000
0001
0000
0100
0010
0000
0000
0110
0000
0000
0000
,
0001
0000
0001
0100
0000
0000
0001
1000
0100
0000
0000
0001
0000
0000
0100
1000
,
0001
0000
0001
0000
0100
0000
1000
0000
0100
0010
0000
0000
0110
0000
0000
0000
,
0001
0000
0010
0000
0010
0000
0100
1000
0100
0000
0000
1000
0000
0000
0010
0000
,
1000
0000
1000
0000
0001
0000
0001
0000
0100
0000
0000
0000
0001
0000
0010
0100
,
1000
0000
0000
0000
1000
0000
0010
0100
0001
0000
0000
0010
0000
0000
0010
0000
,
0110
0000
0000
1001
0000
0000
1000
0000
1100
0000
0001
0000
0101
0000
0100
0000
,
0002
0000
0010
0010
0000
0100
0100
0000
,
2003
0000
0000
0000
0010
0000
0010
0000
0000
0000
0100
0000
3100
0000
1000
0100
,
1000
0000
0001
0000
0001
0000
0010
0000
0100
0000
0100
0000
1000
0000
0010
1000
,
0010
0000
0100
0000
0100
0000
0001
0000
1000
0000
1000
0000
0100
0010
0100
0010
,
0100
0000
0010
0000
0010
0000
0001
0000
1000
0000
1000
0000
0010
0100
0010
0100
,
0010
0000
0100
0000
0100
0000
0010
0000
1000
0000
1000
0000
0100
0010
0100
1000
,
0100
0010
0000
0011
0000
0000
1000
0100
0000
1100
0000
0000
0001
0100
0000
0101
,
0000
0000
0010
1000
0000
1010
0000
0000
1000
0001
0010
0000
0001
1000
0010
0000
,
1000
0001
1000
0001
1000
0000
0100
0010
0100
0010
0100
0000
1000
0001
1000
0001
,
1000
0000
0010
0100
0010
0100
0010
0000
0100
0000
0010
0000
0110
0000
1000
0000
,
2002
0000
0000
0000
,
0000
0000
3000
0000
,
0020
0000
0000
0033
,
0002
0100
0100
0100
2003
0100
0100
0100
,
3020
1000
0100
1000
0230
0001
0010
0001
,
0310
0000
0000
1000
0000
0000
0100
0000
0000
1000
0000
0000
0001
0000
0001
0000
0010
0000
0000
0001
0000
0000
0100
0000
0000
0001
0000
0000
1000
0000
1000
0000
,
0100
0000
0000
0010
0000
0000
0001
0000
0000
0100
0000
0000
0010
0000
0000
1000
0000
0000
1001
0000
0000
0001
0000
0000
1000
0001
1000
0000
0001
1000
0001
0000
,
2000
0000
0000
3200
0000
0000
0320
0000
0000
0032
0000
0000
1000
0000
1003
0000
,
0002
0000
0000
0203
0000
0000
0320
0000
0000
2030
0000
0000
0001
0000
3001
0000
,
1000
0100
0000
0100
0000
0000
0001
0100
0000
0100
0000
0000
1000
0000
1000
0000
,
0001
0100
0000
0100
0000
0000
1000
0100
0000
0100
0001
0000
0001
0000
1000
0000
,
0001
0010
0001
0010
0000
0000
0100
1000
0100
1000
0000
0000
0010
0000
0010
0000
,
0100
0001
0100
0001
0000
0000
1000
0010
1000
0010
0100
0001
0100
0010
1000
0010
,
1000
0000
0000
1010
0000
0000
1100
0000
0000
0011
0000
0000
1000
0100
0010
0001
,
1000
0000
0000
0110
0000
0000
1001
0000
0000
0000
0001
1000
0010
1000
0001
0100
,
0002
0000
0000
1000
0000
0000
0010
0000
0000
0100
0000
0000
0010
0000
0013
0000
,
0011
0000
0000
0110
0000
0000
1100
0000
0000
1001
0000
0000
0110
0000
0001
0000
,
2002
0000
0000
0000
,
0000
0000
3003
1001
,
1000
0100
0000
0010
0001
0000
1000
0010
0000
0100
0001
0000
0100
0000
0100
0000
,
0001
0010
0000
0100
1000
0000
0001
0100
0000
0010
1000
0000
0010
0000
0010
0000
,
1000
0000
0001
0010
0000
0010
0001
0000
1000
0010
0000
0010
1000
0000
1000
0000
,
0001
0000
1000
0100
0000
0100
1000
0000
0001
0100
0000
0100
0001
0000
0001
0000
,
1000
0100
0000
1000
0010
0000
0100
0001
0000
0010
0001
0000
0010
0000
0010
0000
,
0001
0100
0000
0001
0010
0000
0100
1000
0000
0010
1000
0000
0010
0000
0010
0000
,
1010
0000
0000
1000
0100
0000
1100
0000
0000
0010
0001
0000
0011
0000
0000
0001
,
0100
0000
0101
0000
0000
0010
1000
0000
1010
0000
0010
0000
1000
0100
2000
0000
,
0000
0000
0000
0000
3100
0000
0010
0100
0000
0010
0100
0010
0001
0000
1000
0000
,
0001
1000
0000
0010
0100
0000
1000
0100
0000
0010
0100
0010
1000
0000
0100
0000
,
0010
0001
0000
0010
0100
0000
0001
0100
0000
0010
0100
0010
0001
0000
0100
0000
,
0010
1000
0010
0100
0000
0000
0100
1000
0100
0010
0000
0100
0010
0000
1000
0000
,
1010
0000
0010
1000
0000
1000
0001
0000
0011
0000
0010
0000
0001
0010
0001
0000
,
0101
0000
0100
0001
0000
0001
1000
0000
1100
0000
0100
0010
0001
1000
0100
0010
,
0001
0000
0100
0001
0000
1000
0010
0000
1000
0100
0000
0010
0001
0000
0010
0000
,
0110
0000
0000
1001
0000
0000
0110
0000
0000
0000
0001
0100
0010
1000
0100
0010
,
0001
0000
0000
1001
0000
0000
0110
0000
0000
0000
1010
0000
0000
0000
0101
0000
,
0000
0000
0000
0000
,
0000
2002
0000
0000
,
0000
0000
0000
0000
,
0000
0000
0000
0000
,
0000
0000
0000
0000
,
3003
0000
0000
0000
;
