#TITLE:Go Beyond!!;
#SUBTITLE:;
#ARTIST:Ryu☆ Vs. Sota;
#TITLETRANSLIT:;
#SUBTITLETRANSLIT:;
#ARTISTTRANSLIT:Ryu Vs. Sota;
#GENRE:;
#CREDIT:;
#MUSIC:Go Beyond!!.ogg;
#BANNER:Go Beyond!!-bn.png;
#BACKGROUND:Go Beyond!!-bg.png;
#CDTITLE:;
#SAMPLESTART:11.214;
#SAMPLELENGTH:15.000;
#SELECTABLE:YES;
#OFFSET:-0.114;
#BPMS:0.000=200.000;
#STOPS:;
#BGCHANGES:;
#FGCHANGES:;

//--------------- dance-single - Peter ----------------
#NOTES:
     dance-single:
     Peter:
     Beginner:
     6:
     0,0,0,0,0:
0000
0000
0000
0000
,
0000
0000
0000
0000
,
0000
0000
0000
0000
,
0000
0000
0000
0000
,
0000
0000
0000
0000
,
0000
1000
0000
0100
,
0000
0010
0000
0001
,
0000
1000
0000
0001
,
0000
0000
0000
0000
,
0000
1000
0000
0010
,
0000
0001
0000
1000
,
0000
0100
0000
0010
,
0000
0000
0001
0000
0000
0001
0000
0000
,
0000
1000
0000
0100
,
0000
0001
0000
1000
,
0000
0010
0000
0100
,
0000
0001
0000
0000
,
0000
1000
0100
1000
,
0000
0010
0000
0100
,
0000
0001
0010
0001
,
0000
0100
0000
0010
,
0000
1000
0100
0010
,
0000
0000
0001
0000
0000
1000
0000
0000
,
1000
0010
0020
0130
,
0200
0300
0000
0000
,
0000
0002
0000
0023
,
0000
0032
0000
2003
,
0000
3020
0000
0000
,
0000
0000
0000
0230
,
0000
0302
0000
2003
,
0000
3200
0000
2300
,
0000
3020
0000
0000
,
0000
0000
0000
0230
,
0000
0302
0000
0203
,
0000
0302
0000
2003
,
0000
3200
0000
0000
,
0000
0000
0000
0320
,
0000
0032
0000
2003
,
0000
3020
0000
2030
,
0000
3200
0000
0000
,
0000
0000
0000
0320
,
0000
0032
0000
0000
,
0000
0000
0000
0203
,
0000
0320
0000
0000
,
0000
0000
0000
2030
,
0000
3200
0000
0320
,
0000
0032
0000
2003
,
0000
0002
0000
0000
,
0000
0000
0000
0000
,
0000
0000
0000
0000
,
3003
1001
0000
0000
,
0000
0000
0000
0000
,
0000
0000
0001
0001
,
0001
1000
0100
0001
,
0100
1000
0001
0100
,
0010
1000
0100
1000
,
0010
0100
0001
0010
,
0001
1000
0010
0001
,
0010
1000
0001
0010
,
0100
1000
0010
0100
,
0001
1000
0100
0010
,
0001
1000
0010
0001
,
1000
0100
0010
0100
,
1000
0001
0100
1000
,
0001
0100
0010
1000
,
0000
0001
0010
1000
,
0001
0010
0100
0010
,
0001
1000
0010
0100
,
0001
1000
0100
0010
,
0001
2000
0000
3200
,
0000
2300
0000
3002
,
0000
0203
0000
0010
,
0000
0001
0000
0320
,
0000
2030
0000
3002
,
0000
0023
0000
0032
,
0000
0203
0000
0001
,
0000
0000
0000
0320
,
0000
2030
0000
3020
,
0000
2030
0000
3002
,
0000
0023
0000
0100
,
0000
0001
0000
0230
,
0000
2300
0000
3002
,
0000
0203
0000
0302
,
0000
0023
0000
0001
,
0000
0000
0000
0230
,
0000
0300
2200
0000
0000
0000
0000
0000
,
0000
0000
3300
2200
,
0000
3300
2020
0000
0000
0000
0000
0000
,
0000
0000
3030
2020
,
0000
3030
0220
0000
0000
0330
0202
0000
,
0000
0303
0022
0000
0000
0033
0220
0000
,
0000
0330
2002
0000
0000
0000
0000
0000
,
0000
0000
0000
0000
,
0000
0000
0000
0000
,
0000
0000
0000
0000
,
0000
3003
0000
0000
;

//--------------- dance-single - Peter ----------------
#NOTES:
     dance-single:
     Peter:
     Easy:
     12:
     0,0,0,0,0:
0000
0000
0000
0000
,
0000
0000
0000
0000
,
0000
0000
0000
0000
,
0000
0000
0000
0000
,
0000
0000
0000
0000
,
0000
1000
0100
0001
,
0100
0000
0000
0000
1000
0000
0000
0001
0000
0000
1000
0000
0001
0000
0000
0000
,
0000
0110
0000
1001
,
0000
0000
0000
0000
,
0000
1000
0100
0001
,
0010
0100
1000
0100
,
0010
0001
0001
1000
,
1000
0000
0010
0010
0000
0010
0000
0010
,
0000
1000
0010
0001
,
0100
0010
1000
0010
,
0100
0001
0001
1000
,
1000
0020
0230
0320
,
0230
0301
0010
1000
,
0001
0010
0100
1000
,
0001
1000
0010
0001
,
1000
0000
0010
0100
,
0000
0000
0001
0000
0010
0000
0100
0010
,
0000
0001
1000
0010
0000
0100
0000
0010
,
1000
0000
1000
0000
0100
0100
0001
0000
,
0100
0100
0000
0000
0000
0000
0000
0000
,
0000
2000
0000
3020
,
0000
2030
0000
3002
,
0000
0023
0000
0000
,
0000
0000
0000
0230
,
0000
2300
0000
3002
,
0000
0203
0000
0302
,
0000
0023
0000
0000
,
0000
0000
0000
0230
,
0000
2300
0000
3200
,
0000
2300
0000
3002
,
0000
0203
0000
0000
,
0000
0000
0000
0320
,
0000
2030
0000
3002
,
0000
0023
0000
0032
,
0000
0203
0000
0000
,
0000
0000
0000
0000
0000
0300
2020
0000
,
0000
3030
2200
0000
0000
0000
0000
0000
,
0000
0000
3300
2200
,
0000
3300
0220
0000
0000
0000
0000
0000
,
0000
0000
0330
0220
,
0000
0330
0022
0000
0000
0033
0202
0000
,
0000
0303
0220
0000
0000
0330
2020
0000
,
0000
3030
2002
0000
0000
0000
0000
0000
,
0000
0000
0000
0000
,
0000
0000
0000
0000
,
3003
1001
0000
0000
,
0000
0000
0000
0000
,
0000
0000
0001
0001
,
0001
0000
1000
0100
0010
0100
1000
0001
,
0100
0010
1000
0001
0010
0001
0100
0010
,
1000
0001
1000
0010
0100
0010
1000
0001
,
0010
0100
1000
0001
0100
0001
0010
0000
,
0100
0000
1000
0010
0001
0010
1000
0100
,
1000
0010
0100
0001
0010
0001
1000
0010
,
0100
0001
1000
0100
0001
0100
1000
0010
,
0100
0001
1000
0100
0010
0001
1000
0100
,
0010
0001
1000
0000
0010
0100
0010
0000
,
0001
1000
0010
0000
0001
1000
0100
0010
,
0100
1000
0001
0000
0100
0010
0100
0000
,
1000
0001
0100
0000
1000
0001
0010
0000
,
0100
0000
1000
0000
0100
0010
0100
0000
,
0001
1000
0100
0000
0001
1000
0010
0100
,
0001
0000
1000
0010
0001
0010
1000
0100
,
0001
0100
1000
0100
0010
0001
1000
0100
,
0010
0001
2000
0000
0100
0000
3002
0000
,
0100
2003
0010
3002
,
0010
2003
0000
0000
,
0000
0000
0000
3200
,
1000
0320
0001
0230
,
0001
0320
1000
0230
,
1000
0320
0000
0000
,
0000
0000
0000
0032
,
0003
2020
3030
2200
,
3300
0202
0303
0022
,
0033
0220
0000
0000
,
0000
0000
0330
2002
,
3003
2200
3300
2020
,
3030
0022
0033
0202
,
0303
2002
0000
0000
,
0000
3003
0000
0002
,
0003
0202
0000
0000
,
0000
0000
0303
0202
,
0000
0303
0022
0000
0000
0000
0000
0000
,
0000
0000
0033
0022
,
0000
0033
0220
0000
0000
0330
2200
0000
,
0000
3300
2020
0000
0000
3030
0220
0000
,
0000
0330
2002
0000
0000
0000
0000
0000
,
0000
0000
0000
0000
,
0000
0000
0000
0000
,
0000
0000
0000
0000
,
0000
3003
0000
0000
;

//--------------- dance-single - Peter ----------------
#NOTES:
     dance-single:
     Peter:
     Medium:
     14:
     0,0,0,0,0:
0000
0000
0000
0000
,
0000
0000
0000
0000
,
0000
0000
0000
0000
,
0000
0000
0000
0000
,
0000
0000
0000
0000
,
0000
0000
1000
0000
0100
0000
0001
0100
,
1000
0000
0001
0000
0100
0000
0000
0100
0000
0000
0100
0000
0100
0000
0000
0000
,
0000
0010
0001
0010
,
0100
0000
0000
0000
1000
0000
0000
1000
0000
0000
1000
0000
1000
0000
0010
0000
,
0200
0301
0101
0100
,
0110
0010
1010
1000
,
0100
0010
0001
0000
0101
0000
1000
0000
,
1100
0000
0001
0001
0000
0100
0000
0001
,
0000
0010
1000
0000
1010
0000
0010
0000
,
0110
0100
0101
0001
,
0011
0110
1100
1001
,
0110
2000
3002
2003
,
3002
0000
1003
0000
0100
0000
0001
0100
,
0010
0001
0200
0000
2300
0000
3200
0000
,
0301
0000
0010
0000
1000
0000
0100
0010
,
0001
1000
0000
0010
0010
0100
0100
0000
,
0001
0000
0001
0000
0010
0000
1000
0010
,
0000
0001
1000
0010
0000
0001
0000
1000
,
0100
0010
0001
1000
0020
0000
1030
0001
,
0020
0030
0000
0000
,
0000
0002
0000
0203
,
0000
0302
0000
2003
,
0000
3200
0000
0000
,
0000
0000
0000
0320
,
0000
0032
0000
2003
,
0000
3020
0000
2030
,
0000
3200
0000
0000
,
0000
0000
0000
0320
,
0000
0032
0000
0023
,
0000
0032
0000
2003
,
0000
3020
0000
0000
,
0000
0000
0000
0230
,
0000
0302
0000
2003
,
0000
3200
0000
2300
,
0000
3020
0000
0000
,
0000
0000
0000
0000
0000
0030
0202
0000
,
0000
0303
0022
0000
0000
0000
0000
0000
,
0000
0000
0033
0022
,
0000
0033
0220
0000
0000
0000
0000
0000
,
0000
0000
0330
0220
,
0000
0330
2200
0000
0000
3300
2020
0000
,
0000
3030
0220
0000
0000
0330
0202
0000
,
0000
0303
2002
0000
0000
0000
0000
0000
,
0000
0000
0000
0000
,
0000
0000
0000
0000
,
3003
1001
0000
0000
,
0000
0000
0000
0000
,
0000
0000
0001
0001
,
0001
0000
0000
0000
1000
0100
1000
0000
0010
0000
0100
0000
0001
0010
0001
0000
,
1000
0000
0010
0000
0100
0001
0100
0000
0010
0000
1000
0000
0001
0000
0010
0000
,
0100
0000
1000
0000
0001
0100
0001
0000
0010
0000
0100
0000
1000
0010
1000
0000
,
0001
0000
0010
0000
0100
1000
0100
0000
0010
0000
0001
0000
0100
0000
0010
0000
,
0100
0000
0010
0000
1000
0100
1000
0000
0001
0000
0100
0000
0010
1000
0010
0000
,
0100
0000
0001
0000
0010
0001
0010
0000
0100
0000
1000
0000
0100
0000
0010
0000
,
0001
0000
1000
0000
0001
0100
0001
0000
1000
0000
0100
0000
0010
0001
0010
0000
,
0100
0000
1000
0000
0001
0000
0010
0100
1000
0000
0001
0010
0100
0000
1000
0001
,
0010
0000
0100
1000
0001
0000
0100
0000
1000
0000
0010
0000
0100
0000
0001
0000
,
0010
1000
0010
0001
0100
0010
1000
0001
,
0010
0100
1000
0010
0001
0100
0010
1000
,
0100
0001
0100
1000
0010
0100
0001
1000
,
0001
1000
0001
0010
1000
0100
0010
0001
,
0100
1000
0100
0001
0010
0100
1000
0001
,
0100
0010
1000
0100
0001
0100
1000
0010
,
0001
0000
0010
0000
1000
0000
0100
0010
0001
0000
1000
0100
0010
0000
0001
1000
,
0100
0000
0010
0001
2000
0000
0000
0000
0010
0000
0000
0000
3002
0000
0000
0000
,
0010
2003
0100
3002
,
0100
2003
0010
0000
,
0001
0000
0100
3020
,
1000
0230
0001
0320
,
0001
0230
1000
0320
,
1000
0230
0001
0000
,
0010
0000
0000
0302
,
0003
2200
3300
2020
,
3030
0022
0033
0202
,
0303
0220
0000
0000
,
0000
0000
0330
2002
,
3003
2020
3030
2200
,
3300
0202
0303
0022
,
0033
0000
1000
0001
0200
0000
0301
1000
,
0200
0320
0032
2003
,
3000
2020
0000
0000
,
0000
0000
3030
2020
,
0000
3030
2200
0000
0000
0000
0000
0000
,
0000
0000
3300
2200
,
0000
3300
0220
0000
0000
0330
0022
0000
,
0000
0033
0202
0000
0000
0303
0220
0000
,
0000
0330
2002
0000
0000
0000
0000
0000
,
0000
0000
0000
0000
,
0000
0000
0000
0000
,
0000
0000
0000
0000
,
0000
3003
0000
0000
;

//--------------- dance-single - Peter ----------------
#NOTES:
     dance-single:
     Peter:
     Hard:
     17:
     0,0,0,0,0:
0000
0000
0000
0000
,
0000
0000
0000
0000
,
0000
0000
0000
0000
,
0000
0000
0000
0000
,
0000
0000
0000
0000
,
0000
0000
1000
0100
0001
0100
0010
0001
,
0100
0000
0010
0000
1000
0000
0000
0100
0000
0000
0010
0000
0001
0000
0000
0000
,
0000
0000
0100
0100
0010
0010
1000
0001
,
1000
0001
0000
0000
0000
0000
0000
0000
,
0000
0000
1000
0000
1100
0000
0001
0100
,
0010
0001
0000
1000
0000
0010
0000
0100
,
0001
0000
1000
0000
1010
0000
0001
0010
,
0100
1000
0000
0010
0000
0001
0000
0100
,
0000
0010
1000
0000
1001
0000
0001
0010
,
0100
0001
0000
1000
0000
0100
0000
0010
,
0001
0000
1001
0000
0110
0000
0100
0100
,
0010
0010
2000
0000
3002
0000
2003
0000
,
3002
0000
0103
0100
0010
1000
0001
0010
,
1000
0010
0200
0000
2300
0000
3002
0000
,
0203
0000
0310
0010
1000
0001
0010
1000
,
0100
0010
0000
0001
0010
1000
0010
0000
,
0001
0000
1000
0001
1000
0000
0000
0000
0100
0000
0000
0000
0001
0000
1000
0000
,
0000
0010
0001
0100
0000
1000
0000
0100
,
0010
1000
0001
1000
0100
0000
0010
0000
0001
1000
0001
1000
0010
0000
0100
0000
,
0001
1000
0001
1000
0000
0000
0000
0000
0000
0000
0000
0000
0000
0000
0000
0000
,
0000
0002
0000
0023
,
0000
0032
0000
2003
,
0000
3020
0000
0000
,
0000
0000
0000
0230
,
0000
0302
0000
2003
,
0000
3200
0000
2300
,
0000
3020
0000
0000
,
0000
0000
0000
0230
,
0000
0302
0000
0203
,
0000
0302
0000
2003
,
0000
3200
0000
0000
,
0000
0000
0000
0320
,
0000
0032
0000
2003
,
0000
3020
0000
2030
,
0000
3200
0000
0000
,
0000
0000
0000
0000
0000
0300
0022
0000
,
0000
0033
0202
0000
0000
0000
0000
0000
,
0000
0000
0303
0202
,
0000
0303
0220
0000
0000
0000
0000
0000
,
0000
0000
0330
0220
,
0000
0330
2020
0000
0000
3030
2200
0000
,
0000
3300
0220
0000
0000
0330
0022
0000
,
0000
0033
2002
0000
0000
0000
0000
0000
,
0000
0000
0000
0000
,
0000
0000
0000
0000
,
3003
1001
0000
0000
,
0000
0000
0000
0000
,
0000
0000
0001
0001
,
0001
0000
0000
0000
1000
0100
1000
0000
0001
0100
0010
1000
0001
1000
0100
0000
,
0001
0010
0100
0010
0001
0010
0100
0000
0001
0100
0010
1000
0001
0010
0100
1000
,
0100
0010
0100
1000
0001
0100
0001
0000
1000
0100
0010
0001
1000
0001
0100
0000
,
1000
0010
0100
0010
1000
0010
0100
0000
1000
0100
0010
0001
1000
0001
1000
0001
,
1000
0001
1000
0001
1000
0010
1000
0000
0001
0010
0100
1000
0001
1000
0010
0000
,
0001
0100
0010
0100
0001
0010
0100
0000
0001
0010
0100
1000
0001
0100
0010
1000
,
0010
0100
0010
1000
0001
0010
0001
0000
1000
0010
0100
0001
1000
0001
0010
0000
,
1000
0100
0010
0100
1000
0010
0100
0001
1000
0100
0010
0001
1000
0010
0100
0001
,
1000
0100
0010
0001
1000
0010
1000
0000
0001
0000
0001
0000
0010
0100
0010
0000
,
0001
0000
1000
0000
0001
0010
0001
0000
1000
0000
1000
0000
0001
0100
0010
1000
,
0001
0010
0100
1000
0001
0100
0001
0000
1000
0000
1000
0000
0100
0010
0100
0000
,
1000
0000
0001
0000
1000
0100
1000
0000
0001
0000
0001
0000
1000
0010
0100
0001
,
1000
0100
0010
0001
1000
0100
1000
0000
0001
0000
0001
0000
0100
0010
0100
0000
,
0001
0000
1000
0000
0001
0100
0001
0000
1000
0000
1000
0000
0001
0010
0100
1000
,
0001
0100
0010
1000
0001
0010
0001
0000
1000
0010
1000
0000
0001
0100
0001
0000
,
1000
0100
1000
0000
0001
1000
0100
0010
0001
1000
0100
0010
0001
1000
0100
0010
,
0001
1000
0100
0010
0002
0000
0000
0000
0010
0000
0000
0000
2003
0000
0000
0000
,
0010
3002
0100
2003
,
0100
3002
0100
1000
,
0010
1000
0100
0023
,
0001
0230
1000
0320
,
1000
0230
0001
0320
,
0001
0230
1000
0010
,
0001
0000
0000
0320
,
0030
0012
1003
2010
,
3001
0102
1003
2100
,
3001
1002
1000
0100
,
1000
0010
1000
0203
,
0010
0302
0100
0023
,
1000
0230
0001
2300
,
0001
0000
0000
0000
3010
0000
0100
0000
0001
1000
0001
1000
0100
0000
0010
0000
,
0001
1000
0001
1000
0020
0000
0000
0000
0230
0000
0000
0000
0302
0000
0000
0000
,
0003
0022
0000
0000
,
0000
0000
0033
0022
,
0000
0033
0202
0000
0000
0000
0000
0000
,
0000
0000
0303
0202
,
0000
0303
0220
0000
0000
0330
2020
0000
,
0000
3030
2200
0000
0000
3300
0220
0000
,
0000
0330
2002
0000
0000
0000
0000
0000
,
0000
0000
0000
0000
,
0000
0000
0000
0000
,
0000
0000
0000
0000
,
0000
3003
0000
0000
;

//--------------- dance-single - Peter ----------------
#NOTES:
     dance-single:
     Peter:
     Challenge:
     18:
     0,0,0,0,0:
0000
0000
0000
0000
,
0000
0000
0000
0000
,
0000
0000
0000
0000
,
0000
0000
0000
0000
,
0000
0000
0000
0000
,
0000
0000
1000
1000
0001
0010
0100
0100
,
1000
0000
0010
0000
1010
0000
0000
0110
0000
0000
0101
0000
1001
0000
0000
0000
,
0000
0000
0011
0000
0000
0000
0110
1100
,
1001
0000
0000
0000
1000
0000
0000
0100
0000
0000
0001
0000
0010
0000
0100
0000
,
1000
0010
1000
0010
0100
0000
0000
0000
0101
0000
0000
0000
0001
0000
0001
0000
,
1000
0010
0000
0001
0000
0010
0000
0100
,
1000
1000
0001
0000
0011
0000
1000
0010
,
0100
0001
0011
1100
0000
0110
0000
1001
,
0000
1001
1000
0000
1010
0000
0001
0100
,
1000
0100
1100
0010
0000
1000
0000
0001
,
0100
0000
1010
0000
0010
0000
0110
0100
,
0001
0010
0200
0000
0320
0000
0230
0000
,
0320
0000
0000
0000
0031
0000
1000
0001
0010
0000
0001
1000
0010
0000
0001
0000
,
1000
0100
0010
0001
0010
1000
0010
0100
,
0010
0000
0001
0000
1000
0001
1000
0000
0100
0000
0100
0000
0010
0000
0010
0000
,
1000
0001
0000
0010
1000
0001
0100
0000
,
1000
0000
0001
1000
1001
0000
0000
0000
0011
0000
0000
0000
1100
0000
1001
0000
,
0000
0101
0110
1010
0000
0110
0000
1001
,
1000
0000
0000
0100
0000
0000
0010
0000
0000
0001
0000
0000
0100
0000
0000
0000
0000
0000
0010
0000
0000
0000
0000
0000
4000
0000
0004
0000
0000
0000
0000
0000
0000
0000
3000
0000
0013
0000
0000
0000
0000
0000
0100
0000
0000
0000
0000
0000
,
4000
0004
0000
0000
0000
3000
0003
0000
0000
0000
0000
0000
0000
0000
0000
0000
0000
0000
0000
0000
0000
0000
0000
0000
,
0000
2000
0000
3200
,
0000
2300
0000
3002
,
0000
0203
0000
0000
,
0000
0000
0000
0320
,
0000
2030
0000
3002
,
0000
0023
0000
0032
,
0000
0203
0000
0000
,
0000
0000
0000
0320
,
0000
2030
0000
3020
,
0000
2030
0000
3002
,
0000
0023
0000
1000
,
0000
0001
0000
0230
,
0000
2300
0000
3002
,
0000
0203
0000
0302
,
0000
0023
0000
0001
,
0000
0000
0100
0000
0000
0030
2200
0000
,
0000
3300
2020
0000
0000
0000
0000
0000
,
0000
0000
3030
2020
,
0000
3030
0220
0000
0000
0000
0000
0000
,
0000
0000
0330
0220
,
0000
0330
0202
0000
0000
0303
0022
0000
,
0000
0033
0220
0000
0000
0330
2200
0000
,
0000
3300
2002
0000
0000
0000
0000
0000
,
0000
0000
0000
0000
,
0000
0000
0000
0000
,
3003
1001
0000
0000
,
0000
0000
0000
0000
,
0000
0000
0001
0001
,
0001
0000
0000
0000
1000
0100
0010
0100
1000
0001
0100
0010
1000
0100
0010
0001
,
0100
0010
0100
0001
1000
0100
0010
0100
1000
0001
0100
1000
0100
0010
1000
0100
,
0010
0001
0010
0100
1000
0010
0100
0010
1000
0001
0010
0100
1000
0010
0100
0001
,
0010
0100
0010
0001
1000
0010
0100
0010
1000
0001
0010
1000
0010
0100
0010
0100
,
0010
0001
0010
0001
1000
0010
0001
0010
1000
0001
0010
0100
1000
0010
0100
0001
,
0010
0100
0010
0001
1000
0010
0100
1000
0100
0001
1000
0001
0100
0010
0100
0001
,
0010
0100
1000
0001
1000
0100
0001
0100
1000
0001
0100
0010
1000
0100
0010
0001
,
0100
0010
0100
0001
1000
0100
0010
0001
1000
0010
0100
0001
1000
0100
0010
0001
,
1000
0010
0100
0001
1000
0100
0010
0000
0001
0100
0010
1000
0100
0010
0100
0000
,
0001
0010
0001
0100
0010
1000
0100
0000
0001
1000
0100
0010
0100
0001
0100
0010
,
0001
1000
0001
1000
0001
0010
0100
0000
1000
0010
0100
0001
0010
0100
0010
0000
,
1000
0100
1000
0010
0100
0001
0010
0000
1000
0001
0010
0100
1000
0100
1000
0100
,
0010
0001
0010
0001
1000
0010
0100
0000
0001
0010
0100
1000
0010
0100
0010
0000
,
0001
0100
0001
0010
0100
1000
0010
0000
0001
1000
0010
0100
0010
0001
0010
0100
,
0001
1000
0001
1000
0001
0100
1000
0100
0010
1000
0100
1000
0001
0010
1000
0010
,
0100
1000
0010
1000
0001
1000
0100
0010
0001
1000
0100
0010
0001
1000
0100
0010
,
0001
1000
0100
0010
0002
0000
0000
0000
0100
0000
0000
0000
2003
0000
0000
0000
,
0100
3002
0010
2003
,
0010
0010
3002
0000
0010
0000
1000
0000
,
0100
1000
0010
0203
,
0001
0001
0320
0000
1000
0000
0230
0000
,
1000
0320
0001
0230
,
0001
0320
1000
0100
,
0001
0230
0302
0023
,
0130
0000
2001
0000
0100
3000
1002
0000
,
0100
0003
2001
0000
0010
3000
1002
0000
,
0010
0013
2001
0000
0010
0000
0001
0000
,
0010
0100
3001
0102
,
0010
0000
1003
0001
1001
0000
0000
0000
0011
0000
0000
0000
0110
0000
1100
0000
,
0000
1010
0110
0101
0000
0110
0000
1001
,
0000
0000
0000
0000
0000
0000
0001
0000
0000
1000
0000
0000
0010
0000
0000
0000
0000
0000
0100
0000
0000
0000
0000
0000
0004
0000
4000
0000
0000
0000
0000
0000
0000
0000
0003
0000
3100
0000
0000
0000
0000
0000
0010
0000
0000
0000
0000
0000
,
0004
4000
0000
0000
0000
0003
3002
0000
0000
0000
0000
0000
0023
0000
0000
0000
0000
0000
0230
0000
0000
0000
0000
0000
,
0000
0300
2200
0000
0000
0000
0000
0000
,
0000
0000
3300
2200
,
0000
3300
2020
0000
0000
0000
0000
0000
,
0000
0000
3030
2020
,
0000
3030
0220
0000
0000
0330
0202
0000
,
0000
0303
0022
0000
0000
0033
0220
0000
,
0000
0330
2002
0000
0000
0000
0000
0000
,
0000
0000
0000
0000
,
0000
0000
0000
0000
,
0000
0000
0000
0000
,
0000
3003
0000
0000
;

//--------------- dance-single - KONMAI ----------------
#NOTES:
     dance-single:
     KONMAI:
     Edit:
     12:
     0,0,0,0,0:
0000
0000
0000
0000
,
0000
0000
0000
0000
,
0000
0000
0000
0000
,
0000
0000
0000
0000
,
0000
0000
0000
0000
,
0000
0000
1000
1000
0001
0010
0100
0100
,
1000
0000
0010
0000
1010
0000
0000
0110
0000
0000
0101
0000
1001
0000
0000
0000
,
0000
0000
0011
0000
0000
0000
0110
1100
,
1001
0000
0000
0000
1000
0000
0000
0100
0000
0000
0001
0000
0010
0000
0100
0000
,
1000
0010
1000
0010
0100
0000
0000
0000
0101
0000
0000
0000
0001
0000
0001
0000
,
1000
0010
0000
0001
0000
0010
0000
0100
,
1000
1000
0001
0000
0011
0000
1000
0010
,
0100
0001
0011
1100
0000
0110
0000
1001
,
0000
1001
1000
0000
1010
0000
0001
0100
,
1000
0100
1100
0010
0000
1000
0000
0001
,
0100
0000
1010
0000
0010
0000
0110
0100
,
0001
0010
0200
0000
0320
0000
0230
0000
,
0320
0000
0000
0000
0031
0000
1000
0001
0010
0000
0001
1000
0010
0000
0001
0000
,
1000
0100
0010
0001
0010
1000
0010
0100
,
0010
0000
0010
0000
0001
1000
0001
0000
0100
0000
0100
0000
0010
0000
0010
0000
,
1000
0001
0000
0010
1000
0001
0100
0000
,
1000
0000
0001
1000
1001
0000
0000
0000
0011
0000
0000
0000
1100
0000
1001
0000
,
0000
0101
0110
1010
0000
0110
0000
1001
,
1000
0000
0000
0100
0000
0000
0010
0000
0000
0001
0000
0000
0100
0000
0000
0000
0000
0000
0010
0000
0000
0000
0000
0000
1000
0000
0001
0000
1000
0000
0001
0000
1000
0000
0001
0000
0010
0000
0000
0000
0000
0000
0100
0000
0000
0000
0000
0000
,
1000
0001
1000
0001
1000
0001
0000
0000
0000
0000
0000
0000
0000
0000
0000
0000
0000
0000
0000
0000
0000
0000
0000
0000
,
0000
2000
0000
3200
,
0000
2300
0000
3002
,
0000
0203
0000
0000
,
0000
0000
0000
0320
,
0000
2030
0000
3002
,
0000
0023
0000
0032
,
0000
0203
0000
0000
,
0000
0000
0000
0320
,
0000
2030
0000
3020
,
0000
2030
0000
3002
,
0000
0023
0000
1000
,
0000
0001
0000
0230
,
0000
2300
0000
3002
,
0000
0203
0000
0302
,
0000
0023
0000
0001
,
0000
0000
0100
0000
0000
0030
2200
0000
,
0000
3300
2020
0000
0000
0000
0000
0000
,
0000
0000
3030
2020
,
0000
3030
0220
0000
0000
0000
0000
0000
,
0000
0000
0330
0220
,
0000
0330
0202
0000
0000
0303
0022
0000
,
0000
0033
0220
0000
0000
0330
2200
0000
,
0000
3300
2002
0000
0000
0000
0000
0000
,
0000
0000
0000
0000
,
0000
0000
0000
0000
,
3003
0000
0000
0000
0000
0000
0000
0000
1001
0000
0000
0000
0000
0000
0000
0001
0000
0000
0000
0000
0000
0000
0000
0000
0000
0000
0000
0000
0000
0000
0000
0000
,
0001
0000
0000
0000
0000
0000
0000
0000
0000
0000
0000
0000
0000
0000
0000
0000
0000
0000
0000
0000
0000
0000
0000
0001
0000
0000
0000
0000
0000
0000
0001
0000
,
0000
0000
0001
0001
,
0001
0000
0000
0000
1010
0101
0011
0101
1010
0101
1100
0011
1100
0101
1010
0011
,
1100
1010
1100
0101
1010
1100
0011
1100
1010
0011
1100
1010
0101
0011
1100
0101
,
1010
0011
1010
0101
1100
1010
0101
1010
1100
0011
1010
0101
1100
1010
0101
0011
,
1010
0101
1010
0011
1100
0011
0101
0011
1100
0101
0011
1100
1010
0100
0010
0100
,
0010
0001
0010
0001
1010
0011
0101
0011
1010
0101
0011
1100
1010
0011
1100
0101
,
0011
1100
0011
0101
1010
0011
0101
0011
1010
0101
0011
0101
1100
1010
1100
0011
,
1010
0101
1100
0011
1100
0101
0011
0101
1100
0011
0101
1010
1100
0101
1010
0011
,
0101
0011
1100
0011
1100
0101
0011
0101
1010
0011
0101
0011
1100
0101
0011
0101
,
1010
0011
0101
0011
1010
0100
0010
0000
0011
0100
0010
1000
0101
0010
0100
0000
,
0101
0010
0001
0100
0011
1000
0100
0000
0101
1000
0100
0010
1100
0001
0100
0010
,
0101
1000
0011
1000
0101
0010
0100
0000
1100
0010
0100
0001
1010
0100
0010
0000
,
1010
0100
1000
0010
1100
0001
0010
0000
1010
0001
0010
0100
1010
0100
1000
0100
,
0010
0001
0010
0001
1100
0010
0100
0000
0101
0010
0100
1000
0011
0100
0010
0000
,
0011
0100
0001
0010
0101
1000
0010
0000
0011
1000
0010
0100
1010
0001
0010
0100
,
0011
1000
0001
1000
0011
0101
1010
0101
0011
1100
0101
1100
0101
0011
1100
0011
,
0101
1010
0011
1100
0001
1000
0100
0010
0001
1000
0100
0010
0001
1000
0100
0010
,
0001
1000
0100
0010
0102
0000
0000
0000
0100
0000
0000
0000
2013
0000
0000
0000
,
0100
3012
0010
2103
,
0010
0001
3012
0000
0010
0000
1000
0000
,
0100
1000
0010
1203
,
0001
0010
0321
0000
1000
0000
0231
0000
,
1000
1320
0001
1230
,
0001
0321
1000
0100
,
0001
0230
0302
1023
,
0130
0000
2011
0000
0100
3000
1012
0000
,
0100
0003
2101
0000
0010
3000
1102
0000
,
0010
1003
2011
0000
0010
0000
0001
0000
,
0010
0100
3001
0102
,
0010
0000
1003
0001
1001
0000
0000
0000
0011
0000
0000
0000
0110
0000
1100
0000
,
0000
1010
0110
0101
0000
0110
0000
1001
,
0000
0000
0000
0000
0000
0000
0001
0000
0000
1000
0000
0000
0010
0000
0000
0000
0000
0000
0100
0000
0000
0000
0000
0000
0001
0000
1000
0000
0001
0000
1000
0000
0001
0000
1000
0000
0100
0000
0000
0000
0000
0000
0010
0000
0000
0000
0000
0000
,
0001
1000
0001
1000
0001
1000
0002
0000
0000
0000
0000
0000
0023
0000
0000
0000
0000
0000
0230
0000
0000
0000
0000
0000
,
0000
0300
2220
0000
0000
0000
0000
0000
,
0000
0000
3330
2220
,
0000
3330
2022
0000
0000
0000
0000
0000
,
0000
0000
3033
2022
,
0000
3033
2220
0000
0000
3330
2202
0000
,
0000
3303
2022
0000
0000
3033
0222
0000
,
0000
0333
2222
0000
0000
0000
0000
0000
,
0000
0000
0000
0000
,
0000
0000
0000
0000
,
0000
0000
0000
0000
,
0000
3333
0000
0000
;
