#VERSION:0.83;
#TITLE:Glitch Nerds;
#SUBTITLE:;
#ARTIST:かめりあ;
#TITLETRANSLIT:;
#SUBTITLETRANSLIT:;
#ARTISTTRANSLIT:Camellia;
#GENRE:GAMER'S ELECTRO/COMPLEXTRO;
#CREDIT:;
#MUSIC:Glitch Nerds.ogg;
#BANNER:Glitch Nerds.png;
#BACKGROUND:Glitch Nerds-bg.png;
#CDTITLE:;
#SAMPLESTART:78.860;
#SAMPLELENGTH:15.000;
#SELECTABLE:YES;
#OFFSET:1.711;
#BPMS:0.000=140.000;
#STOPS:;
#BGCHANGES:;
#FGCHANGES:;

//--------------- dance-single - chronon ----------------
#NOTEDATA:;
#STEPSTYPE:dance-single;
#DESCRIPTION:chronon;
#DIFFICULTY:Beginner;
#METER:4;
#RADARVALUES:0,0,0,0,0;
#NOTES:
0000
0000
0000
0000
,
0000
0000
0000
0000
,
0000
0000
0000
0000
,
0001
0000
0010
0000
,
0100
0000
0100
0000
,
1000
0000
0010
0000
,
0100
0100
0100
0000
,
1001
0000
1000
0000
,
1001
0000
0001
0000
,
1001
0000
1000
0000
,
0100
0100
0200
0300
,
0001
0000
0100
0000
,
1000
1000
0010
0000
,
0001
0000
0010
0000
,
1000
1000
0001
0100
,
1000
0000
0100
0000
,
0001
0000
0010
0000
,
1000
0010
0000
0001
,
1001
0000
0000
0000
,
0001
0000
0001
0000
,
0100
0000
0100
0000
,
0010
0000
0010
0000
,
1000
0000
0001
0000
,
1000
0000
1000
0000
,
0100
0000
0100
0000
,
0010
0000
0001
0001
,
0200
0000
0300
0000
,
1000
0000
0100
0000
,
0001
0001
1000
0000
,
0001
0010
0100
0000
,
1000
0010
0010
0000
,
0001
0000
0010
0000
,
1000
1000
0001
0000
,
1000
0100
0010
0000
,
0001
0100
0100
0010
,
2000
0000
0000
0000
,
3200
0000
0000
0000
,
0320
0000
0000
0000
,
0032
0000
2003
0000
,
3001
0000
0100
0000
,
0010
0010
0010
0100
,
0001
0000
0010
0000
,
0100
0100
0100
0000
,
1001
0000
0001
0000
,
1001
0000
1000
0000
,
0001
0000
0010
0010
,
0020
0000
0030
0000
,
0010
0001
0010
0000
,
0001
0100
0001
0000
,
1000
0010
1000
0000
,
0100
1000
0100
0000
,
0010
0001
0010
0000
,
0001
0100
0001
0000
,
0100
0100
0100
0000
,
0020
0000
0000
0030
,
1000
0001
1000
0100
,
0010
0000
0010
0000
,
0001
1000
0001
0100
,
0010
0010
0010
0000
,
1000
0001
1000
0010
,
0100
0000
0100
0000
,
0001
1000
0001
1000
,
0020
0000
0000
0030
,
0001
0000
0010
0000
,
1000
0001
0000
0001
,
0010
0000
0100
0100
,
1000
0001
0100
0000
,
1000
0000
0100
0000
,
0001
1000
0100
0000
,
0001
0100
1000
0000
,
2002
0000
0000
0000
,
3003
0000
0000
0000
;

//--------------- dance-single - chronon ----------------
#NOTEDATA:;
#STEPSTYPE:dance-single;
#DESCRIPTION:chronon;
#DIFFICULTY:Easy;
#METER:8;
#RADARVALUES:0,0,0,0,0;
#NOTES:
0000
0000
0000
0000
,
0000
0000
0000
0000
,
0000
0000
0000
0000
,
1000
0010
0100
0100
,
0001
0010
0100
0100
,
1000
0000
0001
0000
0100
0000
0100
0010
,
1000
0100
0010
0010
,
0110
0011
1100
1010
,
0110
0101
1010
1100
,
1000
0100
0010
0000
0010
0100
1000
0000
,
0001
0100
0020
0000
0230
0000
0320
0000
,
0032
0013
1000
0100
,
0010
0010
0001
0000
0100
0000
0100
0000
,
2000
3100
0001
1000
,
0100
1002
0013
1200
,
0302
0103
1000
0010
,
0100
0100
0001
0000
0010
0000
0100
0000
,
1100
1002
0203
0310
,
1001
0000
0000
2000
,
3001
0010
0100
0100
,
0000
1000
0010
0010
,
0100
0001
1000
1000
,
0001
0010
0100
0010
0100
0000
1000
0000
,
0001
0100
0010
0010
,
1000
0100
0010
0010
,
0001
1000
0001
0000
0100
0010
0100
0000
,
0001
1000
0001
1000
0200
0000
0000
0000
,
0302
0000
0103
0100
1000
0000
0010
0000
,
0100
0100
0001
0000
1000
0000
0010
0010
,
1000
0001
0010
0001
,
1000
0001
0100
0010
,
0002
0000
0013
0010
1000
0000
0100
0000
,
0010
0010
0001
0000
1000
0000
0100
0100
,
1000
0001
0100
0001
,
1000
0001
0010
0100
,
2000
0000
3020
0000
,
0230
0000
0000
0000
,
0302
0000
0023
0000
,
0230
0000
2300
0000
,
3001
0000
0100
0000
0010
0100
0010
0000
,
1000
0000
0100
0000
0010
0100
0010
0000
,
0001
0000
1000
0000
0010
0100
0010
0100
,
0001
0010
0100
0100
,
0110
1100
0011
0101
,
0110
1010
0101
0011
,
0001
0010
0100
0000
0100
0010
0001
1000
,
0002
0000
0203
0320
,
1030
0001
0000
0001
0010
0001
0000
0001
,
1000
0001
0000
0001
0100
0010
1000
0000
,
0001
1000
0000
1000
0010
1000
0000
1000
,
0001
1000
0000
1000
0100
0000
0010
0000
,
0001
0010
0000
0010
0100
0010
0000
0010
,
0001
0010
0000
0010
0100
1000
0001
0000
,
1000
0010
0100
0001
,
0010
0100
0001
0100
,
1000
0100
0010
0000
0010
0100
1000
0000
,
0001
0100
0010
0000
0010
0100
0001
0000
,
1000
0001
1000
0000
0010
0100
0010
0000
,
1000
0001
1000
0000
0100
0010
0100
0000
,
1000
0100
0010
0000
0010
0001
1000
0000
,
0001
0100
0010
0000
0010
1000
0001
0000
,
0010
0010
0100
0100
,
1000
0010
0010
0100
,
2000
3100
0001
0010
,
0100
0100
1000
0001
0000
1000
0001
1000
,
0200
0310
0001
1000
,
0010
1001
0100
0021
,
2030
3010
0001
0100
,
0010
0010
1000
0000
0100
0000
0010
0000
,
0011
0000
2001
0000
3020
0000
0000
0030
,
0220
0000
0000
0000
,
0330
0000
0000
0000
;

//--------------- dance-single - chronon ----------------
#NOTEDATA:;
#STEPSTYPE:dance-single;
#DESCRIPTION:chronon;
#DIFFICULTY:Medium;
#METER:12;
#RADARVALUES:0,0,0,0,0;
#NOTES:
0000
0000
0000
0000
,
0000
0000
0000
0000
,
0000
0000
0000
0000
,
1001
0000
0001
0000
0010
0100
1000
0000
,
0001
0000
1000
0000
0010
0100
0001
0000
,
1000
0000
0001
0000
0010
0100
1000
0010
,
0001
0000
0010
0000
1000
0000
0001
0000
0010
0100
0000
0100
1000
0000
0010
0000
,
1010
0000
0000
0000
1000
0001
0000
0001
0010
0000
0100
0000
1001
0000
0000
0000
,
0101
0000
0000
0000
0001
1000
0000
1000
0010
0000
1000
0000
0100
0000
0100
0000
,
1000
0100
0010
0010
0001
0100
0010
0010
,
1000
1000
0001
0001
0020
0000
0230
0000
,
0302
0000
0000
0000
0103
0000
1000
0000
0010
0100
0000
0000
2000
0000
0000
0000
,
3100
0000
0001
0000
0010
0000
0100
0010
0000
0010
0001
0000
1000
0000
0010
0000
,
0002
0000
0000
0000
0000
0000
0023
0000
0000
0100
0000
0000
1030
0000
0010
0000
1000
0000
0001
0000
0000
0010
0000
0000
,
0011
0000
0000
0000
1001
0000
0000
0000
0101
0000
0000
0001
0000
0000
0100
0000
,
2000
0000
0000
0000
3100
0000
0001
0000
0010
0100
0000
0000
0002
0000
0000
0000
,
0103
0000
1000
0000
0010
0000
0100
0010
0000
0010
1000
0000
0200
0000
0300
0000
,
1100
0000
0000
0110
0000
0000
0010
0001
1000
0001
0000
0000
,
0200
0000
0000
0300
,
0010
0000
0000
0000
1000
0000
0000
0000
0100
0000
0000
0100
0000
0000
0100
0000
,
0000
0000
1000
0000
0001
0000
0000
0000
0100
0000
0000
0100
0000
0000
0100
0000
,
0010
0000
0000
0000
1000
0000
0000
0000
0100
0000
0000
0100
0000
0000
0100
0000
,
0010
0001
1000
0010
1000
0001
0100
0010
,
0100
0000
0000
0000
0001
0000
0000
0000
0010
0000
0000
0010
0000
0000
0010
0000
,
0000
0000
0001
0000
1000
0000
0000
0000
0010
0000
0000
0010
0000
0000
0010
0000
,
0100
0100
0001
0000
0010
0010
0001
0000
,
1000
0100
0010
0001
0200
0000
0000
0000
,
2300
0000
0000
0000
0100
0000
3100
0000
0001
0100
0000
0001
0020
0000
0000
0000
,
0130
0000
1000
0000
0010
0000
0100
0010
0100
0000
0001
1000
0001
0000
0010
0000
,
0200
1000
0000
0000
0320
0100
0000
0000
0031
0000
1000
0000
0001
0000
0000
0000
,
0100
0000
0001
0000
0100
0000
0000
0000
0010
0000
0000
0100
0000
0000
0010
0000
,
0002
0000
0000
0000
0010
0000
0013
0000
1000
0010
0000
1000
0200
0000
0000
0000
,
0310
0000
0001
0000
0100
0000
0010
0100
0010
0000
1000
0001
1000
0000
0100
0000
,
0020
0001
0000
0000
0230
0010
0000
0000
1300
0000
0001
0000
1000
0000
0000
0000
,
0010
0000
1000
0000
0010
0000
0000
0000
0001
0000
0000
0010
0000
0000
0100
0000
,
0002
0000
2003
0000
,
3200
0000
0000
0320
,
0032
0000
0203
0000
,
0302
0000
0000
0000
0000
0000
0000
0000
0013
0000
0000
0010
0000
0000
0010
0000
,
0001
1000
0010
0000
1000
0001
0010
0000
,
0001
1000
0100
0000
0001
0000
0100
0000
,
1000
0001
0010
0000
0001
1000
0010
0100
,
1000
0000
0100
0000
0010
0000
1000
0000
0010
0100
0000
0100
0001
0000
0010
0000
,
0011
0000
0000
0000
0001
1000
0000
1000
0010
0000
0100
0000
1001
0000
0000
0000
,
1100
0000
0000
0000
1000
0001
0000
0001
0010
0000
0001
0000
0100
0000
0100
0000
,
0001
0000
0100
0000
0010
0000
0010
0000
1000
0000
1000
0000
0001
1000
0001
0000
,
0020
0000
0230
0320
,
0031
0000
1000
0001
0000
1000
0001
0000
1000
0000
0010
0100
0000
0010
0100
0000
,
0001
0000
0010
0100
0000
0010
0100
0000
0001
0000
0100
0000
1000
0000
0000
0000
,
1000
0000
0001
1000
0000
0001
1000
0000
0001
0000
0100
0010
0000
0100
0010
0000
,
1000
0000
0100
0010
0000
0100
0010
0000
1000
0000
0010
0000
0001
0000
1000
0000
,
0001
0000
0100
0010
0000
0100
0001
0000
1000
0000
0100
0010
0000
0100
1000
0000
,
0001
0000
0100
0001
0000
0100
0010
0000
0001
0000
0010
0000
1000
0000
0000
0000
,
1000
0000
0000
0200
0000
0000
1300
0000
0000
0020
0000
0000
1030
0000
0000
0200
0000
0000
0310
0000
0001
0000
1000
0000
,
0010
0100
0010
0001
0010
1000
0200
0000
,
0301
0100
0010
0001
1000
0010
0100
0010
,
0001
0000
0010
0000
0100
0000
0001
0000
1000
0000
0100
0000
0010
0000
0000
0010
,
0001
1000
0010
0000
1000
0001
0200
0000
,
0310
0100
0001
0010
0100
1000
0020
0000
,
0031
0010
0100
0001
0010
0100
1000
0100
,
0001
0100
0010
0001
0100
0010
0001
0010
,
0100
0100
0010
0000
0010
0010
1000
0000
,
0001
0010
0100
1000
0001
0100
0010
0010
,
0002
0000
0000
0000
0013
0000
1000
0000
0100
0010
0000
0000
2000
0000
0000
0000
,
3010
0000
0001
0000
0100
0000
0010
0100
0000
0100
0001
0000
1000
0000
0100
0000
,
0001
0000
0000
0100
0000
0000
2000
0000
0000
0001
0000
0000
3010
0000
1000
0000
0010
0000
0100
0000
0000
0001
0000
0000
,
0101
0000
0000
0000
1001
0000
0000
0000
0011
0000
0000
0001
0000
0000
0010
0000
,
2000
0000
0000
0000
3010
0000
0001
0000
0100
0010
0000
0000
0002
0000
0000
0000
,
0013
0000
1000
0000
0100
0000
0010
0100
0000
0100
1000
0000
0020
0000
0030
0000
,
1010
0000
0000
0000
0000
0000
0110
0000
0000
0000
0000
0000
0100
0000
0001
0000
1000
0000
0000
0000
0000
0100
0000
0000
,
0020
0000
0000
0000
,
0030
0000
0000
0000
;

//--------------- dance-single - chronon ----------------
#NOTEDATA:;
#STEPSTYPE:dance-single;
#DESCRIPTION:chronon;
#DIFFICULTY:Hard;
#METER:16;
#RADARVALUES:0,0,0,0,0;
#NOTES:
0000
0000
0000
0000
,
0000
0000
0000
0000
,
0000
0000
0000
0000
,
1001
0000
1000
0000
0100
0010
0001
0000
,
1000
0000
0001
0000
0100
0010
1000
0000
,
0001
0000
1000
0000
0100
0010
0001
0200
,
0001
0000
0310
0000
1000
0000
1000
0100
0010
0100
0000
0010
0001
0000
0100
0000
,
0101
0000
0000
0000
0100
0010
0000
0010
1000
0000
0001
0000
1100
0000
0000
0000
,
1100
0000
0000
0000
0100
0010
0000
0010
0001
0000
1000
0000
0101
0000
0100
0010
,
1000
0000
0001
0000
1000
0000
0100
0010
0001
0000
1000
0000
0001
0000
0100
0010
,
0100
0010
1000
0001
1000
0100
0010
0001
0200
0000
0000
0000
0010
0000
0000
0000
,
2300
0000
0000
0000
3100
0010
1000
0200
0000
1000
0000
0010
0000
0302
0000
0000
,
0103
1000
0001
0100
1000
0000
0001
0010
0000
0010
1000
0200
1000
0000
0010
0000
,
0302
0000
0000
0000
0000
0000
0000
0000
0000
0000
0000
0000
0103
0000
0000
0010
0000
0000
0001
0000
0000
0100
0000
0000
0010
0000
0000
0000
1000
0000
0000
0000
2000
0000
0000
0000
0001
0000
0000
0000
0000
0000
3100
0000
0000
0000
0000
0000
,
1100
0000
0000
0000
1010
0000
0000
0000
1100
0000
0000
0110
0000
0000
0120
0000
,
2030
0000
0000
0000
3010
0100
1000
0020
0000
1000
0000
0100
0000
0032
0000
0000
,
0013
1000
0001
0010
1000
0000
0001
0100
0000
0100
1000
0010
0002
0000
0013
0100
,
1000
0000
0000
0100
0000
0000
0001
0000
0000
0100
0000
0000
0010
0000
0010
0000
1000
0000
0001
0000
0000
0010
0000
0000
,
0220
0000
0000
0330
,
0100
0000
1000
0000
0001
0000
1000
0000
0010
0000
0000
0010
0100
0000
0001
0000
,
0000
0000
0001
0000
1000
0000
0100
0000
0010
0000
0000
0010
0001
0000
1000
0000
,
0010
0000
1000
0000
0001
0000
1000
0000
0100
0000
0000
0100
0010
0100
1000
0001
,
1000
0010
0100
0001
1000
0100
0010
0100
0001
0100
0010
0100
1000
0001
0100
0001
,
0010
0000
0001
0000
1000
0000
0001
0000
0100
0000
0000
0100
0010
0000
1000
0000
,
0000
0000
1000
0000
0001
0000
0010
0000
0100
0000
0000
0100
1000
0000
0001
0000
,
0100
0100
0010
0010
1000
1000
0001
0001
,
1000
0100
0010
0001
0010
0100
1000
0001
0200
0000
0000
0000
0000
0000
0300
0000
,
0102
0000
0000
0000
0010
0000
0013
0100
1000
0010
0000
0100
2000
0000
0000
0000
,
3100
0001
1000
0001
0010
0000
0100
1000
0010
0000
0100
0010
1000
0000
1000
0001
,
2000
0100
0000
0000
3002
0100
0000
0000
0013
0000
0100
1000
0001
1000
0010
0000
,
0100
0001
1000
0000
0010
1000
0001
1000
0100
0000
0010
0100
0000
0010
0001
0000
,
0012
0000
0000
0000
0100
0000
0103
0010
1000
0100
0000
0010
2000
0000
0000
0000
,
3010
0001
1000
0001
0100
0000
0010
1000
0100
0000
0010
0100
1000
0000
1000
0001
,
2000
0010
0000
0000
3002
0010
0000
0000
0103
0000
0010
1000
0001
1000
0100
0000
,
0010
0100
1000
0000
0001
0100
0010
0000
0100
0010
0100
1000
0000
0100
0010
0000
,
2000
0000
0000
0000
0000
0000
0000
0000
0001
0000
0000
3020
0000
0000
0000
0000
,
0230
0000
0000
0302
,
0023
0000
0000
0000
0000
0000
0000
0000
0001
0000
0000
0230
0000
0000
0000
0000
,
1000
0000
0000
0320
0000
0000
0000
0000
0130
0000
1000
0001
0000
1000
0010
0000
,
1000
0010
0100
0000
0001
1000
0000
1000
0001
0010
0100
0000
1000
0001
0000
0001
,
1000
0010
0100
0000
0010
1000
0000
0100
0000
0100
0010
0000
0001
1000
0000
1000
,
0010
1000
0001
0000
0010
0100
0000
0100
1000
0001
0100
0000
0001
0000
0200
0000
,
0001
0000
0310
0000
1000
0000
0001
0010
0100
0010
0000
0100
1000
0000
0010
0000
,
1010
0000
0000
0000
0010
0100
0000
0100
0001
0000
1000
0000
0011
0000
0000
0000
,
0011
0000
0000
0000
0010
0100
0000
0100
1000
0000
0001
0000
1010
0000
0010
0100
,
0001
0000
1000
0000
0001
0000
0010
0100
1000
0000
1000
0000
0001
0100
0010
1000
,
0200
0000
0310
1001
,
1000
0010
0100
0010
0000
0010
1000
0001
0000
0001
0010
0100
0000
0100
1000
0000
,
0001
0100
0010
0100
0000
0100
0001
0010
0000
0010
0100
1000
0000
1000
0001
0000
,
1000
0100
0010
0100
0000
0100
1000
0001
0000
0001
0100
0010
0000
0010
1000
0000
,
0001
0010
0100
0010
0000
0010
0001
0100
0000
0100
0010
1000
0000
1000
0100
0010
,
0001
0100
0010
0100
0000
0100
0001
0010
0000
0010
0001
1000
0000
1000
0100
0010
,
0100
1000
0001
0100
0000
0100
0010
0001
0000
0001
0010
0100
0000
0100
0001
1000
,
0001
0000
0000
0000
0000
0000
0010
0000
0000
0100
0000
0000
1000
0000
0000
0000
0000
0000
0010
0000
0000
0100
0000
0000
0001
0000
0000
0000
0000
0000
0010
0000
0000
0100
0000
0000
1000
0000
0000
0000
1000
0000
0000
0000
0001
0000
0000
0000
,
0100
0010
0100
0000
0010
1000
0200
0000
0310
0000
0001
1000
0010
0100
0001
0100
,
1000
0000
0100
0010
1000
0000
0001
0010
0100
0000
0010
0001
1000
0000
0100
0010
,
1000
0000
0010
0100
1000
0000
0001
0100
0010
0000
0100
0010
0001
0000
0001
0010
,
0100
0000
0001
0010
0100
0000
0010
0100
1000
0000
1000
0100
0010
0001
1000
0001
,
0100
0010
1000
0001
0010
0100
1000
0001
1000
0010
0100
0001
1000
0010
0100
0010
,
0001
0000
0010
0100
0001
0000
1000
0100
0010
0000
0100
1000
0010
0000
0010
0100
,
1000
0000
0001
0010
0100
0000
0010
0100
0001
0000
0010
0100
0001
0000
1000
0010
,
0100
0000
0100
0000
1000
0000
1000
0000
0001
0000
0001
0000
0100
0000
0010
0100
,
0001
1000
0001
0010
0100
1000
0001
0100
0010
1000
0001
0010
0200
0000
0010
0000
,
0302
0000
0000
0000
0103
0010
0001
0100
0020
1000
0000
0130
0010
0002
0000
0000
,
0013
1000
0001
0010
1000
0000
0001
0100
0000
0010
0001
0200
0001
0000
0010
0000
,
1300
0000
0000
0100
0000
0000
0001
0000
0000
0010
0000
0000
0100
0000
0000
0000
0000
0000
1000
0000
0000
0100
0000
0000
0010
0000
0000
0000
0001
0000
0000
0000
0002
0000
0000
0000
1000
0000
0000
0000
0000
0000
0103
0000
0000
0000
0000
0000
,
0101
0000
0001
0000
1100
0000
1000
0000
0101
0000
0000
0110
0000
0000
0120
0000
,
0032
0000
0000
0000
0013
0100
0001
0010
0200
1000
0000
0310
0100
0002
0000
0000
,
0103
1000
0001
0100
1000
0000
0001
0010
0000
0100
0001
0010
2000
0000
3010
0100
,
0001
0000
0000
0100
0000
0000
1000
0000
0000
0100
0000
0000
0010
0000
0010
0000
0001
0000
0000
0000
0000
1000
0000
0000
,
2002
0000
0000
0000
,
3003
0000
0000
0000
;

//--------------- dance-double - chronon ----------------
#NOTEDATA:;
#STEPSTYPE:dance-double;
#DESCRIPTION:chronon;
#DIFFICULTY:Easy;
#METER:8;
#RADARVALUES:0,0,0,0,0;
#NOTES:
00000000
00000000
00000000
00000000
,
00000000
00000000
00000000
00000000
,
00000000
00000000
00000000
00000000
,
10000000
01000000
00100000
00000000
,
00001000
00010000
00000100
00000000
,
00001000
00000000
00000001
00000000
00000010
00000000
00000100
00001000
,
00000001
00000100
00001000
00010000
,
00011000
01010000
10020000
00130000
,
00011000
00001100
00002001
00003010
,
00000100
00000010
00000100
00000000
00000001
00001000
00000001
00000000
,
00000010
00000100
00001000
00000000
00000020
00000000
00000230
00000000
,
00002300
00003100
00000010
00010000
,
00001000
00010000
00001000
00000000
00100000
00000000
01000000
00000000
,
00020000
01030000
10000000
10000000
,
00100000
10020000
01030000
10200000
,
00320000
00130000
01000000
00001000
,
00010000
00001000
00010000
00000000
00000100
00000000
00000010
00000000
,
00000011
00002001
00003010
00000100
,
00001001
00000000
00000000
00000000
,
00000001
00000100
00000010
00010000
,
00001000
01000000
00010000
10000000
,
10000000
01000000
00100000
00001000
,
00010000
00100000
01000000
00100000
,
00001000
00010000
00000100
00001000
,
00000001
00000010
00000100
00010000
,
00001000
00010000
00001000
00000000
00100000
01000000
00100000
00000000
,
00010000
10000000
00010000
10000000
00200000
00000000
00000000
00000000
,
00320000
00000000
00130000
00100000
01000000
00000000
00001000
00000000
,
00100000
00100000
00010000
00000000
00001000
00000000
00000100
00000000
,
00000010
00000001
00001000
00001000
,
00000001
00000100
00000010
00000100
,
00002000
00000000
00003100
00000100
00000010
00000000
00010000
00000000
,
00000100
00000100
00001000
00000000
00010000
00000000
00100000
00000000
,
01000000
10000000
00010000
00010000
,
10000000
00100000
00010000
00100000
,
20000000
00000000
32000000
00000000
,
03200000
00000000
00000000
00000000
,
00302000
00000000
00023000
00000000
,
00030020
00000000
00002030
00000000
,
00003001
00000000
00000010
00000000
00000100
00000010
00000100
00000000
,
00001000
00000000
00000001
00000000
00001000
00000001
00001000
00000000
,
00000100
00000000
00010000
00000000
00001000
00000000
01000000
00010000
,
10000000
00010000
00100000
00001000
,
00011000
00001010
00002001
00003100
,
00011000
00110000
10020000
01030000
,
00100000
01000000
00100000
00000000
10000000
00010000
10000000
00010000
,
20000000
00000000
32000000
03200000
,
00310000
00000000
01000000
00000000
00100000
01000000
00100000
00000000
,
10000000
00010000
00100000
00000000
00001000
00000000
00010000
00000000
,
00001000
00000000
00000010
00000000
00000100
00000010
00000100
00000000
,
00001000
00000001
00000100
00000000
00000010
00000000
00010000
00000000
,
00001000
00100000
00001000
00000000
00010000
00000010
00010000
00000000
,
00001000
01000000
00001000
00000000
00010000
00000100
00010000
00000000
,
00001000
01000000
00100000
10000000
,
01000000
00100000
10000000
00100000
,
00010000
00100000
01000000
00000000
01000000
10000000
00010000
00000000
,
01000000
00001000
00010000
00000000
00001000
00010000
00000100
00000000
,
00000010
00000001
00001000
00000000
00000010
00000100
00000010
00000000
,
00000100
00001000
00010000
01000000
,
10000000
00100000
01000000
00000000
01000000
00001000
00010000
00000000
,
00001000
00100000
00010000
00000000
00001000
00000100
00000010
00000000
,
00000001
00000001
00000100
00000100
,
00001000
00010000
00100000
01000000
,
20000000
31000000
00100000
00010000
,
00001000
00010000
00000010
00000100
00000000
00000100
00000010
00000000
,
00001000
00000001
00000100
00000000
00000001
00000000
00000001
00000000
,
00000010
00002001
00003100
00000021
,
00002030
00003010
00000100
00010000
,
00001000
00010000
00001000
00000000
01000000
00000000
00100000
00000000
,
10100000
10020000
00130000
01000000
,
02200000
00000000
00000000
00000000
,
03300000
00000000
00000000
00000000
;

//--------------- dance-double - chronon ----------------
#NOTEDATA:;
#STEPSTYPE:dance-double;
#DESCRIPTION:chronon;
#DIFFICULTY:Medium;
#METER:12;
#RADARVALUES:0,0,0,0,0;
#NOTES:
00000000
00000000
00000000
00000000
,
00000000
00000000
00000000
00000000
,
00000000
00000000
00000000
00000000
,
00001001
00000000
00000001
00000000
00000010
00000100
00001000
00000000
,
00010000
00100000
01000000
00000000
,
10000000
00000000
10000000
00000000
00100000
01000000
00010000
00000000
,
00000100
00000000
00000010
00000000
00001000
00000000
00000000
00000000
00000100
00010000
00000000
00010000
00001000
00000000
00010000
00000000
,
00011000
00000000
00000000
00000000
00001000
01000000
00000000
01000000
00001000
00000000
00010000
00000000
00011000
00000000
00000000
00000000
,
00011000
00000000
00000000
00000000
00010000
00000010
00000000
00000010
00001000
00000000
00000100
00000000
00000010
00000000
00000100
00000000
,
00001000
00010000
00100000
00000000
00100000
00010000
00001000
00000000
,
00000100
00000100
00010000
00010000
00000020
00000000
00000230
00000000
,
00002300
00000000
00000000
00000000
00013000
00000000
01000000
00000000
10000000
00100000
00000000
00000000
00020000
00000000
00000000
00000000
,
00130000
00000000
00010000
00000000
00001000
00000000
00000010
00000100
00000000
00000100
00001000
00000000
00000001
00000000
00000010
00000000
,
00002000
00000000
00000000
00000000
00000000
00000000
00023000
00000000
00000000
00000100
00000000
00000000
00031000
00000000
00010000
00000000
00001000
00000000
00010000
00000000
00000000
00001000
00000000
00000000
,
00011000
00000000
00000000
00000000
01001000
00000000
00000000
00000000
10010000
00000000
00000000
10000000
00000000
00000000
01000000
00000000
,
00020000
00000000
00000000
00000000
00031000
00000000
00000010
00000000
00000001
00000100
00000000
00000000
00002000
00000000
00000000
00000000
,
00003100
00000000
00001000
00000000
00010000
00000000
01000000
00100000
00000000
00100000
00010000
00000000
02000000
00000000
03000000
00000000
,
01010000
00000000
00000000
00011000
00000000
00000000
00010000
00001000
00010000
00001000
00000000
00000000
,
00020000
00000000
00000000
00030000
,
00000010
00000000
00000000
00000000
00001000
00000000
00000000
00000000
00000100
00000000
00000000
00000100
00000000
00000000
00000100
00000000
,
00000000
00000000
00001000
00000000
00010000
00000000
00000000
00000000
01000000
00000000
00000000
01000000
00000000
00000000
01000000
00000000
,
00100000
00000000
00000000
00000000
10000000
00000000
00000000
00000000
01000000
00000000
00000000
01000000
00000000
00000000
01000000
00000000
,
00100000
00010000
00001000
00000100
00000010
00000001
00001000
00000010
,
00000100
00000000
00000000
00000000
00000001
00000000
00000000
00000000
00000010
00000000
00000000
00000010
00000000
00000000
00000010
00000000
,
00000000
00000000
00001000
00000000
00010000
00000000
00000000
00000000
00100000
00000000
00000000
00100000
00000000
00000000
00100000
00000000
,
10000000
10000000
00100000
00000000
00100000
00100000
01000000
00000000
,
00010000
00001000
00000010
00001000
00000200
00000000
00000000
00000000
,
00000302
00000000
00000000
00000000
00000100
00000000
00000103
00000000
00001000
00000100
00000000
00010000
00002000
00000000
00000000
00000000
,
01003000
00000000
00100000
00000000
10000000
00000000
00010000
10000000
00010000
00000000
01000000
00100000
01000000
00000000
00000000
00000000
,
00200000
10000000
00000000
00000000
02300000
00100000
00000000
00000000
03010000
00000000
01000000
00000000
00001000
00000000
00000000
00000000
,
00010000
00000000
00000100
00000000
00001000
00000000
00000000
00000000
00000001
00000000
00000000
00000010
00000000
00000000
00000010
00000000
,
00002000
00000000
00000000
00000000
00000010
00000000
00003010
00000000
00000001
00000010
00000000
00000100
00002000
00000000
00000000
00000000
,
00013000
00000000
00100000
00000000
01000000
00000000
10000000
00010000
10000000
00000000
00100000
01000000
00100000
00000000
00000000
00000000
,
02000000
00010000
00000000
00000000
03200000
01000000
00000000
00000000
10300000
00000000
00010000
00000000
00100000
00000000
00000000
00000000
,
00001000
00000000
00010000
00000000
00000100
00000000
00000000
00000000
00001000
00000000
00000000
00000010
00000000
00000000
00000010
00000000
,
00002000
00000000
00003200
00000000
,
00020300
00000000
00000000
00032000
,
02003000
00000000
03200000
00000000
,
20300000
00000000
00000000
00000000
00000000
00000000
00000000
00000000
31000000
00000000
00000000
01000000
00000000
00000000
01000000
00000000
,
10000000
01000000
00100000
00000000
00010000
00001000
00000100
00000000
,
00000010
00000001
00001000
00000000
00000001
00000000
00000100
00000000
,
00000001
00000100
00000010
00000000
00001000
00010000
01000000
00001000
,
00010000
00000000
00000100
00000000
00000010
00000000
00000001
00000000
00000010
00000100
00000000
00000100
00010000
00000000
00001000
00000000
,
00011000
00000000
00000000
00000000
00010000
00000010
00000000
00000010
00010000
00000000
00001000
00000000
00011000
00000000
00000000
00000000
,
00011000
00000000
00000000
00000000
00001000
00100000
00000000
00100000
00001000
00000000
00010000
00000000
01000000
00000000
00100000
00000000
,
00010000
00000000
10000000
00000000
00100000
00000000
01000000
00000000
00001000
00000000
00001000
00000000
00010000
00001000
00010000
00000000
,
00000200
00000000
00000320
00000032
,
00001003
00000000
00000001
00001000
00000000
00000001
00001000
00000000
00000010
00000000
00001000
00000100
00000000
00001000
00000100
00000000
,
00010000
00000000
00001000
00010000
00000000
00001000
00010000
00000000
00001000
00000000
01000000
00000000
00100000
00000000
01000000
00000000
,
00010000
00000000
10000000
00010000
00000000
10000000
00010000
00000000
00100000
00000000
00010000
01000000
00000000
00010000
01000000
00000000
,
00001000
00000000
00010000
00001000
00000000
00010000
00001000
00000000
00010000
00000000
00000100
00000000
00000010
00000000
00000100
00000000
,
00001000
00000000
00000100
00000010
00000000
00000100
00001000
00000000
00010000
00000000
00100000
01000000
00000000
10000000
00010000
00000000
,
01000000
00000000
00010000
00100000
00000000
00001000
00010000
00000000
00000010
00000000
00000100
00000000
00000001
00000000
00001000
00000000
,
00000001
00000000
00000000
00000020
00000000
00000000
00000031
00000000
00000000
00000200
00000000
00000000
00000301
00000000
00000000
00000020
00000000
00000000
00000031
00000000
00001000
00000000
00000001
00000000
,
00001000
00000010
00000100
00001000
00010000
00001000
00200000
00000000
,
01300000
10000000
00010000
00100000
00010000
01000000
00001000
00010000
,
00000100
00000000
00001000
00000000
00000001
00000000
00000010
00000000
00000100
00000000
00001000
00000000
00000100
00000000
00000000
00000010
,
00000001
00001000
00000010
00000000
00001000
00000001
00000200
00000000
,
00000310
00000100
00001000
00010000
00100000
01000000
00020000
00000000
,
10030000
01000000
00100000
00010000
00001000
00000100
00000010
00000001
,
00000001
00000100
00000010
00001000
00010000
01000000
00100000
10000000
,
00010000
00100000
00001000
00000000
00010000
00000010
00001000
00000000
,
00000001
00000010
00000100
00001000
00000001
00000100
00000010
00000010
,
00000002
00000000
00000000
00000000
00000013
00000000
00001000
00000000
00000100
00001000
00000000
00000000
00020000
00000000
00000000
00000000
,
00130000
00000000
00010000
00000000
01000000
00000000
00100000
01000000
00000000
01000000
00010000
00000000
10000000
00000000
01000000
00000000
,
00010000
00000000
00000000
01000000
00000000
00000000
20000000
00000000
00000000
00010000
00000000
00000000
30100000
00000000
01000000
00000000
00100000
00000000
01000000
00000000
00000000
00010000
00000000
00000000
,
01010000
00000000
00000000
00000000
00011000
00000000
00000000
00000000
00001100
00000000
00000000
00000100
00000000
00000000
00000010
00000000
,
00002000
00000000
00000000
00000000
00003010
00000000
00000001
00000000
00000100
00000010
00000000
00000000
00000002
00000000
00000000
00000000
,
00000013
00000000
00001000
00000000
00000100
00000000
00001000
00010000
00000000
00100000
00010000
00000000
02000000
00000000
03000000
00000000
,
01010000
00000000
00000000
00000000
00000000
00000000
00011000
00000000
00000000
00000000
00000000
00000000
00010000
00000000
00001000
00000000
00010000
00000000
00000000
00000000
00000000
00001000
00000000
00000000
,
00020000
00000000
00000000
00000000
,
00030000
00000000
00000000
00000000
;

//--------------- dance-double - chronon ----------------
#NOTEDATA:;
#STEPSTYPE:dance-double;
#DESCRIPTION:chronon;
#DIFFICULTY:Hard;
#METER:16;
#RADARVALUES:0,0,0,0,0;
#NOTES:
00000000
00000000
00000000
00000000
,
00000000
00000000
00000000
00000000
,
00000000
00000000
00000000
00000000
,
10010000
00000000
10000000
00000000
01000000
00100000
00010000
00000000
,
00001000
00000000
00000100
00000000
00000010
00000001
00001000
00000000
,
00000001
00000000
00000001
00000000
00000100
00000010
00001000
00000200
,
00010000
00000000
00001300
00000000
00000100
00000000
00000010
00000001
00000010
00000100
00000000
00001000
00000100
00000000
00010000
00000000
,
00011000
00000000
00000000
00000000
00001000
01000000
00000000
01000000
00010000
00000000
10000000
00000000
01010000
00000000
00000000
00000000
,
00011000
00000000
00000000
00000000
00010000
00000100
00000000
00000100
00000010
00000000
00000001
00000000
00000100
00000000
00000010
00000000
,
00001000
00000000
00000001
00000000
00001000
00000000
00000100
00010000
00001000
00000000
00010000
00000000
00001000
00000000
01000000
00001000
,
00010000
01000000
00100000
00010000
10000000
00010000
00100000
00010000
02000000
00000000
00000000
00000000
00100000
00000000
00000000
00000000
,
23000000
00000000
00000000
00000000
31000000
00100000
10000000
02000000
00000000
10000000
00000000
00100000
00000000
03020000
00000000
00000000
,
01030000
00100000
00010000
00100000
10000000
00000000
00100000
00001000
00000000
00001000
00010000
00000100
00001000
00000000
00000010
00000000
,
00000002
00000000
00000000
00000000
00000000
00000000
00000000
00000000
00000000
00000000
00000000
00000000
00000013
00000000
00000000
00000100
00000000
00000000
00000001
00000000
00000000
00000010
00000000
00000000
00000100
00000000
00000000
00000000
00001000
00000000
00000000
00000000
00002000
00000000
00000000
00000000
00000001
00000000
00000000
00000000
00000000
00000000
00003100
00000000
00000000
00000000
00000000
00000000
,
00001100
00000000
00000000
00000000
00011000
00000000
00000000
00000000
01010000
00000000
00000000
01100000
00000000
00000000
01200000
00000000
,
00320000
00000000
00000000
00000000
00130000
01000000
00010000
00200000
00000000
00010000
00000000
01000000
00000000
20300000
00000000
00000000
,
30100000
01000000
10000000
01000000
00010000
00000000
00001000
00010000
00000000
00010000
00000010
00000100
00001000
00000000
00000100
00000010
,
00000001
00000000
00000000
00000010
00000000
00000000
00001000
00000000
00000000
00000010
00000000
00000000
00000100
00000000
00000100
00000000
00000001
00000000
00001000
00000000
00000000
00000100
00000000
00000000
,
00000220
00000000
00000000
00000330
,
00000010
00000000
00000001
00000000
00001000
00000000
00000100
00000000
00010000
00000000
00000000
00010000
01000000
00000000
10000000
00000000
,
00000000
00000000
10000000
00000000
00010000
00000000
01000000
00000000
00001000
00000000
00000000
00001000
00000100
00000000
00000001
00000000
,
00000100
00000000
00000001
00000000
00001000
00000000
00000010
00000000
00010000
00000000
00000000
00010000
00100000
01000000
00100000
00000000
,
10000000
01000000
00100000
00000000
00010000
00100000
01000000
00000000
00010000
01000000
00100000
00000000
01000000
00000000
10000000
00000000
,
00100000
00000000
10000000
00000000
00010000
00000000
01000000
00000000
00001000
00000000
00000000
00001000
00000100
00000000
00000001
00000000
,
00000000
00000000
00000001
00000000
00001000
00000000
00000100
00000000
00010000
00000000
00000000
00010000
01000000
00000000
10000000
00000000
,
00010000
00010000
01000000
01000000
00001000
00001000
00010000
00010000
,
00000100
00000010
00000001
00001000
00000001
00000100
00000001
00001000
00000200
00000000
00000000
00000000
00000000
00000000
00000300
00000000
,
00002100
00000000
00000000
00000000
00000010
00000000
00003010
00000100
00000001
00000010
00000000
00000100
00000002
00000000
00000000
00000000
,
00000103
00001000
00000100
00010000
00001000
00000000
00010000
01000000
10000000
00000000
00100000
01000000
00010000
00000000
00010000
10000000
,
00020000
01000000
00000000
00000000
20030000
01000000
00000000
00000000
30100000
00000000
01000000
00000000
00001000
00000000
00010000
00000000
,
00001000
00000000
00000010
00000000
00000001
00000000
00001000
00000000
00000010
00000000
00000000
00000010
00000000
00000000
00000100
00000000
,
00000102
00000000
00000000
00000000
00000010
00000000
00000013
00000100
00001000
00000010
00000000
00000100
00002000
00000000
00000000
00000000
,
00003100
00000010
00001000
00000100
00010000
00000000
00010000
01000000
10000000
00000000
00100000
01000000
00010000
00000000
10000000
00010000
,
20000000
00100000
00000000
00000000
30020000
00100000
00000000
00000000
01030000
00000000
00001000
00000000
00010000
00000000
00000100
00000000
,
00000010
00000000
00000001
00000000
00000100
00000000
00000010
00000000
00000001
00000000
00000000
00000010
00000000
00000000
00000100
00000000
,
00000200
00000000
00002300
00000000
,
00023000
00000000
00000000
00230000
,
20300000
00000000
32000000
00000000
,
03020000
00000000
00000000
00000000
00000000
00000000
00000000
00000000
00031000
00000000
00001000
00010000
00000000
00010000
01000000
00000000
,
10000000
01000000
00100000
00000000
00010000
10000000
00000000
10000000
00010000
01000000
00100000
00000000
10000000
00010000
00000000
00010000
,
10000000
01000000
00100000
00000000
01000000
10000000
00000000
00100000
00000000
01000000
00010000
00000000
00001000
00000000
00000000
00000000
,
00000001
00000010
00000100
00000000
00001000
00000001
00000000
00000001
00001000
00000010
00000100
00000000
00000100
00000000
00000020
00000000
,
00010000
00000000
00001030
00000000
00000010
00000000
00001000
00000010
00000100
00000010
00000000
00001000
00000100
00000000
00010000
00000000
,
00011000
00000000
00000000
00000000
00001000
00100000
00000000
00100000
00010000
00000000
10000000
00000000
00110000
00000000
00000000
00000000
,
00011000
00000000
00000000
00000000
00010000
00000010
00000000
00000010
00000100
00000000
00000001
00000000
00000010
00000000
00000100
00000000
,
00001000
00000000
00000001
00000000
00001000
00000000
00000010
00010000
00001000
00000000
00010000
00000000
00001000
00010000
00001000
00010000
,
00002000
00000000
00023000
02030000
,
13000000
01000000
00100000
00010000
00000000
00100000
00010000
00001000
00000000
00000100
00000010
00000001
00000000
00001000
00000001
00000000
,
00001000
00000010
00000100
00000001
00000000
00000100
00000010
00000001
00000000
00000010
00000100
00000001
00000000
00000001
00001000
00000000
,
00000001
00000010
00000100
00001000
00000000
00000100
00001000
00010000
00000000
00100000
01000000
10000000
00000000
00010000
10000000
00000000
,
00010000
01000000
00100000
10000000
00000000
00100000
01000000
10000000
00000000
01000000
00100000
10000000
00000000
10000000
00010000
00000000
,
10000000
00100000
01000000
00010000
00000000
00010000
01000000
00001000
00000000
00001000
00000100
00000001
00000000
00000001
00001000
00000000
,
00000001
00000010
00000100
00001000
00000000
00001000
00000010
00000001
00000000
00000001
00000010
00001000
00000000
00000001
00001000
00000000
,
00000001
00000000
00000000
00000000
00000000
00000000
00000010
00000000
00000000
00000100
00000000
00000000
00001000
00000000
00000000
00000000
00000000
00000000
00010000
00000000
00000000
00001000
00000000
00000000
01000000
00000000
00000000
00000000
00000000
00000000
00100000
00000000
00000000
10000000
00000000
00000000
00010000
00000000
00000000
00000000
00010000
00000000
00000000
00000000
10000000
00000000
00000000
00000000
,
00100000
01000000
00100000
00000000
01000000
00010000
00200000
00000000
01300000
00000000
10000000
00100000
02000000
00000000
00000000
00000000
,
13000000
00000000
01000000
00100000
10000000
00000000
01000000
00100000
00010000
00000000
00001000
00000100
00000010
00000000
00000001
00000100
,
00001000
00000000
00000100
00000010
00001000
00000000
00000100
00000010
00000001
00000000
00000010
00000100
00001000
00000000
00010000
00100000
,
01000000
00000000
10000000
00010000
01000000
00000000
00010000
10000000
01000000
00000000
10000000
00010000
01000000
00000000
00010000
00100000
,
01000000
00000000
10000000
00100000
01000000
00000000
00010000
00100000
01000000
00000000
00100000
00010000
00001000
00000000
00000100
00000010
,
00001000
00000000
00000010
00000001
00001000
00000000
00000010
00000100
00000001
00000000
00000100
00000010
00001000
00000000
00000100
00000010
,
00001000
00000000
00010000
01000000
10000000
00000000
00100000
01000000
00010000
00000000
01000000
00100000
00010000
00000000
00001000
00000100
,
00000001
00000001
00001000
00001000
00000100
00000100
00010000
00010000
,
00001000
00010000
00001000
01000000
00010000
01000000
00100000
10000000
00010000
10000000
01000000
00100000
02000000
00000000
00100000
00000000
,
03020000
00000000
00000000
00000000
01030000
00100000
00010000
01000000
00200000
10000000
00000000
01300000
00100000
00020000
00000000
00000000
,
00130000
00010000
00001000
00010000
00000100
00000000
00000010
00000001
00000000
00000001
00000100
00000000
00000010
00000000
00000100
00000000
,
00001000
00000000
00000000
00000100
00000000
00000000
00000001
00000000
00000000
00000010
00000000
00000000
00000100
00000000
00000000
00000000
00000000
00000000
00010000
00000000
00000000
00001000
00000000
00000000
00100000
00000000
00000000
00000000
00010000
00000000
00000000
00000000
00020000
00000000
00000000
00000000
10000000
00000000
00000000
00000000
00000000
00000000
01030000
00000000
00000000
00000000
00000000
00000000
,
01010000
00000000
01000000
00000000
00011000
00000000
00010000
00000000
00001100
00000000
00000000
00000110
00000000
00000000
00000120
00000000
,
00002030
00000000
00000000
00000000
00003010
00000100
00001000
00000010
00000200
00000001
00000000
00000310
00000100
00002000
00000000
00000000
,
00003100
00001000
00010000
00001000
00100000
00000000
01000000
10000000
00000000
10000000
00100000
01000000
10000000
00000000
01000000
00100000
,
00010000
00000000
00000000
00100000
00000000
00000000
10000000
00000000
00000000
00100000
00000000
00000000
01000000
00000000
01000000
00000000
00001000
00000000
00000000
00000000
00000000
00010000
00000000
00000000
,
00022000
00000000
00000000
00000000
,
00033000
00000000
00000000
00000000
;
