#VERSION:0.83;
#TITLE:Girls & Boys;
#SUBTITLE:;
#ARTIST:Blur;
#TITLETRANSLIT:;
#SUBTITLETRANSLIT:;
#ARTISTTRANSLIT:;
#GENRE:;
#CREDIT:;
#MUSIC:Girls & Boys.ogg;
#BANNER:Girls & Boys.png;
#BACKGROUND:Girls & Boys-bg.png;
#CDTITLE:;
#SAMPLESTART:63.984;
#SAMPLELENGTH:15.006;
#SELECTABLE:YES;
#OFFSET:1.997;
#BPMS:0.000=120.035;
#STOPS:;
#DISPLAYBPM:120.000;
#BGCHANGES:3.900=Girls & Boys.avi=1.000=1=0=0=StretchNoLoop==CrossFade==,
99999.000=-nosongbg-=0.000=0=0=0=StretchNoLoop====
;
#FGCHANGES:;

//--------------- dance-single - chrononical ----------------
#NOTEDATA:;
#STEPSTYPE:dance-single;
#DESCRIPTION:chrononical;
#DIFFICULTY:Beginner;
#METER:2;
#RADARVALUES:0,0,0,0,0;
#NOTES:
0000
0000
0000
0000
,
0000
0000
0000
0000
,
0000
0000
0000
0000
,
0000
0000
0000
0000
,
0000
0000
0000
0000
,
0000
0000
0000
0000
,
0000
0000
0000
0000
,
0000
0000
0000
0000
,
0000
0000
0000
0000
,
0001
0000
0010
0000
,
0100
0000
1000
1000
,
1000
0000
0010
0000
,
0100
0000
0001
0001
,
0001
0000
1000
0000
,
0001
0000
1000
0000
,
0001
0010
0000
0010
,
0000
0010
0100
1000
,
0001
0000
0100
0000
,
0010
0000
1000
1000
,
0001
0000
0010
0000
,
0100
0000
0010
0010
,
0001
0000
0100
0000
,
0010
0000
0100
0100
,
0001
0010
0000
0010
,
0000
0010
0001
0100
,
0001
0100
0000
0100
,
0000
0100
0000
0100
,
0001
0010
0000
0010
,
0000
0010
0000
0010
,
0002
0000
0000
0003
,
2000
0000
0000
3000
,
0100
0010
0000
0010
,
0000
0010
0001
1000
,
0001
0000
0000
1000
0000
0000
0000
1000
,
0000
0000
0000
0001
0000
0000
0000
1000
,
0000
0000
0000
0001
0000
0000
0000
0001
,
0000
0000
0000
1000
0000
0000
0000
0000
,
0002
0000
0000
0003
,
2000
0000
0000
3000
,
0100
0010
0000
0010
,
0000
0010
0001
1000
,
0001
0001
0001
0000
,
1000
0000
0100
0000
,
1000
1000
1000
0000
,
0001
0000
0100
0000
,
0002
0000
0000
0003
,
2000
0000
0000
3000
,
0100
0010
0000
0010
,
0000
0010
0001
1000
,
0001
0000
0000
1000
0000
0000
0000
1000
,
0000
0000
0000
0001
0000
0000
0000
1000
,
0000
0000
0000
0001
0000
0000
0000
0001
,
0000
0000
0000
1000
0000
0000
0000
0000
,
0002
0000
0000
0003
,
2000
0000
0000
3000
,
0100
0010
0000
0010
,
0000
0010
0001
0000
,
1001
0000
0000
0000
;

//--------------- dance-single - chrononical ----------------
#NOTEDATA:;
#STEPSTYPE:dance-single;
#DESCRIPTION:chrononical;
#DIFFICULTY:Easy;
#METER:6;
#RADARVALUES:0,0,0,0,0;
#NOTES:
0000
0000
0000
0000
,
0000
0000
0000
0000
,
0000
0000
0000
0000
,
0001
0010
0100
1000
,
0001
0100
0010
1000
,
0001
0100
0010
0100
,
0001
0010
0100
0010
,
0100
1000
0001
1000
,
0010
1000
0001
1000
,
0100
0010
0000
0010
0001
0010
0000
0010
,
0001
0010
0000
0010
0001
0000
0200
0000
,
0310
0100
0000
0100
0001
0100
0000
0100
,
0001
0010
0100
1000
,
0001
1000
0001
0000
0100
0010
0100
0000
,
0001
1000
0001
0000
0010
0100
0010
0000
,
0001
0110
1000
0110
,
0001
0110
1001
1001
,
0001
0200
1000
0010
,
0301
1000
0001
0010
,
0001
0020
1000
0100
,
0031
1000
0010
0100
,
0010
0200
1000
0010
,
0310
1000
0001
1000
,
0001
0110
1000
0110
,
0001
0110
1001
1001
,
1000
0010
0100
0000
0010
0000
1000
0000
,
0001
0010
0100
0000
0010
0000
0001
0000
,
1000
0100
0010
0000
0100
0000
1000
0000
,
0001
0100
0010
0000
0100
0000
0001
0000
,
1000
0100
0010
0001
,
0001
0010
0100
1000
,
0001
0110
1000
0110
,
0001
0110
1001
0101
,
0011
0000
0000
1010
0000
0000
0000
1010
,
0000
0000
0000
0011
0000
0000
0000
1010
,
0000
0000
0000
0011
0000
0000
0000
0011
,
0000
0000
0000
1010
0000
0000
1000
0000
,
0001
0010
0000
0010
0000
0100
0000
1000
,
0000
0001
0000
0100
0010
0000
0010
0000
,
1000
0110
0001
0110
,
1000
0110
1001
1001
,
0001
0000
0100
0000
1000
0000
0100
0010
,
0000
0100
0000
0000
0001
0000
1000
0000
,
1000
0000
0100
0000
0001
0000
0100
0010
,
0000
0100
0000
0000
1000
0000
0001
0000
,
0001
0100
0010
1000
,
1000
0010
0100
0001
,
1000
0110
0001
0110
,
1000
0110
1001
0101
,
0011
0000
0000
1010
0000
1000
0000
1010
,
0000
0000
0000
0011
0000
0001
0000
1010
,
0000
0000
0000
0011
0000
0010
0000
0011
,
0000
0000
0000
1010
0000
0010
1000
0000
,
0001
0100
0000
0010
0000
1000
0000
0001
,
0000
0010
0000
0100
0010
0000
0010
0000
,
0001
0110
1000
0110
,
0001
0110
1001
1001
,
1001
0000
0000
0000
;

//--------------- dance-single - chrononical ----------------
#NOTEDATA:;
#STEPSTYPE:dance-single;
#DESCRIPTION:chrononical;
#DIFFICULTY:Medium;
#METER:9;
#RADARVALUES:0,0,0,0,0;
#NOTES:
0000
0000
0000
0000
,
0000
0000
0000
0000
,
0000
0000
0000
0000
,
0001
0010
0100
1000
0001
0000
1000
0000
,
0001
0100
0010
1000
0001
0000
1000
0000
,
0001
0010
0100
0010
0001
0000
1000
0000
,
0001
0100
0010
0100
0001
0000
1000
0000
,
1000
0100
0010
0000
0010
0100
1000
0000
,
0001
0100
0010
1000
0100
0010
0001
1000
,
0001
0100
0010
0000
0010
1000
0001
0000
,
1000
0100
0010
0000
0010
0001
0200
0000
,
0301
1000
0100
0000
0100
1000
0001
0000
,
1000
0001
0010
0100
0010
0001
0200
0000
,
0301
1000
0100
0010
0100
1000
0001
0000
,
1000
0001
0200
0000
2300
0000
3200
0000
,
0310
1000
0200
0000
0310
0001
0200
0000
,
0310
1000
0200
0300
0100
1000
0020
0000
,
1030
0010
0100
0002
0100
0000
1000
0000
,
0013
0011
0001
0101
,
0001
0100
0010
2000
0000
0000
0001
0000
,
3100
1100
1000
1010
,
0010
0100
0001
2000
0100
0000
0001
0000
,
3010
1010
1000
1100
,
0100
0012
0103
2010
,
3100
0011
1001
0101
,
0001
0100
0010
0000
0010
0100
0001
0000
,
1000
0100
0010
0000
0010
0100
1000
0000
,
0001
1000
0100
0000
0100
1000
0001
0000
,
1000
0001
0100
0000
0100
0001
1000
0000
,
0002
1000
0100
0010
,
2003
0001
0010
3100
,
0100
1000
0020
0000
0130
0001
0020
0000
,
0130
1000
0010
1000
0001
0100
0020
0000
,
0032
0013
0100
2000
0000
3100
0010
2000
,
3000
1000
0100
0002
0000
0103
0010
2000
,
0000
3010
0100
0002
0000
0103
0010
0002
,
0003
0001
0100
2000
3100
0000
1001
0000
,
1000
0020
0000
0230
0000
0302
0000
2003
,
0000
3200
0000
0310
0002
0000
1003
0000
,
0010
1000
0200
0000
0310
0001
0200
0000
,
0310
1000
0100
0000
0110
0000
1001
0001
,
1000
0000
1000
0100
1000
0000
1000
0010
,
1000
0000
1000
0100
1000
0000
0100
0010
,
0100
0000
0100
1000
0100
0000
0100
0010
,
0100
0000
0100
1000
0100
0000
0010
0001
,
0010
0000
0010
0100
0010
0000
0010
0001
,
0010
0000
0010
0100
0010
0000
0010
0001
,
0100
0000
0100
0010
1000
0000
1000
0100
,
0010
0000
0010
0001
0100
0001
0010
0100
,
0002
0103
0010
2000
0000
3010
0100
2000
,
3000
1000
0010
0002
0000
0013
0100
2000
,
0000
3100
0010
0002
0000
0013
0100
0002
,
0003
0001
0010
2000
3010
0000
1001
0000
,
0001
0200
0000
0320
0000
2030
0000
3002
,
0000
0023
0000
0130
2000
0000
3001
0000
,
0100
0001
0020
0000
0130
1000
0020
0000
,
0130
0001
0010
0000
0110
0000
0101
0000
,
1001
0000
0000
0000
;

//--------------- dance-single - chrononical ----------------
#NOTEDATA:;
#STEPSTYPE:dance-single;
#DESCRIPTION:chrononical;
#DIFFICULTY:Hard;
#METER:13;
#RADARVALUES:0,0,0,0,0;
#NOTES:
0000
0000
0000
0000
,
0000
0000
0000
0000
,
0000
0000
0000
0000
,
1000
0100
0010
0001
1000
0001
0100
0000
,
0001
0100
0010
1000
0001
1000
0100
0000
,
1000
0100
0010
0100
1000
0010
0100
0000
,
0001
0100
0010
0100
0001
0010
0100
0000
,
0010
0001
0100
0010
1000
0001
1000
0000
,
0100
1000
0010
0100
0001
0010
0100
1000
,
0001
0000
0100
0000
0110
0000
0010
0100
0001
0000
0010
0000
0110
0000
0100
0010
,
0001
0000
0100
0000
0110
0000
0100
0010
1000
0000
0010
1000
0200
0000
0000
0000
,
1300
0000
0010
0000
0110
0000
0010
0100
0001
0000
0010
0000
0110
0000
0010
0100
,
1000
0000
0100
1000
0010
0000
0100
0000
1000
0000
0001
0000
0020
0000
0000
0000
,
0130
0001
1001
1000
0100
1000
1001
0001
,
0100
0001
1001
0000
1010
0000
1100
0000
,
0100
0010
2000
0000
3010
0100
0002
0000
,
0103
0010
2000
0000
3010
0001
0200
0000
,
0301
0100
0010
0200
1000
0000
0010
0000
,
0301
1000
1010
0000
1000
0001
0011
0010
,
0001
0010
0200
0001
0000
0000
0010
0000
,
1300
0001
0011
0000
0001
0100
1010
0000
,
1000
0010
0100
0020
0001
0000
0100
0000
,
1030
0001
0011
0000
1100
0100
0010
1000
,
0010
0001
0201
0000
0310
1000
1200
0000
,
0310
0001
0101
0100
0110
0010
1002
0000
,
0103
0001
0010
0010
0100
1000
0010
0010
,
0100
0001
0010
0010
0100
1000
0010
0000
,
0010
1000
0100
0100
0010
0001
0100
0100
,
0010
1000
0100
0100
0010
0001
0100
0000
,
0001
0100
0010
1000
0001
0010
0100
1000
,
1000
0100
0010
0001
1000
0010
0100
0001
,
1000
0010
0001
0010
1000
0100
0001
0100
,
1000
0000
0010
0000
0100
0001
1000
0001
0010
0000
0001
0000
0101
0000
0000
0000
,
0021
0130
1000
1020
1030
0100
1000
2010
,
3010
0100
0001
0012
0013
0100
1000
2010
,
3010
0100
0001
0021
0031
0100
0001
0012
,
0013
0100
1000
2010
3010
0100
0001
0000
,
1000
0001
0010
0110
0000
1100
1000
1010
,
0000
0101
0001
0011
0010
0100
1000
0000
,
1010
0010
0001
0000
1100
0100
0001
0000
,
0011
0000
0010
0000
1000
0000
0010
0000
0011
0000
0000
0000
0101
0000
0100
0001
,
0010
0000
0100
0000
0110
0000
0100
1000
0010
0000
0100
0000
0110
0000
0010
1000
,
0100
0000
0010
0000
0110
0000
0010
0001
0100
0000
0010
0000
0110
0000
0100
0001
,
1000
0000
0100
0000
1100
0000
0100
1000
0001
0000
0100
0000
0102
0000
0013
0001
,
1000
0000
0010
0000
1010
0000
0010
1000
0001
0000
0010
0000
0011
0000
0001
0010
,
0100
0000
0010
0000
0011
0000
0001
0100
0010
0000
0100
0000
0102
0000
1003
0010
,
0100
0000
0010
0000
1010
0000
1000
0100
0010
0000
0100
0000
1100
0000
1000
0100
,
0001
0000
0100
0000
1000
0000
0001
0100
1000
0000
0100
0000
0001
0000
1000
0010
,
0001
0000
0010
0000
0100
0001
1000
0001
0010
0000
0001
0000
0101
0000
0001
0000
,
0012
0013
0100
2010
3001
0010
0100
1020
,
1030
0010
0100
0021
0031
0010
0100
1020
,
1030
0010
0100
0012
1003
0010
0100
0012
,
0013
0100
1000
2010
3010
0100
0001
1000
,
0100
0010
0001
0101
0100
0110
0010
1010
,
0010
0011
0010
1010
1000
0100
0010
0001
,
0101
0100
1000
0000
0011
0010
1000
0000
,
1100
0100
0001
0100
1100
1000
1010
0010
,
1001
0000
0000
0000
;
