#TITLE:Ghost;
#SUBTITLE:;
#ARTIST:Ava Max;
#TITLETRANSLIT:;
#SUBTITLETRANSLIT:;
#ARTISTTRANSLIT:;
#GENRE:;
#CREDIT:bpgbcg;
#BANNER:bn.jpg;
#BACKGROUND:bg.png;
#LYRICSPATH:;
#CDTITLE:;
#MUSIC:Ghost.ogg;
#OFFSET:0.943000;
#SAMPLESTART:40.556999;
#SAMPLELENGTH:16.500000;
#SELECTABLE:YES;
#BPMS:0.000000=120.000000
;
#STOPS:
;
#BGCHANGES:;
#KEYSOUNDS:;
#ATTACKS:;

//---------------dance-single - bpgbcg----------------
#NOTES:
     dance-single:
     bpgbcg:
     Beginner:
     4:
     0.167708,0.214997,0.000000,0.000000,0.000000,129.000000,129.000000,0.000000,0.000000,0.000000,0.000000,0.167708,0.214997,0.000000,0.000000,0.000000,129.000000,129.000000,0.000000,0.000000,0.000000,0.000000:
// measure 0
0000
0000
0000
0000
,  // measure 1
0000
0000
0000
0000
,  // measure 2
0000
0000
0000
0000
,  // measure 3
0001
0000
1000
0000
,  // measure 4
0001
0000
0010
0000
,  // measure 5
0001
0000
1000
0000
,  // measure 6
0100
0100
1000
0000
,  // measure 7
0001
0000
0100
0000
,  // measure 8
0010
0100
0010
0000
,  // measure 9
1000
0000
0010
0000
,  // measure 10
1000
1000
0001
0000
,  // measure 11
0010
0000
0001
0000
,  // measure 12
1000
1000
0001
0000
,  // measure 13
1000
0001
1000
0001
,  // measure 14
0000
0010
0010
0010
,  // measure 15
0001
1000
0001
1000
,  // measure 16
0000
0010
0010
0010
,  // measure 17
0100
0010
0100
0010
,  // measure 18
0000
1000
1000
1000
,  // measure 19
0001
0000
1000
0000
,  // measure 20
0010
0000
0010
0000
,  // measure 21
0100
0000
0001
0000
,  // measure 22
1000
0000
0001
0000
,  // measure 23
1000
0000
0100
0000
,  // measure 24
1000
0000
0001
0001
,  // measure 25
1000
0000
0010
0000
,  // measure 26
0100
0000
0010
0000
,  // measure 27
1000
0000
0100
0000
,  // measure 28
0010
0000
0001
0000
,  // measure 29
0000
1000
0001
1000
,  // measure 30
0001
0000
0001
0000
,  // measure 31
0000
0001
1000
0001
,  // measure 32
1000
0000
1000
0000
,  // measure 33
0010
0000
0100
0000
,  // measure 34
0010
0000
1000
0000
,  // measure 35
0001
0000
0010
0000
,  // measure 36
0001
0000
1000
0000
,  // measure 37
0100
0100
0100
0100
,  // measure 38
0010
0010
0010
0010
,  // measure 39
0001
0001
0001
0001
,  // measure 40
1000
1000
0000
0000
,  // measure 41
0100
0000
1000
0000
,  // measure 42
0001
0000
1000
0000
,  // measure 43
0001
0000
0100
0000
,  // measure 44
0001
0000
0010
0010
,  // measure 45
0100
0000
0010
0000
,  // measure 46
0100
0000
0010
0000
,  // measure 47
0001
0000
0100
0000
,  // measure 48
0010
0000
1000
0001
,  // measure 49
1000
1000
0100
0010
,  // measure 50
0001
1000
0001
0000
,  // measure 51
0000
0001
0100
0010
,  // measure 52
1000
0010
1000
0000
;

//---------------dance-single - bpgbcg----------------
#NOTES:
     dance-single:
     bpgbcg:
     Easy:
     7:
     0.262612,0.360889,0.081904,0.000000,0.000000,202.000000,193.000000,9.000000,0.000000,4.000000,0.000000,0.262612,0.360889,0.081904,0.000000,0.000000,202.000000,193.000000,9.000000,0.000000,4.000000,0.000000:
0000
0000
0000
0000
,
0000
0000
0000
0000
,
0000
0000
0000
0000
,
0001
1000
0001
1000
,
0010
0100
0010
0100
,
0001
1000
0100
0010
,
0001
0010
0100
0000
,
0000
1000
0010
0100
,
0001
0100
0010
0000
,
0000
1000
0100
0010
,
0100
1000
0001
0000
,
1000
0001
1000
0001
,
0100
0000
0010
0000
1000
0001
1000
0001
,
1000
0001
0010
0100
,
0000
1001
0110
0110
,
0000
1000
0010
0100
,
0000
0110
1001
1001
,
0000
1000
0001
0010
,
0000
0110
1001
1001
,
1000
0001
1000
0001
1000
0000
0010
0000
,
0100
0010
0100
0010
0100
0000
0001
0000
,
1000
0001
0010
0100
,
0010
0001
1000
0010
,
0100
0001
0010
0100
,
1000
0001
1000
0010
,
0100
0010
1000
0100
,
0010
0001
0100
0001
,
1000
0001
0010
0100
,
1000
0010
0100
0010
,
0000
1000
0100
0010
,
0001
1000
0010
0000
,
0000
1000
0010
0100
,
0001
1000
0100
0010
,
0100
0000
1000
0000
,
0001
0000
0100
0000
,
0010
0000
1000
0000
,
0010
0000
0100
0000
,
0010
0010
1000
1000
,
0100
0100
0010
0010
,
0001
1000
0001
1000
0001
1000
0001
1000
,
0100
0010
0100
0010
0000
0000
MMMM
0000
,
1000
0001
0010
0100
,
0010
0001
1000
0010
,
0100
0001
0010
0100
,
0010
0001
1000
0001
,
0100
0010
0100
0010
,
1000
0100
0010
0100
,
1000
0001
0100
0001
,
1000
0010
0100
0010
,
1000
1000
0100
0010
,
0001
0000
0100
0001
0000
0100
0001
0000
,
1000
0100
0010
0001
,
0100
0000
0010
0100
0010
1000
0001
1000
;

//---------------dance-single - bpgbcg----------------
#NOTES:
     dance-single:
     bpgbcg:
     Medium:
     9:
     0.361417,0.384948,0.081904,0.345816,0.113755,278.000000,269.000000,9.000000,38.000000,4.000000,0.000000,0.361417,0.384948,0.081904,0.345816,0.113755,278.000000,269.000000,9.000000,38.000000,4.000000,0.000000:
0000
0000
0000
0000
,
0000
0000
0000
0000
,
0000
0000
0000
0000
,
0001
0000
0000
0000
0001
0000
0000
0100
0000
0000
0100
0000
0000
0000
0100
0000
,
0001
0000
0000
0000
0001
0000
0000
0010
0000
0000
0010
0000
0000
0000
0010
0000
,
0001
1000
0100
0010
0100
0000
1000
0010
,
0100
0010
1000
0000
,
0000
0010
0100
0001
0010
0000
0100
0010
,
0001
1000
0010
0000
,
0000
0100
0010
1000
0001
0010
0001
1000
,
0001
0010
0100
0000
,
1000
0100
0010
0001
0100
0000
0010
0100
,
0001
0000
1000
0000
0010
0100
0010
1000
,
0000
0100
0010
0001
0010
0100
1000
0001
,
0000
0011
1001
1010
,
0000
0100
0010
1000
0010
0100
0001
1000
,
0000
0101
1001
1100
,
0000
0001
0100
0001
0100
0010
1000
0001
,
0000
1010
1001
0011
,
1000
0000
1000
0000
0001
0000
0001
0000
1000
0000
0000
0000
0000
0000
0010
0100
,
0010
0100
0001
1000
1000
0000
0001
0010
,
0100
0000
0000
0000
0020
0000
0000
0130
0000
0000
1000
0000
0100
0000
0010
0000
,
0001
0000
0000
0000
0200
0000
0000
0310
0000
0000
0000
0000
0100
0000
0010
0000
,
1000
0000
0000
0000
0002
0000
0000
0103
0000
0000
0001
0000
1000
0000
0100
0000
,
0010
0000
0000
0000
0002
0000
0000
0013
0000
0000
0100
0000
1000
0000
0001
0000
,
0100
0000
0000
0000
0020
0000
0000
0130
0000
0000
0001
0000
0100
0000
0010
0000
,
1000
0000
0000
0000
0200
0000
0000
0310
0000
0000
0000
0000
0100
0000
0010
0000
,
0001
0000
0000
0000
2000
0000
0000
3100
0000
0000
0000
0000
1000
0000
0100
0000
,
0010
0000
0000
0000
0200
0000
0000
1300
0000
0000
0001
0000
0100
0000
0010
0000
,
1000
0000
2000
3000
0200
0300
0020
0030
,
0002
0003
0100
0020
0030
1000
0010
0000
,
0000
1000
0010
0100
,
0001
0000
0010
0200
0300
0000
0010
0100
,
1000
0000
0000
0000
0020
0000
0000
0130
0000
0000
0001
0000
1000
0000
0100
0000
,
0010
0000
0000
0000
0002
0000
0000
0103
0000
0000
0000
0000
0001
0000
0010
0000
,
0100
0000
0000
0000
0020
0000
0000
0031
0000
0000
1000
0000
0010
0000
0100
0000
,
0001
0000
0000
0000
0020
0000
0000
0130
0000
0000
0010
0000
0001
0000
0010
0000
,
0100
0000
0000
0000
0020
0000
0000
0130
0000
0000
1000
0000
0100
0000
0010
0000
,
0001
0000
0000
0000
0200
0000
0000
0301
0000
0000
0000
0000
1000
0000
0010
0000
,
1000
0010
1000
0010
0100
0001
0100
0001
,
1000
0100
0010
0001
MMMM
0000
0001
0100
,
0010
0000
0000
0000
0200
0000
0000
0310
0000
0000
1000
0000
0010
0000
0100
0000
,
0001
0000
0000
0000
0020
0000
0000
0130
0000
0000
0000
0000
0010
0000
0100
0000
,
1000
0000
0000
0000
0002
0000
0000
0013
0000
0000
0001
0000
1000
0000
0010
0000
,
0100
0000
0000
0000
0002
0000
0000
0103
0000
0000
0010
0000
1000
0000
0001
0000
,
0010
0000
0000
0000
0200
0000
0000
0310
0000
0000
0001
0000
0010
0000
0100
0000
,
1000
0000
0000
0000
0020
0000
0000
0130
0000
0000
0000
0000
0010
0000
0100
0000
,
0001
0000
0000
0000
2000
0000
0000
3010
0000
0000
0000
0000
1000
0000
0010
0000
,
0100
0000
0000
0000
0020
0000
0000
1030
0000
0000
0001
0000
0010
0000
0100
0000
,
1000
0000
2000
3000
0020
0030
0200
0300
,
0002
0003
0010
0200
0300
1000
0100
0000
,
0000
0000
2000
3000
0200
0300
0020
0030
,
0002
0003
0100
0020
0030
0100
0010
1000
;

//---------------dance-single - bpgbcg----------------
#NOTES:
     dance-single:
     bpgbcg:
     Hard:
     13:
     0.556426,0.649600,0.491423,0.582427,0.386768,428.000000,374.000000,54.000000,64.000000,4.000000,0.000000,0.556426,0.649600,0.491423,0.582427,0.386768,428.000000,374.000000,54.000000,64.000000,4.000000,0.000000:
0000
0000
0000
0000
,
0000
0000
0000
0000
,
0000
0000
0000
0000
,
0001
0000
0000
0000
0001
0000
0000
0100
0000
0000
0100
0000
0000
0000
0100
0000
,
0001
0000
0000
0000
0001
0000
0000
0010
0000
0000
0010
0000
0000
0000
0010
0000
,
0001
0000
0000
0000
0000
0000
1000
0000
0000
0000
0000
0100
1000
0000
0100
1000
0000
0000
0001
0000
0000
0100
0000
0000
,
0010
0000
0000
0000
0000
0000
1000
0000
0000
0000
0000
0010
1000
0000
0010
1000
0000
0000
0001
0000
0000
0010
0000
0001
,
1000
0000
0000
0000
0000
0000
0001
0000
0000
0000
0000
0100
0001
0000
0100
0001
0000
0000
1000
0000
0000
0100
0000
0000
,
0010
0000
0000
0000
0000
0000
0001
0000
0000
0000
0000
0010
0001
0000
0010
0001
0000
0000
1000
0000
0000
0010
0000
1000
,
0001
0000
0000
0000
0000
0000
1001
0000
0000
0000
0000
0001
0010
0000
0001
0010
0000
0000
0011
0000
0000
1000
0000
0000
,
0010
0000
0000
0000
0000
0000
1001
0000
0000
0000
0000
0001
0100
0000
0001
0100
0000
0000
0101
0000
0000
1000
0000
0001
,
0100
0000
0000
0000
0000
0000
1001
0000
0000
0000
0000
1000
0010
0000
1000
0010
0000
0000
1010
0000
0000
0001
0000
0000
,
0010
0000
0000
0000
0000
0000
1001
0000
0000
0000
0000
1000
0100
0000
1000
0100
0000
0000
1100
0000
0000
0001
0000
1000
,
0100
1000
0100
0001
0100
1000
0010
0100
,
0000
0000
0022
0033
2002
3003
2020
3030
,
0000
1000
0010
0001
0010
1000
0100
0010
,
0000
0000
0202
0303
2002
3003
2200
3300
,
0000
0001
0100
1000
0100
0001
0010
0100
,
0000
0000
2020
3030
2002
3003
0022
0033
,
1000
0000
0000
1000
0000
0000
0010
0000
0000
0010
0000
0100
0010
0000
0100
0010
0000
0000
1000
0000
0000
0001
0000
0000
,
0020
0000
0000
0000
0001
0000
0000
1000
0000
0000
1000
0000
0031
0000
0001
0000
,
1000
0000
1000
0000
0011
0000
0100
1000
0000
0100
1000
0000
0011
0000
0001
0000
,
1000
0000
1000
0000
0101
0000
0010
1000
0000
0010
1000
0000
0101
0000
0001
0000
,
0100
0000
0100
0000
1010
0000
0100
0001
0000
0100
0001
0000
1010
0000
1000
0000
,
0001
0000
0001
0000
1100
0000
0010
0001
0000
0010
0002
0000
0013
0100
1000
0010
,
1000
0000
1000
0000
0011
0000
0010
1000
0000
0010
1000
0000
0011
0000
0001
0000
,
1000
0000
1000
0000
0101
0000
0100
1000
0000
0100
1000
0000
0101
0000
0001
0000
,
0100
0000
0100
0000
1010
0000
0010
0001
0000
0010
0001
0000
1010
0000
1000
0000
,
0001
0000
0001
0000
1100
0000
0100
0001
0000
0100
0002
0000
0203
0000
2300
0000
,
3000
2000
3200
0320
,
0032
0000
0000
0000
0203
0000
0310
0001
0000
0010
0100
0000
0002
0000
0000
0000
,
1003
0200
0320
0032
,
2003
0000
3010
0200
0000
0000
0301
0010
,
0100
0000
0000
0000
0020
0000
0000
0130
0000
0000
1000
0000
0010
0000
0100
0000
,
0001
0000
0000
0000
0020
0000
0000
0130
0000
0000
0000
0000
1000
0000
0010
0000
,
0100
0000
0000
0000
0020
0000
0000
1030
0000
0000
0001
0000
0010
0000
0100
0000
,
1000
0000
0000
0000
0020
0000
0000
0130
0000
0000
0010
0000
1000
0100
0010
0001
,
1000
0000
0000
0000
0200
0000
0000
0310
0000
0000
0100
0000
1000
0000
0010
0000
,
0100
0000
0000
0000
0020
0000
0000
1030
0000
0000
0000
0000
0001
0000
0010
0000
,
0100
1000
0100
1000
0001
1000
0001
1000
0010
0100
0010
0100
0010
1000
0010
1000
,
0001
0010
0100
1000
0001
0100
0010
1000
0000
0000
0000
0000
MMMM
0000
0000
0000
,
1000
0000
1000
0000
0011
0000
0100
1000
0000
0100
1000
0000
0011
0000
0001
0000
,
1000
0000
1000
0000
0101
0000
0010
1000
0000
0010
1000
0000
0101
0000
0001
0000
,
0100
0000
0100
0000
1010
0000
0100
0001
0000
0100
0001
0000
1010
0000
1000
0000
,
0001
0000
0001
0000
1100
0000
0010
0001
0000
0010
0002
0000
0013
0100
1000
0010
,
1000
0000
1000
0000
0011
0000
0010
1000
0000
0010
1000
0000
0011
0000
0001
0000
,
1000
0000
1000
0000
0101
0000
0100
1000
0000
0100
1000
0000
0101
0000
0001
0000
,
0100
0000
0100
0000
1010
0000
0010
0001
0000
0010
0001
0000
1010
0000
1000
0000
,
0001
0000
0001
0000
1100
0000
0100
0001
0000
0100
0002
0000
0203
0000
2300
0000
,
3001
0000
2200
3300
2002
3003
0202
0303
,
0022
0000
0033
0000
0020
0000
0130
0001
0000
0100
0010
0000
0002
0000
0000
0000
,
1003
0000
2020
3030
2002
3003
0022
0033
,
0202
0003
0310
2010
3200
0001
0010
1300
;
