#VERSION:0.83;
#TITLE:ζœˆε…‰δΉ±θˆž;
#SUBTITLE:;
#ARTIST:P*Light;
#TITLETRANSLIT:Gekkou ranbu;
#SUBTITLETRANSLIT:;
#ARTISTTRANSLIT:;
#GENRE:;
#CREDIT:;
#MUSIC:Gekkou ranbu.ogg;
#BANNER:Gekkou ranbu.png;
#BACKGROUND:Gekkou ranbu-bg.png;
#CDTITLE:./CDTitles/SDVX III GRAVITY WARS.png;
#SAMPLESTART:12.245;
#SAMPLELENGTH:15.000;
#SELECTABLE:YES;
#OFFSET:0.000;
#BPMS:0.000=186.000
,208.000=93.000
,226.000=186.000
;
#STOPS:;
#BGCHANGES:;
#FGCHANGES:;

//--------------- dance-single - forcednature ----------------
#NOTEDATA:;
#STEPSTYPE:dance-single;
#DESCRIPTION:forcednature;
#CREDIT:forcednature;
#DIFFICULTY:Beginner;
#METER:5;
#RADARVALUES:0,0,0,0,0;
#NOTES:
0000
0000
0000
0000
,
0000
0000
0000
0000
,
0000
0000
0000
0000
,
0000
0000
0000
0000
,
0000
0000
0000
0000
,
0000
0000
0000
0000
,
1000
0000
0000
0000
,
0001
0000
0000
0000
,
0100
0000
0100
0000
,
0010
0000
0000
0000
,
1000
0000
0000
0000
,
0100
0000
0000
0000
,
1000
0000
0000
0000
,
0010
0000
0000
0000
,
0100
0000
0000
0000
,
0001
0000
0000
0000
,
0010
0000
0010
0000
,
0100
0000
0000
0000
,
1000
0000
0000
0000
,
0001
0000
0000
0000
,
0100
0000
0000
0000
,
0001
0000
0000
0000
,
0010
0000
0010
0000
,
0100
0000
0100
0000
,
1000
0000
0001
0000
,
0100
0000
0000
0000
,
0110
0000
0000
0000
,
0010
0000
1000
0000
,
1001
0000
0000
0000
,
1000
0000
0100
0000
,
0110
0000
0000
0000
,
0010
0000
0001
0000
,
1001
0000
0001
0000
,
0100
0100
0100
0000
,
0110
0000
0000
0000
,
0001
1000
0001
0000
,
1000
0000
0100
0000
,
1000
0000
0001
0000
,
1000
0000
0000
0000
,
0010
0000
1000
0000
,
0001
0000
0100
0000
,
0001
0000
1000
0000
,
0001
0000
0001
0000
,
0020
0000
0030
0000
,
1001
0000
0000
0000
,
1000
0000
0100
0000
,
1000
0000
0000
0000
,
0001
0000
0100
0000
,
0001
0000
0001
0000
,
0010
0000
0010
0000
,
0100
0000
1000
0000
,
0001
0001
0001
0000
,
2002
0000
3003
0000
,
1000
0000
1000
0000
,
0010
0000
0100
0000
,
0001
0000
0001
0000
,
0010
0000
0100
0000
,
0000
0000
1000
0000
,
1000
0000
1000
0000
,
0000
0000
0001
0000
,
0001
0000
0001
0000
,
0000
0000
0100
0000
,
0010
0000
0010
0000
,
0100
0000
0001
0000
,
1000
0000
0000
0000
,
0000
0000
1001
0000
,
0001
0000
0100
0000
,
0001
0000
1000
1000
,
1000
0000
0001
0001
,
0001
0000
1000
0000
,
0100
0000
0010
0000
,
0100
0000
0010
0010
,
0010
0000
0100
0100
,
0100
0000
1000
0000
,
0010
0000
1000
0010
,
1000
0000
0001
0000
,
0010
0000
0001
0100
,
0001
0000
0010
0000
,
0010
0100
0010
0000
,
0010
0000
0001
0001
,
1000
1000
0000
0010
,
0010
0000
0220
0000
,
0000
0000
0000
0000
,
0000
0000
0330
0000
;

//--------------- dance-single - forcednature ----------------
#NOTEDATA:;
#STEPSTYPE:dance-single;
#DESCRIPTION:forcednature;
#CREDIT:forcednature;
#DIFFICULTY:Easy;
#METER:9;
#RADARVALUES:0,0,0,0,0;
#NOTES:
0000
0000
0000
0000
,
0000
0000
0000
0000
,
0000
0000
0000
0000
,
0000
0000
0000
0000
,
0000
0000
0000
0000
,
0000
0000
1000
0001
,
0100
0000
0001
0001
,
0001
0000
0010
0010
,
0010
0100
1000
0100
,
0010
0000
0001
1000
,
1001
0000
0001
0100
,
0001
0000
1000
0100
,
0010
0000
0001
1000
,
0010
0000
0100
0001
,
1001
0000
1000
0100
,
1001
0000
0001
0100
,
1001
0000
0001
0001
,
0000
0000
1000
0000
0000
1000
0000
0000
1000
0000
0000
0000
0000
0000
0000
0000
,
0110
0000
0001
1000
,
0100
0010
0001
1000
,
0010
0000
0100
0001
,
0010
0100
1000
0001
,
0100
0000
0100
0010
,
1000
0000
1000
0100
,
0010
0001
0010
0001
,
0000
0000
0100
0000
0000
0100
0000
0000
0100
0000
0000
0000
0000
0000
0000
0000
,
0002
0000
0010
0000
,
0010
0010
0013
0000
,
2000
0000
0010
0000
,
0010
0010
3010
0000
,
0001
0100
0001
0001
,
1000
0100
1000
1000
,
0010
0010
0100
0100
,
0001
1000
0200
0000
,
0320
0000
0000
0030
,
0001
1000
0001
1000
0002
0000
0003
0000
,
0100
0010
1000
0010
,
0100
0001
1000
0001
,
0010
0000
0010
0001
,
2000
3200
0320
0032
,
0003
1000
0010
0100
,
0010
1000
0100
1000
,
0001
0000
0001
0100
,
0010
0010
0020
0030
,
1000
0100
0010
0100
,
1000
0001
0020
0030
,
0001
0100
0010
0100
,
0001
1000
0020
0030
,
1000
0100
1000
1000
,
0001
0100
0001
0001
,
1000
0010
1000
0001
,
0010
0001
0100
0010
,
2002
0000
0000
0000
3003
0000
1000
1000
,
0010
0000
1000
1000
0010
0000
1000
1000
,
0010
0000
0100
0010
0100
0000
0001
0001
,
0010
0000
0001
0001
0010
0000
0001
0001
,
0010
0000
0100
0010
0200
0000
0000
0000
,
0000
0000
0000
0300
1000
0000
0100
0000
,
1000
1000
0001
0100
,
0001
0001
1000
0001
,
1000
0001
0010
0100
,
0010
0100
1000
0001
,
0100
0100
0001
1000
,
0100
0100
1000
0001
,
1000
0001
0200
0010
,
0310
0000
1001
0001
,
0100
0010
1001
1000
,
0100
0000
0010
0000
0100
1000
0100
0000
,
1000
0000
0010
0000
0100
0001
0100
0000
,
0001
0010
0110
1000
,
0001
0100
0110
0001
,
1000
0000
0000
0000
0100
0000
0000
0000
1000
0000
0000
1000
0000
0000
1000
0000
,
0000
0000
0001
0000
0000
0000
0001
0000
0000
0000
0100
0000
0000
0100
0000
0000
,
0200
0300
1001
0001
,
0010
0100
1001
1000
,
0010
0000
0100
0000
0001
0010
0001
0000
,
1000
0000
0100
0000
1000
0010
1000
0000
,
0001
0100
0110
0010
,
1000
0100
0110
0010
,
0001
0000
0000
0000
0100
0000
0000
0000
0010
0000
0000
0010
0000
0000
0010
0000
,
0000
0000
1000
0000
0000
0000
0000
0000
0100
0000
0000
0010
0000
0000
0100
0000
,
0000
0010
0000
0000
0100
0000
0000
0000
2002
0000
0000
0000
0000
0000
0000
0000
,
0000
0000
0000
0000
,
0000
0000
3003
0000
;

//--------------- dance-single - forcednature ----------------
#NOTEDATA:;
#STEPSTYPE:dance-single;
#DESCRIPTION:forcednature;
#CREDIT:forcednature;
#DIFFICULTY:Medium;
#METER:14;
#RADARVALUES:0,0,0,0,0;
#NOTES:
0000
0000
0000
0000
,
0000
0000
0000
0000
,
0000
0000
0000
0000
,
0000
0000
0000
0000
,
0000
0000
0000
0000
,
0000
0000
0000
0000
1000
0100
0010
0001
,
2000
0000
0100
0000
3001
0100
0010
1000
,
0002
0000
0100
0000
1003
0100
0010
0001
,
0100
0000
0110
0000
0010
1000
0001
1000
,
0200
0300
0020
0030
0001
1000
1001
0000
,
0110
0000
1000
0100
0010
0100
1000
0001
,
0011
0000
0001
0100
0010
0100
0001
1000
,
1010
0000
0010
0100
0001
0010
0100
1000
,
1100
0000
0100
0010
0001
0100
1000
0100
,
0110
0000
1000
0010
1000
0100
0010
0001
,
0011
0000
0001
0010
0001
0100
1000
0100
,
0010
0000
0000
0010
0000
0000
0010
0000
1000
0000
0100
0000
0010
0000
0001
0000
,
0000
0000
1001
0000
0000
1001
0000
0000
2002
0000
0000
0000
3003
0000
0000
0000
,
1000
0000
0000
0100
0000
0000
1000
0000
0001
0000
0010
0000
0100
0000
0010
0000
,
0001
0000
0000
0100
0000
0000
0001
0000
1000
0000
0010
0000
0100
0000
0010
0000
,
1000
0000
0000
0001
0000
0000
1000
0000
0100
0000
0010
0000
0001
0000
0100
0000
,
0001
0000
0000
1000
0000
0000
0001
0000
0010
0000
0100
0000
1000
0000
0000
0000
,
1010
0000
1010
0000
0010
0100
0001
0000
,
0011
0000
0011
0000
0010
0100
1000
0100
,
0010
0000
0000
1001
0000
0000
0001
0000
0100
0000
1000
0000
0100
0000
0001
0000
,
0000
0000
1001
0000
0000
1001
0000
0000
2002
0000
0000
0000
3003
0000
0000
0000
,
0002
1000
0100
1000
,
0010
0000
1000
0000
0100
0100
0103
0000
,
2000
0001
0100
0001
,
0010
0000
0001
0000
0100
0100
3100
0000
,
1001
0000
1000
0100
0010
0001
0010
0000
,
1001
0000
0001
0100
0010
1000
0010
0000
,
2100
3010
0102
0013
,
1000
0100
0010
0001
0100
0100
0010
0010
,
2002
0000
0000
3003
,
0001
0010
1000
0010
0100
0000
1001
0000
,
0000
1000
0100
0001
0100
1000
0001
0010
,
1000
0010
0001
1000
0010
0000
0001
0010
,
1000
0000
0001
0100
1000
0000
0100
0000
,
1002
0000
0013
0100
1000
0010
0100
0000
,
2000
0000
3100
1000
0100
0001
1000
0010
,
0001
0010
1000
0001
0100
0000
0001
0010
,
1000
0000
0001
0100
1000
0000
1001
0000
,
0010
0010
0010
0010
0010
0000
0110
0000
,
1000
0000
0000
0100
0000
0000
1000
0000
0000
0000
1000
0000
0010
0000
1000
0000
,
0002
0000
0000
0010
0000
0000
0103
0000
0001
0000
1000
0000
0001
0000
0000
0000
,
0001
0000
0000
0100
0000
0000
0001
0000
0000
0000
0001
0000
0010
0000
0001
0000
,
2000
0000
0000
0010
0000
0000
3100
0000
1000
0000
0001
0000
1000
0000
0000
0000
,
1001
0000
1000
0100
0110
0000
0001
0000
,
1001
0000
0001
0100
0110
0000
1000
0000
,
0001
0000
0000
0011
0000
0000
0010
0000
0100
0000
0000
1100
0000
0000
1000
0000
,
0001
0010
0001
1000
0010
0010
0100
0100
,
2002
0000
0000
0000
0000
0000
0000
0000
3003
0000
0000
0000
1000
0100
1000
0100
,
0010
0000
0000
0000
1000
0100
1000
0100
0010
0000
0000
0000
1000
0100
1000
0100
,
0010
0000
0001
1000
0001
0000
1000
0001
0200
0000
0000
0000
0301
0100
0001
0100
,
0010
0000
0000
0000
0001
0100
0001
0100
0010
0000
0000
0000
0001
0100
0001
0100
,
0010
0000
1000
0001
1000
0000
0001
1000
0020
0000
0000
0000
0000
0000
0000
0000
,
0000
0130
0210
0001
,
0001
0010
0010
0001
,
0301
0100
0010
1000
0200
0000
1000
0000
,
1000
0010
0010
1000
,
1300
0000
0001
0000
1001
0000
1000
0010
,
0100
0010
1000
0000
1001
0000
0001
0010
,
0100
0010
0001
0000
1000
0010
0001
0010
,
1000
0000
0001
0000
1000
0001
1000
0000
0200
0000
0300
0000
0020
0000
0030
0000
,
0001
1000
1001
0000
0001
0100
0001
1000
,
0100
1000
1020
0000
1030
0100
1000
0001
,
0100
0000
0001
0000
0021
0000
0000
0000
0230
0000
0000
1000
0000
0000
0010
0000
,
0000
1000
0000
0000
0310
0000
0000
0000
0020
0000
0000
0001
0000
0000
0100
0000
,
0000
0001
0000
0000
0130
0000
0000
0000
0010
0000
0001
0000
0100
0000
0010
0000
,
0100
0001
2001
0000
3010
1000
0100
0010
,
0100
0000
1000
0000
1002
0000
0000
0000
0103
0000
0000
0100
0000
0000
0100
0000
,
0001
0000
0010
0000
0100
0000
1000
0000
0000
0000
1001
0000
0000
1001
0000
0000
,
1001
0000
0000
0000
0110
0000
0000
0000
0001
0100
0001
0000
1000
0000
0100
0000
,
1000
0000
0010
0000
1020
0000
0000
0000
1030
0100
1000
0000
0001
0000
0100
0000
,
0001
0000
0010
0000
0012
0000
0000
0000
0103
0001
0000
0100
0001
0000
1000
0010
,
0000
1000
0010
0000
1000
0000
1000
0000
0100
1000
0000
0100
1000
0000
0001
0010
,
0000
0001
0010
0000
0100
0000
0000
0000
1001
0000
0000
0000
1000
0000
0010
0000
,
0001
0010
1000
0100
1100
0000
0001
0010
,
1000
0000
0010
0000
0001
0000
0100
0000
0110
0000
0000
0110
0000
0000
0010
0000
,
1000
0000
0100
0010
0100
0000
0010
0000
0001
0000
0000
0101
0000
0000
1000
0000
,
0000
1100
0000
0000
1001
0000
0000
0000
0220
0000
0000
0000
0000
0000
0000
0000
,
0000
0000
0000
0000
,
0000
0000
0330
0000
;

//--------------- dance-single - forcednature ----------------
#NOTEDATA:;
#STEPSTYPE:dance-single;
#DESCRIPTION:forcednature;
#CREDIT:forcednature;
#DIFFICULTY:Hard;
#METER:17;
#RADARVALUES:0,0,0,0,0;
#NOTES:
0000
0000
0000
0000
,
0000
0000
0000
0000
,
0000
0000
0000
0000
,
0000
0000
0000
0000
,
0000
0000
0000
0000
,
0000
0000
0000
0000
1000
0100
0010
0001
,
0102
0000
1000
0000
0013
0000
0001
1000
,
2100
0000
0001
0000
3010
0000
1000
0001
,
0102
0000
0000
0000
0103
0000
0001
0000
1000
0010
1000
0001
0100
0010
0100
0001
,
2000
0000
3000
0000
0200
0000
0300
0000
1000
0010
0100
0001
2000
0000
0000
0000
,
3100
0000
0010
0001
0000
0010
0100
0000
2000
0000
3020
0000
0230
0000
0302
0000
,
0013
0000
0100
1000
0000
0010
1000
0000
0200
0000
0320
0000
0032
0000
2003
0000
,
3010
0000
0100
0001
0000
0010
0001
0000
2000
0000
3200
0000
0302
0000
0203
0000
,
0310
0000
0001
1000
0000
0010
1000
0000
0002
0000
0023
0000
0230
0000
2300
0000
,
3010
0000
0100
0001
0000
1000
0100
0000
2000
0000
3002
0000
0203
0000
0320
0000
,
1030
0000
0001
0010
0000
0100
0010
0000
0002
0000
0203
0000
0320
0000
2030
0000
,
3100
0000
0010
0100
0000
0000
0010
0000
0001
0000
1000
0001
1000
0000
0010
0000
,
0000
0000
0110
0000
0000
0110
0000
0000
1002
0000
0000
0000
0013
0000
0000
0000
,
0001
0000
0100
0010
0000
1000
0100
0000
0020
0000
2030
0000
3020
0000
0032
0000
,
1003
0000
0100
0010
0000
0001
0100
0000
0020
0000
0032
0000
0023
0000
2030
0000
,
3001
0000
0010
0100
0000
1000
0010
0000
0200
0000
2300
0000
3200
0000
0302
0000
,
1003
0000
0010
0100
0000
0001
0010
0000
0100
0000
1000
0001
1000
0000
0010
0000
,
0201
0000
0010
0000
1300
0100
0001
1000
,
1200
0000
0010
0000
0301
0100
1000
0001
,
0100
0000
0010
1000
0000
0100
1000
0000
0001
0100
0001
0100
0010
1000
0010
1000
,
0000
0000
0110
0000
0000
0110
0000
0000
2002
0000
0000
0000
3003
0000
0000
0000
,
0102
0000
0000
1000
0000
0000
0010
0000
0000
0000
0100
0000
0100
0000
0100
0000
,
0100
0000
0000
0000
0000
0000
0000
0000
0000
1000
0000
0000
0000
0000
0000
0000
0000
0000
0013
0000
0000
0000
0000
0000
0001
0000
0000
0000
1000
0000
0000
0000
0001
0000
0000
0000
1000
0000
0000
0000
0000
0000
0000
0000
0000
0000
0000
0000
,
2100
0000
0000
0001
0000
0000
0010
0000
0000
0000
0100
0000
0100
0000
0100
0000
,
0100
0000
0000
0001
0000
0000
3010
0000
1000
0000
0100
0000
1000
0001
1000
0001
,
0010
0000
0100
0000
1000
0000
0100
0000
0010
0000
0100
0000
1000
0000
0100
0010
,
0001
0000
0000
0100
0000
0000
0010
0000
0000
0100
0000
0000
0001
0000
1000
0000
0001
0000
1000
0000
0000
0100
0000
0000
,
1000
0001
0010
0000
0100
0000
0010
0000
0001
1000
0010
0000
0100
0000
0010
0000
,
1000
0100
1000
0000
0001
0100
0001
0000
0010
0100
1000
0100
0010
0001
1000
0001
,
0200
0000
0000
0000
,
0310
0010
0100
0100
0110
0000
1001
0000
,
1000
0000
0100
1000
0100
0000
0010
0100
0010
0000
0001
0010
0001
0000
1000
0001
,
0100
0000
0010
1000
0001
0000
1000
0100
0020
0000
0000
0000
0031
0000
1000
0010
,
0200
0000
0000
0000
0301
0000
1000
0100
0010
0000
0000
0000
0110
0000
0000
0000
,
0100
0001
0100
1000
0010
0110
1001
0000
,
1000
0100
0010
0001
0100
0000
0010
0100
0010
0000
1000
0010
1000
0000
0001
1000
,
0100
0000
0010
0001
1000
0000
0001
0100
0020
0000
0000
0000
1030
0000
0001
0010
,
0200
0000
0000
0000
1300
0000
0001
0100
0010
0000
0000
0000
0110
0000
0000
0000
,
2001
0000
0001
0000
0001
0000
0001
0000
3001
0010
0100
1000
0001
0000
0000
0000
,
1000
0010
0000
0100
0010
0000
1000
0001
0000
0100
0001
0000
0001
0000
0001
0000
,
0010
0000
0000
0100
0000
0000
0000
0000
0000
1000
0000
0000
0100
0000
0000
0000
0000
0000
0010
0000
0000
0000
0000
0000
0001
0000
0000
0000
1000
0000
0000
0000
0001
0000
0000
0000
1000
0000
0000
0000
0000
0000
0000
0000
0000
0000
0000
0000
,
0001
0010
0000
0100
0010
0000
0001
1000
0000
0100
1000
0000
1000
0000
1000
0000
,
0010
0100
0000
0001
0100
0000
0010
0000
1000
0000
0100
0000
1000
0001
1000
0001
,
0100
0000
0000
0100
0001
0000
0010
0000
0110
0000
0000
0100
1000
0000
0010
0000
,
0110
0000
0000
0000
0000
0000
0000
0000
0000
0100
0000
0000
0001
0000
0000
0000
0000
0000
1000
0000
0000
0000
0000
0000
0100
0000
0000
0000
0010
0000
0000
0000
0100
0000
0000
0000
0010
0000
0000
0000
0000
0000
0001
0000
0000
0000
0000
0000
,
1000
0010
0000
0100
0001
0000
1000
0000
0001
0010
0000
0100
1000
0000
0001
0000
,
0100
0001
1000
0000
0100
1000
0001
0000
0100
0010
1000
0010
0100
0001
1000
0001
,
0020
0000
0000
0000
0000
0000
0000
0000
0030
0000
0000
0000
0001
0100
0010
1000
,
0002
0000
0003
0000
0001
0100
0010
1000
0002
0000
0003
0000
0001
0100
0010
1000
,
0100
1000
0010
0100
0001
0010
0100
1000
0020
0000
0030
0000
1000
0100
0010
0001
,
2000
0000
3000
0000
1000
0100
0010
0001
2000
0000
3000
0000
1000
0100
0010
0001
,
0100
0001
0010
0100
1000
0010
0100
0001
0020
0000
0000
0000
0000
0000
0000
0000
,
0000
0130
2001
0001
,
0100
0100
0001
0001
,
0010
0000
0000
0000
3010
0000
1000
0000
0002
0000
0000
0100
0000
0000
0100
0000
,
0000
1000
0000
0000
1000
0000
0000
0000
0010
0000
0000
0010
0000
0000
1000
0000
,
0000
1000
0000
0000
0103
0000
0000
0000
0001
0000
0010
0000
0100
0000
0010
0000
,
0001
0000
1000
0000
0100
0000
1000
0100
1000
0000
0010
0000
0100
0000
0010
0000
,
1000
0000
0001
0000
0100
0001
0100
0001
1000
0000
0100
0000
0010
0000
0001
0000
,
1000
0010
0100
0010
1000
0001
0100
0001
2000
0000
3000
0000
0200
0000
0300
0000
,
1000
0010
0100
0001
2000
0000
0000
0000
3001
0010
0100
0000
0010
0000
0100
1000
,
0000
0001
0100
0000
0010
1000
0001
0000
1000
0010
0100
0000
0010
0000
0100
0001
,
0000
1000
0100
0000
0010
0001
1000
0000
0010
0100
0000
0001
0010
0000
0100
0010
,
0000
0001
0100
0000
0001
0000
1000
0000
0100
0010
0000
0100
1000
0000
0010
0100
,
0000
0010
1000
0000
1001
0000
0000
0000
1000
0100
0010
0000
0001
0000
0100
0010
,
0000
0100
0001
0000
1000
0100
1000
0000
0001
0100
0010
0000
1000
0000
0100
0010
,
0000
0100
1000
0001
1000
0000
0010
0000
0110
0000
0100
0010
0000
0000
0010
0000
,
1000
0001
0100
0001
1000
0100
0010
0100
0000
0000
1001
0000
0000
1001
0000
0000
,
1001
0000
0000
0001
0200
0000
0000
0000
0301
0010
0100
1000
0001
0000
1000
0010
,
0000
0100
0001
0000
0010
0100
0010
0000
0001
0100
0010
1000
0001
0000
1000
0100
,
0000
0010
0001
0000
1000
0010
1000
0000
0001
0010
0000
0001
0100
0000
1000
0100
,
0000
0001
0100
0000
0010
0000
1000
0000
0100
0001
0000
0100
1000
0000
0010
1000
,
0000
0001
0010
0000
0100
0000
0100
0000
0010
0001
1000
0001
0100
0000
0010
1000
,
0000
1000
0100
0000
0010
0001
1000
0000
0010
1000
0001
1000
0100
0000
0010
0001
,
0000
0001
0100
0000
0010
1000
0001
0000
0010
0000
0100
0010
0000
0010
0100
0000
,
1000
0001
0100
0001
1000
0010
0100
0010
1000
0000
0000
1100
0000
0000
0101
0000
,
0000
0011
0000
0000
0110
0000
0000
0000
2002
0000
0000
0000
0000
0000
0000
0000
,
0000
0000
0000
0000
,
0000
0000
3003
0000
;

//--------------- dance-double - forcednature ----------------
#NOTEDATA:;
#STEPSTYPE:dance-double;
#DESCRIPTION:forcednature;
#CREDIT:forcednature;
#DIFFICULTY:Easy;
#METER:9;
#RADARVALUES:0,0,0,0,0;
#NOTES:
00000000
00000000
00000000
00000000
,
00000000
00000000
00000000
00000000
,
00000000
00000000
00000000
00000000
,
00000000
00000000
00000000
00000000
,
00000000
00000000
00000000
00000000
,
00000000
00000000
00000000
00000000
00000000
00000000
00000000
00000000
00000000
00000000
00000000
00000000
00000000
00000000
00000000
00000000
00000000
00000000
00000000
00000000
00000000
00000000
00000000
00000000
00000000
00000000
00000000
00000000
00000000
00000000
00000000
00000000
00000000
00000000
00000000
00000000
00000000
00000000
00000000
00000000
00000000
00000000
00000000
00000000
00000000
00000000
00000000
00000000
00000000
00000000
00000000
00000000
00000000
00000000
00000000
00000000
00000000
00000000
00000000
00000000
00000000
00000000
00000000
00000000
00000000
00000000
00000000
00000000
00000000
00000000
00000000
00000000
00000000
00000000
00000000
00000000
00000000
00000000
00000000
00000000
00000000
00000000
00000000
00000000
00000000
00000000
00000000
00000000
00000000
00000000
00000000
00000000
00000000
00000000
00000000
00000000
00001000
00000000
00000000
00000000
00000000
00000000
00000000
00000000
00000000
00000000
00000000
00000000
00000000
00000000
00000000
00000000
00000000
00000000
00000000
00000000
00000000
00000000
00000000
00000000
00000000
00000000
00000000
00000000
00000000
00000000
00000000
00000000
00000000
00000000
00000000
00000000
00000000
00000000
00000000
00000000
00000000
00000000
00000000
00000000
00000000
00000000
00000000
00000000
00010000
00000000
00000000
00000000
00000000
00000000
00000000
00000000
00000000
00000000
00000000
00000000
00000000
00000000
00000000
00000000
00000000
00000000
00000000
00000000
00000000
00000000
00000000
00000000
00000000
00000000
00000000
00000000
00000000
00000000
00000000
00000000
00000000
00000000
00000000
00000000
00000000
00000000
00000000
00000000
00000000
00000000
00000000
01000100
00000000
00000000
00000000
00000000
,
01000000
00000000
00010000
00010000
,
00010000
00000000
00001000
00001000
,
00001000
01000000
00010000
01000000
,
00100000
00000000
10000000
00010000
,
10010000
00000000
10000000
01000000
,
00010000
00000000
00001000
00010000
,
00000100
00000000
00001000
00000001
,
00000010
00000000
00000001
00000100
,
00001000
00000000
00010000
00001000
,
01000000
00000000
00001000
00010000
,
00000100
00000000
00010000
00010000
,
00000000
00000000
00001000
00000000
00000000
00001000
00000000
00000000
00001000
00000000
00000000
00000000
00000000
00000000
00000000
00000000
,
01000000
00010000
00100000
00010000
,
10000000
00100000
10000000
00000000
,
01000000
00100000
00010000
01000000
,
00001000
00010000
00000100
00000000
,
00000110
00000000
00000010
00000001
,
00001001
00000000
00001000
00000010
,
00010000
00001000
00010000
00001000
,
00000000
00000000
00100000
00000000
00000000
00100000
00000000
00000000
00100000
00000000
00000000
00000000
00000000
00000000
00000000
00000000
,
02000000
00000000
10000000
00000000
,
10000000
10000000
13000000
00000000
,
00200000
00000000
00010000
00000000
,
00010000
00010000
00310000
00000000
,
00001000
00010000
00000100
00000100
,
00010000
00001000
01000000
01000000
,
00001000
00010000
00000010
00010000
,
00001000
00100000
02000000
00000000
,
23000000
00000000
00000000
30000000
,
00100000
01000000
00100000
01000000
00200000
00000000
00300000
00000000
,
10000000
01000000
00100000
00010000
,
01000000
00001000
00010000
00000010
,
00001000
00000000
00001000
00000100
,
00000020
00000032
00002003
00003020
,
00000030
00010000
00001000
00010000
,
00000100
00001000
00000100
00010000
,
00001000
00000000
00001000
01000000
,
00100000
00100000
00200000
00300000
,
10000000
01000000
00100000
00010000
,
01000000
00001000
00020000
00030000
,
00000010
00001000
00000100
00000010
,
00000001
00000100
00000020
00000030
,
00001000
00000100
00010000
00010000
,
00001000
01000000
00010000
00010000
,
00100000
01000000
00100000
00001000
,
00010000
00000010
00000100
00000100
,
00002002
00000000
00000000
00000000
00003003
00000000
00010000
00010000
,
00000100
00000000
00010000
00010000
00000100
00000000
00010000
00010000
,
00000100
00000000
00001000
00000010
00010000
00000000
00001000
00001000
,
01000000
00000000
00001000
00001000
01000000
00000000
00001000
00001000
,
01000000
00000000
00010000
00100000
00002000
00000000
00000000
00000000
,
00000000
00000000
00000000
00003000
00100000
00000000
00010000
00000000
,
01000000
01000000
00001000
00010000
,
00001000
00001000
00000010
00000100
,
00000010
00000100
00001000
00000001
,
00001000
00000001
00000100
00001000
,
00010000
00010000
01000000
00010000
,
00001000
00001000
00000100
00001000
,
00010000
00100000
20000000
00010000
,
30010000
00000000
10010000
10000000
,
01000000
00010000
00011000
00001000
,
00010000
00000000
00000100
00000000
00000010
00000001
00000010
00000000
,
00000100
00001000
00000100
00000000
00000010
00000001
00000010
00000000
,
00000100
00010000
00011000
00001000
,
01000000
00010000
10010000
10000000
,
01000000
00000000
00000000
00000000
00010000
00000000
00000000
00000000
00001000
00000000
00000000
00001000
00000000
00000000
00001000
00000000
,
00000000
00000000
00000010
00000000
00000000
00000000
00000010
00000000
00000000
00000000
00000001
00000000
00000000
00000001
00000000
00000000
,
00000002
00000003
00001001
00001000
,
00000100
00010000
00011000
00001000
,
01000000
00000000
00010000
00000000
00100000
01000000
00100000
00000000
,
00010000
10000000
00010000
00000000
01000000
00100000
01000000
00000000
,
00010000
10000000
11000000
01000000
,
00010000
00001000
00011000
00010000
,
00001000
00000000
00000000
00000000
00000010
00000000
00000000
00000000
00000100
00000000
00000000
00000100
00000000
00000000
00000100
00000000
,
00000000
00000000
00001000
00000000
00000000
00000000
00001000
00000000
00000010
00000000
00000000
00000010
00000000
00000000
00000100
00000000
,
00000000
00000100
00000000
00000000
00000001
00000000
00000000
00000000
00002002
00000000
00000000
00000000
00000000
00000000
00000000
00000000
,
00000000
00000000
00000000
00000000
,
00000000
00000000
00003003
00000000
;

//--------------- dance-double - forcednature ----------------
#NOTEDATA:;
#STEPSTYPE:dance-double;
#DESCRIPTION:forcednature;
#CREDIT:forcednature;
#DIFFICULTY:Medium;
#METER:14;
#RADARVALUES:0,0,0,0,0;
#NOTES:
00000000
00000000
00000000
00000000
,
00000000
00000000
00000000
00000000
,
00000000
00000000
00000000
00000000
,
00000000
00000000
00000000
00000000
,
00000000
00000000
00000000
00000000
,
00000000
00000000
00000000
00000000
00010000
00001000
00000100
00000010
,
00020000
00000000
00000100
00000000
00031000
00010000
01000000
00100000
,
00002000
00000000
01000000
00000000
00013000
00001000
00000010
00000100
,
00001000
00000000
00001000
00000010
00000100
00001000
00010000
00100000
,
02000000
03000000
00020000
00030000
10000000
01000000
00010000
00001000
,
00100000
00000000
00110000
00000000
00001000
00010000
00001000
00000010
,
00000100
00000000
00001100
00000000
00001000
00000010
00000100
00000010
,
00010000
00000000
00011000
00000000
00001000
00100000
01000000
10000000
,
00100000
00000000
01100000
00000000
01000000
00001000
00010000
00100000
,
10000000
00000000
11000000
00000000
01000000
00010000
00001000
00000010
,
00000100
00000000
00001100
00000000
00001000
00000010
00000100
00000001
,
00000010
00000000
00000000
00000010
00000000
00000000
00000010
00000000
00000100
00000000
00010000
00000000
00001000
00000000
01000000
00000000
,
00000000
00000000
01100000
00000000
00000000
01100000
00000000
00000000
02200000
00000000
00000000
00000000
03300000
00000000
00000000
00000000
,
10000000
00000000
00000000
00100000
00000000
00000000
10000000
00000000
01000000
00000000
00010000
00000000
00001000
00000000
00000010
00000000
,
00000100
00000000
00000000
00010000
00000000
00000000
00000010
00000000
00001000
00000000
00000100
00000000
00000010
00000000
00000001
00000000
,
00000100
00000000
00000000
00001000
00000000
00000000
00000100
00000000
00000001
00000000
00000010
00000000
00001000
00000000
00010000
00000000
,
00100000
00000000
00000000
10000000
00000000
00000000
01000000
00000000
00100000
00000000
00000000
00000000
00010000
00000000
00000000
00000000
,
01010000
00000000
01001000
00000000
00011000
00000000
00010000
00000100
,
00001100
00000000
00010100
00000000
00011000
00000000
00001000
01000000
,
00010000
00000000
00000000
00010000
00000000
00000000
00010000
00000000
00100000
00000000
01000000
00000000
00010000
00000000
00001000
00000000
,
00000000
00000000
00011000
00000000
00000000
00011000
00000000
00000000
00022000
00000000
00000000
00000000
00033000
00000000
00000000
00000000
,
00020000
00001000
00000100
00001000
,
00000010
00000000
00001000
00000000
00000100
00000100
00030100
00000000
,
00002000
00010000
01000000
00010000
,
00100000
00000000
00010000
00000000
01000000
01000000
01003000
00000000
,
00001000
00010000
00001000
00010000
00000100
00001000
00000010
00000000
,
00010000
00001000
00010000
00001000
01000000
00010000
00100000
00000000
,
00020100
00030010
01002000
00103000
,
00001000
00010000
00000010
00001000
00000100
00010000
00001000
01000000
,
00020000
00000000
00000000
00000000
,
00130000
01000000
00010000
00001000
00000010
00000000
00000110
00000000
,
00000000
00000100
00010000
00000010
00000100
00001000
00010000
00100000
,
01000000
00001000
00100000
01000000
00010000
00000000
00001000
00000010
,
00000001
00000000
00000100
00000001
00000010
00000000
00000110
00000000
,
00000100
00010000
00001000
01000000
00100000
00010000
00001000
00000000
,
02000000
00000000
03001000
00100000
01000000
00010000
00001000
00000010
,
00000100
00010000
00000010
00000100
00001000
00000000
00010000
00100000
,
10000000
00000000
01000000
10000000
00100000
00000000
01100000
00000000
,
01000000
00001000
00000100
00001000
00010000
00000000
00011000
00000000
,
00000100
00000000
00000000
00001000
00000000
00000000
00000010
00000000
00000000
00000000
00000001
00000000
00000010
00000000
00001000
00000000
,
00000100
00000000
00000000
00010000
00000000
00000000
00001000
00000000
00100000
00000000
00100000
00000000
00010000
00000000
00000000
00000000
,
01000000
00000000
00000000
00010000
00000000
00000000
00100000
00000000
00000000
00000000
10000000
00000000
00100000
00000000
00010000
00000000
,
01000000
00000000
00000000
00001000
00000000
00000000
00010000
00000000
00000010
00000000
00001000
00000000
00000100
00000000
00000000
00000000
,
00000110
00000000
00000010
00001000
00010000
00000000
00100000
00010000
,
00001000
00000000
00000100
00001000
00010000
00000000
01000000
00010000
,
00001000
00000000
00000000
00000010
00000000
00000000
00001000
00000000
00010000
00000000
00000000
00100000
00000000
00000000
00010000
00000000
,
00001000
01000000
00010000
01000000
00100000
10000000
01000000
00010000
,
00002000
00000000
00000000
00000000
00000000
00000000
00000000
00000000
00003000
00000000
00000000
00000000
00010000
00000100
00001000
00000100
,
00010000
00000000
00000000
00000000
00010000
00000100
00001000
00000100
00010000
00000000
00000000
00000000
00010000
00000100
00001000
00000100
,
00000010
00000000
00000100
00001000
00000010
00000000
00000100
00000010
00010000
00000000
00000000
00000000
00001000
01000000
00010000
01000000
,
00001000
00000000
00000000
00000000
00001000
01000000
00010000
01000000
00001000
00000000
00000000
00000000
00001000
01000000
00010000
01000000
,
00001000
00000000
01000000
00010000
00100000
00000000
01000000
00100000
00002000
00000000
00000000
00000000
00000000
00000000
00000000
00000000
,
00000000
00013000
00000010
00001000
,
00010000
01000000
00100000
00100000
,
10000000
01000000
00100000
00010000
01000000
00000000
00100000
00000000
,
00010000
00001000
00000100
00000010
,
00001000
00000100
00000010
00000001
00000100
00000000
00000100
00000010
,
00010000
00001000
01000000
01000000
00010000
00000000
00100000
01000000
,
00100000
00001000
00010000
00010000
00100000
10000000
00010000
10000000
,
01000000
00010000
00001000
00000010
00000002
00000003
00002000
00003000
,
00000100
00000010
00000110
00000000
00000010
00000001
00000100
00001000
,
00000100
00000001
00000020
00000000
00000130
00010000
00001000
00100000
,
00010000
00000000
01000000
00000000
00200000
00000000
00000000
00000000
20300000
00000000
00000000
32000000
00000000
00000000
03020000
00000000
,
00000000
00032000
00000000
00000000
00003020
00000000
00000000
00000030
00000002
00000000
00000000
00000203
00000000
00000000
00002300
00000000
,
00000000
00023000
00000000
00000000
00230000
00000000
00000000
00300000
01000000
00000000
00010000
00000000
00100000
00000000
01000000
00000000
,
00100000
00001000
00020000
00000000
00030010
00000100
00001000
00000100
,
00000001
00000000
00000010
00000000
00000200
00000000
00000000
00000000
00010300
00000000
00000000
00100000
00000000
00000000
00010000
00000000
,
00001000
00000000
01000000
00000000
00010000
00000000
00100000
00000000
00000000
00000000
01100000
00000000
00000000
01100000
00000000
00000000
,
01100000
00000000
10010000
00000000
10000000
00100000
00010000
00100000
,
01000000
00000000
00001000
00010000
00002000
00000000
00000000
00000000
00013000
00000000
00000100
00000000
00000010
00000000
00000001
00000000
,
00000100
00000000
00000001
00000010
00000002
00000000
00000000
00000000
00000203
00000000
00000000
00002300
00000000
00000000
00023000
00000000
,
00000000
02030000
00000000
00000000
23000000
00000000
00000000
00000000
30200000
00000000
00000000
00320000
00000000
00000000
00032000
00000000
,
00000000
00003020
00000000
00000000
00000032
00000000
00000003
00000000
00001001
00000000
00000000
00000000
00001000
00000000
00000100
00000000
,
00000010
00001000
00010000
01000000
01100000
00000000
00010000
01000000
,
00100000
00000000
00010000
00000000
00001000
00000000
00000100
00000000
00000010
00000000
00000000
00000110
00000000
00000000
00000100
00000000
,
00001000
00000000
00010000
00000000
01000000
00000000
00100000
00000000
00001000
00000000
00000000
00000010
00000000
00000000
00000001
00000000
,
00000000
00000100
00000000
00000000
00000110
00000000
00000000
00000000
00002002
00000000
00000000
00000000
00000000
00000000
00000000
00000000
,
00000000
00000000
00000000
00000000
,
00000000
00000000
00003003
00000000
;

//--------------- dance-double - forcednature ----------------
#NOTEDATA:;
#STEPSTYPE:dance-double;
#DESCRIPTION:forcednature;
#CREDIT:forcednature;
#DIFFICULTY:Hard;
#METER:17;
#RADARVALUES:0,0,0,0,0;
#NOTES:
00000000
00000000
00000000
00000000
,
00000000
00000000
00000000
00000000
,
00000000
00000000
00000000
00000000
,
00000000
00000000
00000000
00000000
,
00000000
00000000
00000000
00000000
,
00000000
00000000
00000000
00000000
00001000
00010000
01000000
00100000
,
00020000
01000000
10000000
00100000
,
00032000
00000100
00000001
00000010
,
00013000
00000000
01000000
00000000
00010000
00000000
00100000
00000000
00001000
00010000
00000100
00010000
00001000
00010000
00000100
00010000
,
00002000
00000000
00003000
00000000
00000020
00000000
00000030
00000000
00000001
00000100
00000010
00001000
00000002
00000000
00000000
00000000
,
00000013
00000000
00000100
00001000
00000000
00000100
00010000
00000000
00002000
00000000
02003000
00000000
03020000
00000000
20030000
00000000
,
31000000
00000000
00100000
00010000
00000000
00100000
00001000
00000000
00020000
00000000
00030020
00000000
00002030
00000000
00003002
00000000
,
00000013
00000000
00000100
00001000
00000000
00000001
00000100
00000000
00000020
00000000
00002030
00000000
00023000
00000000
02030000
00000000
,
03100000
00000000
10000000
00010000
00000000
10000000
01000000
00000000
00200000
00000000
00320000
00000000
00032000
00000000
00003200
00000000
,
00010300
00000000
00000010
00001000
00000000
00000010
00000100
00000000
00000002
00000000
00000023
00000000
00002030
00000000
00023000
00000000
,
00030100
00000000
00001000
00000010
00000000
00010000
00000010
00000000
00000200
00000000
00002300
00000000
00023000
00000000
00230000
00000000
,
01300000
00000000
00010000
10000000
00000000
00000000
10000000
00000000
00010000
00000000
00100000
00010000
00100000
00000000
01000000
00000000
,
00000000
00000000
00101000
00000000
00000000
00011000
00000000
00000000
00020200
00000000
00000000
00000000
00030300
00000000
00000000
00000000
,
00000100
00000000
00001000
00000010
00000000
00000100
00000001
00000000
00000020
00000000
00000230
00000000
00020300
00000000
00030020
00000000
,
00001030
00000000
00000100
00010000
00000000
00001000
00010000
00000000
00200000
00000000
20300000
00000000
32000000
00000000
03020000
00000000
,
00031000
00000000
00100000
00010000
00000000
00100000
01000000
00000000
20000000
00000000
30200000
00000000
00320000
00000000
00032000
00000000
,
01003000
00000000
00010000
00100000
00000000
01000000
00100000
00000000
00001000
00000000
00010000
00000100
00010000
00000000
00001000
00000000
,
00201000
00000000
01000000
00000000
10300000
00100000
00001000
00010000
,
00010020
00000000
00000100
00000000
00000031
00000010
00010000
00001000
,
01000000
00000000
00010000
10000000
00000000
10000000
00010000
00000000
00100000
01000000
00100000
01000000
00100000
01000000
00100000
01000000
,
00000000
00000000
00101000
00000000
00000000
00011000
00000000
00000000
00020200
00000000
00000000
00000000
00030300
00000000
00000000
00000000
,
00012000
00010000
01000000
01000000
,
00010000
00000000
00000000
00010000
00000000
00000000
00103000
00001000
00010000
00000100
00000000
00000000
,
00021000
00001000
00000100
00000100
,
00001000
00000000
00000000
00000000
00001000
00000000
00000000
00000000
00030010
00000000
00010000
00000000
00001000
01000000
00001000
01000000
,
00010000
00000000
10000000
00000000
01000000
00000000
10000000
00000000
00100000
00000000
10000000
00000000
01000000
00000000
00010000
00001000
,
00010000
00000000
00000000
00000100
00000000
00000000
00001000
00000000
00000000
00000100
00000000
00000000
00000010
00000000
00000001
00000000
00000010
00000000
00000001
00000000
00000000
00000100
00000000
00000000
,
00000010
00001000
00000010
00000000
00010000
00000000
00001000
00000000
00100000
00010000
00100000
00000000
00001000
00000000
00010000
00000000
,
00000100
00010000
00001000
00000000
01000000
00001000
00010000
00000000
00001000
00010000
00001000
00010000
00001000
00010000
00001000
00010000
,
00000020
00000000
00000000
00000000
,
00000130
00000001
00000010
00001000
00010000
00000000
01100000
00000000
,
10000000
01000000
00010000
00000100
00001000
00000010
00010000
00100000
,
10000000
01000000
00010000
00001000
00000010
00000000
00000001
00000100
,
00010000
00000000
01000000
00001000
00100000
00000000
01100000
00000000
,
01000000
10000000
01000000
00010000
00000100
00001000
00000010
00000000
,
00010000
00000000
00001000
00010000
00001000
00000000
01000000
00000000
00010000
00000000
00100000
00000000
00001000
00000000
00000010
00000000
,
00000001
00000100
00001000
00010000
00100000
00000000
10000000
01000000
,
00001000
00000000
00000100
00010000
00000010
00000000
00000110
00000000
,
00000001
00001000
00010000
10000000
00100000
00000000
00011000
00000000
,
00010000
00000100
00000000
00000010
00000100
00000000
00001000
00000010
00000000
00010000
00001000
00000000
00001000
00000000
00001000
00000000
,
00100000
00000000
00000000
00010000
00000000
00000000
00000000
00000000
00000000
10000000
00000000
00000000
00100000
00000000
00000000
00000000
00000000
00000000
01000000
00000000
00000000
00000000
00000000
00000000
00001000
00000000
00000000
00000000
00010000
00000000
00000000
00000000
00001000
00000000
00000000
00000000
00010000
00000000
00000000
00000000
00000000
00000000
00000000
00000000
00000000
00000000
00000000
00000000
,
00000100
00001000
00000000
00000100
00000010
00000000
00000001
00000100
00000000
00000010
00010000
00000000
00010000
00000000
00010000
00000000
,
00001000
00100000
00000000
01000000
10000000
00000000
00100000
00000000
01000000
00000000
00010000
00000000
10000000
01000000
10000000
01000000
,
00010000
00001000
00010000
00100000
01000000
00100000
00010000
00001000
,
00000010
00000000
00000000
00000100
00000000
00000000
00000010
00000000
00000000
00001000
00000000
00000000
00010000
00000000
00000100
00000000
00001000
00000000
00000010
00000000
00000000
00000000
00000000
00000000
,
00000100
00000000
00001000
00010000
00000000
00001000
00100000
00000000
01000000
00000000
00010000
00001000
00000000
00010000
00000010
00000000
,
00001000
00000100
00010000
00000000
00001000
01000000
00010000
00000000
00100000
01000000
00100000
01000000
10000000
01000000
00100000
00010000
,
02000000
00000000
00000000
00000000
00000000
00000000
00000000
00000000
03000000
00000000
00000000
00000000
00001000
00010000
00100000
01000000
,
00002000
00000000
00003000
00000000
00001000
00010000
00100000
01000000
00002000
00000000
00003000
00000000
00001000
00010000
00100000
01000000
,
00100000
00010000
00001000
00000100
00001000
00010000
00001000
00000010
00000200
00000000
00000300
00000000
00010000
00001000
00000010
00000100
,
00020000
00000000
00030000
00000000
00010000
00001000
00000010
00000100
00020000
00000000
00030000
00000000
00010000
00001000
00000010
00000100
,
00000010
00001000
00010000
01000000
00010000
00001000
00010000
00100000
02000000
00000000
00000000
00000000
00000000
00000000
00000000
00000000
,
00000000
03001000
00012000
00010000
,
01000000
01000000
00010000
00010000
,
00100000
00000000
00000000
00000000
00103000
00000000
00001000
00000000
00020000
00000000
00000000
00000100
00000000
00000000
00000100
00000000
,
00000000
00001000
00000000
00000000
00001000
00000000
00000000
00000000
00000010
00000000
00000000
00000010
00000000
00000000
00001000
00000000
,
00000000
00001000
00000000
00000000
00030100
00000000
00010000
00000000
00001000
00000000
01000000
00000000
00010000
00000000
01000000
00000000
,
00100000
00000000
10000000
00000000
01000000
00000000
00100000
01000000
00100000
00000000
00001000
00000000
00010000
00000000
00000100
00000000
,
00010000
00000000
00000010
00000000
00001000
00000001
00001000
00000001
00000010
00000000
00000100
00000000
00010000
00000000
00001000
00000000
,
01000000
00010000
01000000
00010000
10000000
01000000
00100000
00010000
02000000
00000000
03000000
00000000
00002000
00000000
00003000
00000000
,
00010000
00000100
00010000
00001000
00200000
00000000
00000000
00000000
01300000
00000000
10000000
00010000
10000000
00000000
00100000
01000000
,
00000000
00010000
01000000
00000000
00001000
00010000
00001000
00000000
00100000
00000000
00010000
01000000
00010000
00000000
00100000
00001000
,
00000000
00010000
00000010
00000000
00001000
00000001
00001000
00000000
00000100
00001000
00000000
00000100
00000010
00000000
00000001
00000010
,
00000000
00000100
00000010
00000000
00000100
00000000
00010000
00000000
00001000
01000000
00000000
00010000
01000000
00000000
00100000
10000000
,
00000000
00010000
10000000
00000000
01000000
00000000
01000000
00000000
00100000
00000000
00001000
00010000
00001000
00000000
01000000
00010000
,
00000000
00100000
00001000
00000000
00010000
00000100
00010000
00000000
00001000
00000000
01000000
00010000
01000000
00000000
00001000
00010000
,
00000000
00000010
00001000
00000000
00000001
00000010
00000001
00000000
00001000
00000000
00000100
00010000
00000000
00000000
00001000
00000000
,
01000000
00010000
01000000
00010000
10000000
01000000
10000000
01000000
00000000
00000000
00101000
00000000
00000000
00011000
00000000
00000000
,
00010100
00000000
00000000
00000100
00000010
00000000
00000000
00000000
00000001
00000100
00000010
00001000
00000001
00000000
00000010
00000100
,
00000000
00000100
00010000
00000000
00001000
00100000
00001000
00000000
01000000
00010000
10000000
00100000
01000000
00000000
00001000
00010000
,
00000000
00010000
00000100
00000000
00001000
00000010
00001000
00000000
00000100
00010000
00000000
00001000
00100000
00000000
00001000
00010000
,
00000000
00000100
00001000
00000000
00000010
00000000
00010000
00000000
00001000
01000000
00000000
00010000
10000000
00000000
01000000
00100000
,
00000000
00001000
00010000
00000000
00000100
00000000
00000100
00000000
00000010
00000001
00001000
00000100
00000010
00000000
00000100
00010000
,
00000000
00010000
00001000
00000000
01000000
00010000
01000000
00000000
00100000
10000000
00010000
01000000
00100000
00000000
10000000
01000000
,
00000000
01000000
00010000
00000000
00001000
00100000
00001000
00000000
00010000
00000000
00000010
00001000
00000000
00001000
00000010
00000000
,
00010000
00000100
00010000
00001000
01000000
00010000
01000000
00100000
10000000
00000000
00000000
01000000
00000000
00000000
00010000
00000000
,
00000000
00000010
00000000
00000000
00000110
00000000
00000000
00000000
00002002
00000000
00000000
00000000
00000000
00000000
00000000
00000000
,
00000000
00000000
00000000
00000000
,
00000000
00000000
00003003
00000000
;
