#TITLE:Game;
#SUBTITLE:;
#ARTIST:浜崎あゆみ;
#TITLETRANSLIT:;
#SUBTITLETRANSLIT:;
#ARTISTTRANSLIT:Ayumi Hamasaki;
#GENRE:;
#CREDIT:Braeden;
#MUSIC:Game.ogg;
#BANNER:game-ban.png;
#BACKGROUND:game-bg.png;
#JACKET:game-jacket.png;
#CDTITLE:;
#SAMPLESTART:66.540;
#SAMPLELENGTH:11.000;
#SELECTABLE:YES;
#OFFSET:-0.028;
#BPMS:0.000=88.000
,47.000=100.000
,47.500=105.000
,48.000=110.000
,48.500=115.000
,49.000=120.000
,49.500=125.000
,50.000=130.000
,50.500=140.000
,51.000=150.000
,51.500=160.000
,52.000=170.000
,52.500=180.000
,53.000=193.000
,55.000=200.000
,284.500=190.000
,285.000=185.000
,285.500=180.000
,286.000=175.000
,286.500=170.000
,287.000=165.000
,287.500=155.000
,288.000=145.000
,288.500=135.000
,289.000=123.000
,289.500=88.000
;
#STOPS:101.000=0.300
,154.000=0.300
;
#DISPLAYBPM:88.000:200.000;
#BGCHANGES:;
#FGCHANGES:;

//--------------- dance-single - ----------------
#NOTES:
     dance-single:
     :
     Beginner:
     4:
     0.154,0.223,0.027,0.055,0.005:
0000
0000
0000
0000
,
0000
0000
0000
0000
,
0001
0000
0000
0000
,
0100
0000
0000
0000
,
0001
0000
1000
0000
,
0010
0000
0100
0000
,
0001
0000
0000
0000
,
0100
0000
0010
0000
,
1000
0000
0001
0000
,
0010
0000
0100
0000
,
1000
0000
0000
0000
,
0001
0000
1000
0002
,
0000
0000
0000
0000
,
0000
0003
0000
1001
,
0000
0001
0000
0100
,
0000
0010
0000
1000
,
0000
0100
0000
0010
,
0000
0001
0000
1001
,
0000
1000
0000
0010
,
0000
0100
0000
0001
,
0000
1000
0000
0001
,
0000
0010
0000
1001
,
0000
1000
0000
0000
,
0001
0000
0000
0100
,
0000
0000
0010
0000
,
0000
1001
1001
0000
,
0001
0000
0100
0000
,
0010
0000
1000
0000
,
0100
0000
1000
0000
,
0001
0000
0100
0000
,
0010
0000
1000
0000
,
0001
0000
0010
0000
,
0100
0000
0010
0000
,
0001
0000
1001
0000
,
1000
0000
0010
0000
,
1000
0000
0001
0000
,
0010
0000
0100
0000
,
1000
0000
0020
0000
,
0000
0000
1030
0000
,
0000
1001
0000
1000
,
0000
0001
0000
0100
,
0000
0010
0000
1000
,
0000
0001
0000
0010
,
0000
1001
0000
0100
,
0000
0001
0000
1000
,
0000
0001
0000
0010
,
0000
0100
0000
1000
,
0000
1001
0000
0001
,
0000
1000
0000
0010
,
0000
0100
0000
0001
,
0000
1000
0000
0010
,
0000
1001
0000
0001
,
0000
1000
0000
0010
,
0000
0100
0000
0001
,
0000
1000
0000
0001
,
0000
0200
0000
0000
,
0302
0000
0000
1003
,
0000
0020
0000
0000
,
0230
0000
0000
0301
,
0000
1001
0000
1000
,
0000
0000
0000
0001
,
0000
0000
0000
0100
,
0000
0000
0000
0010
,
0000
0200
0000
0000
,
0320
0000
0000
0130
,
0000
0020
0000
0000
,
0230
0000
0000
0301
,
0000
1001
0000
1000
,
0000
0000
0000
0001
,
0000
1000
0000
0000
,
0000
0000
0001
0020
,
0000
0000
0000
0000
,
0000
0030
1001
0000
;

//--------------- dance-single - ----------------
#NOTES:
     dance-single:
     :
     Easy:
     7:
     0.261,0.287,0.165,0.055,0:
0000
0000
0000
0000
,
0000
0000
0000
0000
,
0002
0000
0000
0103
,
0020
0000
0000
0000
,
0130
0001
0100
0000
0010
1000
0010
0000
,
2000
3002
0203
0310
,
1000
0001
1000
0000
0001
0100
0001
0000
,
1000
0001
1001
1000
,
0010
0100
0010
0000
1000
0001
1000
0000
,
0001
0200
0310
1000
,
0001
0001
0001
0000
1000
0000
0010
0000
,
0100
0001
2000
3M02
,
0000
0000
0000
0000
,
0000
0000
0003
1001
,
1000
2002
3003
1000
,
0001
0010
0100
1000
,
0010
2020
3030
1000
,
0001
0010
0001
1001
,
1000
2200
3300
0010
,
0001
1000
0010
0100
,
0001
2002
3003
1000
,
0100
0010
0001
1000
,
0010
0000
1000
0000
0000
0001
0000
0000
,
0100
0000
0000
0010
0000
0000
1000
0000
,
0000
0001
0000
0000
1000
0000
0000
0010
,
0000
1001
0110
0010
,
1000
0000
0001
0010
,
0002
0003
0100
0010
,
0100
0000
0001
1000
,
0020
0030
1000
0100
,
0010
0000
0001
0100
,
0200
0300
0010
1000
,
0010
0000
1000
0100
,
2000
3000
1001
0100
,
0001
0000
1000
0010
,
0020
0030
1000
0100
,
0010
0000
0001
1000
,
0001
0000
2000
0000
,
0000
0000
3001
0100
,
0000
0101
0001
1000
,
0010
1000
0100
1000
,
0001
0010
0100
1000
,
0010
2000
0000
0002
,
3003
1001
0001
0010
,
0001
0100
0001
0010
,
0001
1000
0100
0010
,
0001
0002
0000
0020
,
0033
1001
1000
0010
,
0100
0001
0010
0100
,
1000
0001
0010
0001
,
0100
0002
0000
2000
,
3003
1001
1000
0010
,
1000
0001
0010
0001
,
0100
0010
1000
0001
,
0010
0100
0000
1000
,
0000
2001
0000
0000
,
3020
0000
0000
0130
,
0000
0002
0000
0000
,
2003
0000
0000
3001
,
0000
0000
1001
0000
0000
1000
0000
0001
,
0000
2000
0000
0000
0000
0000
3010
0000
,
0000
0000
0100
0000
0000
0001
0000
1000
,
0000
2000
0000
0000
0000
0000
3010
0000
,
0000
2001
0000
0000
,
3020
0000
0000
0130
,
0000
0000
0001
0000
0000
1000
0000
0000
,
0002
0000
0000
1003
,
0000
1001
0000
0001
,
0000
1000
0000
0000
0010
0000
1000
0000
,
0000
0000
0001
0000
0000
0100
0000
0000
,
0000
0001
0000
0000
1000
0000
0001
0000
,
0000
0200
0000
0000
0000
0000
0000
0000
,
0000
0000
0000
0300
0002
0000
0000
0000
,
0000
0003
0000
0000
;

//--------------- dance-single - XMOD XO- ----------------
#NOTES:
     dance-single:
     XMOD XO-:
     Medium:
     11:
     0.346,0.414,0.247,0.037,0.005:
0000
0000
0000
0000
,
0000
0000
0000
0000
,
1000
0001
1000
0001
0100
0010
0200
0000
,
0301
0010
0001
1000
0010
0100
0001
0010
,
0100
0000
1000
0000
0001
0000
1000
0010
0100
0000
0001
0000
1000
0000
0010
1000
,
0010
0000
0100
0000
0001
0000
0010
0000
0200
0000
0000
0000
0310
0000
0001
1000
,
0001
0000
1000
0010
1000
0000
0001
0000
0010
0000
0100
0000
1000
0000
0001
0000
,
1000
0000
0010
1000
0000
0001
0000
0000
0010
0000
0000
0100
2000
0000
0000
0000
,
3010
0000
0100
0000
0001
0000
0010
0100
0010
0000
0001
0000
1000
0000
0010
0000
,
0100
0001
0010
0100
2000
0000
3001
0100
,
0001
0010
0100
1000
0010
0100
0001
1000
,
0010
0000
0100
0001
0000
0100
0000
0000
0010
0000
0000
1000
0M02
0000
0000
0000
,
0000
0000
0000
0000
,
0000
0000
0003
1001
,
1000
0000
0100
0001
0000
0100
1000
0000
,
0010
0110
0100
0001
,
1000
0000
0100
0001
0000
0100
0020
0000
,
0031
0200
0310
1010
,
1000
0000
0100
0001
0000
0100
0010
0000
,
0100
1100
2000
3010
,
0100
0000
0010
0001
0000
0010
2000
0000
,
3001
0200
0310
1010
,
1000
0000
0001
0100
0001
0010
0001
0000
,
1000
0010
0000
1000
0010
0000
0100
0001
,
0100
0010
0100
0000
0001
0010
0000
0001
,
1000
1M01
0011
0001
,
1000
0000
0000
0001
0010
0100
1000
0100
,
0010
0001
0100
0000
0010
1000
0010
1000
,
0010
0000
0000
1000
0100
0010
0001
1000
,
0010
0100
0001
0000
1000
0100
0010
0100
,
1000
0000
0000
0001
0100
0010
1000
0010
,
0100
0001
1000
0000
0100
0010
0001
0010
,
0200
0000
0300
0000
1000
0001
0010
0001
,
1000
0100
0010
0000
0011
0000
0001
1000
,
0020
0000
0030
0000
1000
0100
0010
0001
,
1000
0010
0100
0000
0001
0010
0100
1000
,
0002
0000
0003
0000
1000
0100
0010
0001
,
1000
0010
0100
0001
2000
0000
0000
0000
,
0000
0000
310M
2000
,
3000
0000
0001
0100
0010
1000
0001
0010
,
0001
0000
1000
0100
0010
0001
1000
0010
,
0100
0000
0001
0010
0000
0001
0000
0100
,
0001
2000
0000
0002
,
3003
0000
1001
0000
0001
0100
0001
0010
,
0100
0000
1000
0010
0100
0001
0100
0010
,
1000
0000
0001
0010
0000
0100
1000
0001
,
1000
0002
0000
0200
,
0303
0000
0100
0010
0100
0001
0100
0010
,
1000
0000
0001
0010
0100
1000
0100
0010
,
0001
0000
1000
0010
0000
1000
0000
0001
,
0100
0002
0000
2000
,
3003
0000
1000
0001
1000
0010
2000
0000
,
3001
0000
0010
0100
1000
0010
0100
0000
,
0001
0000
1000
0010
0000
1000
0000
0001
,
0100
0000
0000
0000
0001
0000
0000
1000
0000
0000
0100
0000
1000
0000
0000
0000
,
0001
2001
0000
3010
,
0100
0000
0001
0100
0010
0000
1010
0000
,
0000
2000
0000
3001
,
0010
0000
0100
1000
0001
0000
0011
0000
,
0010
0000
0100
1000
0000
0010
1000
0010
,
0000
1000
0100
0000
0010
0000
0011
0000
,
0001
0000
1000
0100
0000
0010
0001
1000
,
0000
0020
0000
1030
0001
0000
0100
0000
,
0001
2002
0003
3010
,
0100
0000
0001
0010
0100
0000
2200
0000
,
3300
0000
0002
0000
0000
1003
0010
0000
,
1000
0000
0001
0010
0001
0000
2002
0000
,
3003
0000
1000
0010
0000
0100
0001
0100
,
0000
0010
0000
0000
1010
0000
0000
1001
,
0000
0000
0001
0100
0000
0101
0000
0000
,
0110
0000
0000
0000
0010
0000
0000
0000
1000
0000
0000
0000
0001
0000
0000
1000
,
0000
2200
0000
0000
0000
0000
0000
0000
,
0000
3300
2002
0000
,
0000
3003
0000
0000
0000
0000
0000
0000
;

//--------------- dance-single - XMOD XO+ FS JA FL- ----------------
#NOTES:
     dance-single:
     XMOD XO+ FS JA FL-:
     Hard:
     14:
     0.601,0.733,0.53,0.055,0.137:
0000
0000
0000
0000
,
0000
0000
0000
0000
,
0002
0100
0100
0103
0020
1000
0230
0001
,
0310
1000
0001
0010
0100
1000
0100
0010
,
0001
0000
1000
0010
0100
0000
0001
0010
0100
0000
1000
0000
0010
0000
0100
0001
,
1000
0000
0001
0010
0002
0000
1000
0000
0203
0000
0000
0000
0310
0000
1000
0001
,
1000
0000
0010
0100
0001
0000
0010
0000
0200
0000
1000
0000
1300
0001
0100
0010
,
1000
0000
0000
0000
0000
0000
0000
0000
0000
0000
0000
0000
0001
0000
0000
0000
0000
0000
0010
0000
0000
0000
0000
0000
0100
0000
0000
0000
0000
0000
1000
0000
0000
0000
0000
0000
0001
0000
0000
0000
0000
0000
0000
0000
0000
0000
0000
0010
0002
0000
0000
0000
0000
0000
0000
0000
0000
0000
0000
0000
0000
0000
0000
0000
0000
0000
1003
0000
0000
0000
0000
0000
0020
0000
0000
0000
0000
0000
0000
0000
0000
0000
0000
0000
0000
0000
0000
0000
0000
0000
0030
0000
0000
0000
0000
0000
,
1000
0000
0001
0000
0010
0000
0001
0000
1001
0000
0000
0000
1000
0000
0001
0010
0001
0000
0000
0000
0100
0000
0000
0000
0010
0000
0000
0000
1000
0000
0001
0000
,
1000
0000
0000
0000
0000
0000
0000
0000
0000
0000
0000
0000
0001
0000
0000
0000
0000
0000
0000
0000
0000
0000
0000
0000
2000
0000
0000
0000
0000
0000
0000
0000
0000
0000
0000
0000
3010
0000
0000
0000
0000
0000
0000
0000
0000
0000
0000
1000
0001
0000
0000
0000
0000
0000
0000
0000
0000
0000
0000
0000
0001
0000
0000
0000
0000
0000
0000
0000
0000
0000
0000
0000
0100
0000
0000
0000
0000
0000
0000
0000
0000
0000
0000
0000
0010
0000
0000
0000
0000
0000
0000
0000
0000
0000
0000
0000
,
1000
0000
0001
0010
0001
0000
0100
0000
0020
0000
1000
0000
1030
0001
0010
0001
,
2000
0000
3010
0100
0001
0010
0100
0000
1001
0000
0000
1000
20M2
0000
0000
0000
,
0000
0000
0000
0000
,
0000
0000
0000
0000
3003
0000
1001
1000
,
0001
0000
1000
0000
0100
00M0
0100
0000
0000
0000
0001
0000
0010
0000
0100
0000
,
1000
0100
0001
0100
0010
0001
1000
0000
,
0001
0000
1000
0000
0010
0M00
0010
0000
0000
0000
0001
0000
1000
0000
0001
1000
,
0001
0000
0000
0000
0100
0000
0000
0000
0010
0000
0000
0000
0100
0000
0000
0000
0000
0000
0010
0000
0000
1000
0000
0000
0001
0000
0000
0000
1000
0000
0000
0000
0001
0000
0000
0000
0010
0000
0000
0000
0000
0000
0000
0000
0000
0000
0000
0000
,
0110
0000
0000
0000
0100
00M0
0100
0000
0000
0000
0001
0000
1000
0000
0010
0000
,
0001
0010
0100
0001
0010
0100
1200
0000
,
1300
0000
0001
0000
0010
0M00
0010
0000
0000
0000
1000
0000
0001
0000
1000
0010
,
1000
0000
0000
0000
0100
0000
0000
0000
0010
0000
0000
0000
0001
0000
0000
0000
0000
0000
1000
0000
0000
0001
0000
0000
0100
0000
0000
0000
0010
0000
0000
0000
1000
0000
0000
0000
0001
0000
0000
0000
0000
0000
0100
0000
0000
0000
0000
0000
,
0001
1000
0100
1000
0001
0100
0001
1000
,
0010
0100
0001
0010
0100
1000
0010
1000
,
0001
0010
0001
1000
0100
1000
0001
0010
,
0001
0000
1MM1
0000
1001
1000
0001
0010
,
1000
0000
0000
0000
0000
0000
0010
0000
0001
0000
1000
0000
0100
00M0
0100
0000
,
0001
1000
0100
0000
1000
0010
1000
0010
,
0001
0000
0000
0000
0000
0000
0010
0000
1000
0000
0001
0000
0010
0M00
0010
0000
,
1000
0000
0001
0000
1000
0000
0010
1000
0001
0000
0010
0000
0001
0000
0100
0000
,
1000
0000
0000
0000
0000
0000
0100
0000
0001
0000
1000
0000
0100
00M0
0100
0000
,
0001
1000
0100
0010
0001
1000
0001
0010
,
1000
0000
0000
0000
0000
0000
0000
0000
0010
0000
0001
0000
0010
0M00
0010
0000
,
1000
0001
1000
0010
1010
1000
0001
0010
,
1000
0000
0000
0000
0000
0000
0000
0000
0010
0000
0001
0000
0100
00M0
0100
0000
,
1000
0001
0100
0010
1000
0100
1000
0100
,
0001
0000
0000
0000
0000
0000
0000
0000
0100
0000
1000
0000
0100
00M0
0100
0000
,
0001
0010
0100
1000
0002
0000
0100
0000
,
0010
1000
1MM3
2002
,
3003
0000
0001
0100
0010
0100
1000
0100
,
0001
0010
0001
1000
0010
0100
1000
0100
,
0010
1000
0001
0010
0001
0100
1000
0100
,
0001
0010
0001
0100
0010
0100
0001
0100
,
0010
1000
1002
0000
1003
0010
0001
0010
,
0100
0001
1000
0001
0010
0100
0001
0100
,
0010
0001
1000
0100
0010
0100
0001
0100
,
0010
0001
1000
0010
0100
0010
1000
0001
,
0010
0000
0011
0001
0100
0010
0001
0010
,
0100
0001
1000
0001
1000
0100
0001
0100
,
0010
0001
1000
0010
1000
0010
0001
0010
,
0100
0001
1000
0100
0010
0100
1000
0001
,
0010
0100
0120
0000
0031
0100
1000
0100
,
0010
0100
0001
1000
0100
0010
1000
0010
,
0100
1000
0001
1000
0100
0010
1000
0010
,
0100
0000
1000
0000
0001
0000
0000
0010
0000
0000
0001
0000
1000
0000
0100
0000
,
0010
0001
1000
0000
0001
0000
0100
0000
0001
0000
0100
0000
0100
0000
0010
0000
,
1000
0100
1000
0010
0100
0001
0001
0000
,
0011
0000
0010
0100
1000
0100
0100
0010
,
0001
0000
1000
0000
0100
00M0
0100
0000
0001
0000
0010
0000
0020
0000
0000
0000
,
0031
0000
0101
0100
0010
1000
1000
0100
,
0010
0001
1000
0001
1000
0000
1100
0000
,
0200
0000
1300
0010
0100
0001
0001
0010
,
0100
0000
1000
0000
0001
0000
0100
00M0
0100
0000
0010
0000
0001
0000
0000
0000
,
1000
0000
1001
0001
0010
0100
0200
0000
,
1300
0000
0010
0000
1000
0000
0100
00M0
0100
0000
0001
0000
1000
0000
0000
0000
,
0020
0000
1030
0100
1000
0010
0010
0100
,
0001
0000
0010
0000
0001
0000
0100
00M0
0100
0000
1000
0000
0020
0000
0000
0000
,
1030
0000
1001
0001
0000
0100
0010
0100
,
0001
2000
0000
3000
1010
0000
1000
1001
,
0000
0000
0001
0010
0000
0110
0100
1000
,
0001
0000
0100
0000
0001
0000
0010
0000
0001
0000
1000
0000
1001
0000
0000
0101
,
0000
MM22
0000
0000
0000
0000
0000
0000
,
0000
0000
0000
0033
2002
0000
0000
0000
,
0000
3003
0000
0000
;

//--------------- dance-double - XO ----------------
#NOTES:
     dance-double:
     XO:
     Easy:
     7:
     0.154,0.223,0.027,0.055,0.005:
00000000
00000000
00000000
00000000
,
00000000
00000000
00000000
00000000
,
00002000
00000000
00000000
00023000
,
00030020
00000000
00000000
00000000
,
00001030
00000001
00001000
00000000
00000001
00000100
00000001
00000000
,
00002000
00003020
00000230
00000310
,
00010000
00001000
00010000
00000000
00001000
01000000
00001000
00000000
,
00200000
00310000
01010000
02000000
,
03001000
00000000
00010000
00000000
00000010
00001000
00000100
00000000
,
00001000
00000001
00001000
00000000
00000200
00000000
00001300
00000000
,
00000100
00010000
00000001
00000000
00000100
00000010
00010000
00000000
,
00000001
00001000
00000020
00002030
,
00000000
00000000
00000000
00000000
,
00000000
00000000
00003000
00001100
,
00000100
00020000
00030000
00001000
,
01000000
00100000
10000000
00010000
,
00100000
02000000
03000000
10000000
,
01000000
00100000
00010000
01010000
,
01000000
00002000
00003000
00010000
,
00000100
00010000
00000100
00001000
,
00000010
00002000
00003000
00000001
,
00000010
00000100
00001000
00001001
,
00000000
00000001
00000000
00001000
,
00000000
00000010
00000000
00000100
,
00000000
00000001
00000000
00001000
,
00000000
00000010
00001000
00000100
,
00001000
00000000
00000100
00010000
,
00000200
00000300
00010000
00000100
,
00010000
00000000
00001000
01000000
,
00200000
00300000
10000000
01000000
,
00100000
00000000
00010000
00001000
,
00000200
00000300
00000010
00000001
,
00001000
00000000
00000010
00000100
,
00000002
00000003
00001001
00000001
,
00001000
00000000
00000100
00010000
,
00000100
00000000
00010000
00000100
,
00010000
00000000
00001000
01000000
,
00100000
00000000
20000000
00000000
,
00000000
00000000
30010000
00000000
,
00000000
10010000
00010000
10000000
,
01000000
00100000
00010000
00100000
,
01000000
10000000
00100000
01000000
,
00001000
00020000
00000000
00030100
,
00000000
00010100
00000100
00001000
,
00000001
00000010
00000100
00001000
,
00000100
00000010
00000001
00001000
,
00000010
00020000
00000000
00030100
,
00000000
00010100
00010000
00001000
,
01000000
00100000
01000000
00010000
,
00100000
01000000
00100000
00010000
,
10000000
00200000
00000000
01300000
,
00000000
01010000
00010000
01000000
,
00001000
00010000
00001000
00010000
,
00000100
00001000
00000100
00001000
,
00000001
00000010
00000000
00000100
,
00000000
00002000
00000000
00000000
,
00003002
00000000
00000000
00001003
,
00000000
00000020
00000000
00000000
,
00020030
00000000
00000000
00030100
,
00000000
00010100
00000000
00010000
,
00000000
00002000
00000000
00103000
,
00000000
00010000
00100000
00010000
,
10000000
00010000
00000000
01000000
,
00000000
01020000
00000000
00000000
,
02030000
00000000
00000000
03000000
,
00000000
00000000
00010000
00000000
00000000
00100000
00000000
00000000
,
00002000
00000000
00000000
00013000
,
00000000
00011000
00000000
00001000
,
00000000
00010000
00001000
00010000
,
00000000
00000000
00000100
00000000
00000000
00001000
00000000
00000000
,
00000000
00000001
00000000
00000000
00001000
00000000
00000001
00000000
,
00000000
00000200
00000000
00000000
00000000
00000000
00000000
00000000
,
00000000
00000000
00000000
00000300
00000100
00000000
00000000
00000000
;

//--------------- dance-double - XO ----------------
#NOTES:
     dance-double:
     XO:
     Medium:
     12:
     0.154,0.223,0.027,0.055,0.005:
00000000
00000000
00000000
00000000
,
00000000
00000000
00000000
00000000
,
00020000
00000100
00000100
00030100
00002000
00000001
00003002
00000100
,
00002003
00000100
00000100
00003100
00020000
00001000
00001000
00031000
,
01000000
00000000
00100000
10000000
00100000
00000000
10000000
01000000
00100000
00000000
00010000
00000000
01000000
00000000
00001000
00010000
,
00002000
00000000
00100000
00000000
00203000
00000000
00010000
00000000
00302000
00000000
00000000
00000000
00013000
00000000
00000010
00000100
,
00000010
00000000
00000100
00000001
00001000
00000000
00000100
00000000
00010000
00000000
00001000
00000000
01000000
00010000
00100000
01000000
,
10000000
00000000
01000000
00100000
00000000
00010000
00000000
00000000
00200000
00000000
00000000
00301000
00100000
00000000
00000000
00000000
,
00001000
00000000
00010000
00000100
00010000
00000000
00000100
00000000
00001000
00000000
00000001
00000000
00000010
00000000
00000100
00001000
,
00000100
00010000
00000100
00010000
00002000
00000000
01003000
00100000
,
10000000
00000000
01000000
00100000
00010000
00000000
01000000
00000000
00002000
00000000
00010000
00000000
00013000
00000010
00000100
00000001
,
00010000
00000000
00001000
01000000
00000000
00100000
00000000
00000000
1010MMMM
00000000
0000M000
10000000
0200M00M
00000000
0000MMMM
00000000
,
00000000
00000MM0
0000M00M
0000MMMM
0000M00M
00000000
0000M0M0
000M0M0M
,
000M0M0M
000M0M0M
00000000
0000MMMM
0300M000
0000MMMM
1001M000
0000MMMM
,
10000000
00000000
01000000
00010000
00000000
00001000
00000010
00000000
,
00000001
00001001
00001000
00000010
,
00001000
00000000
00000100
00000001
00000000
00000100
00001000
00000000
,
00000200
00100300
00010000
01010000
,
00010000
00000000
10000000
01000000
00000000
00010000
01000000
00000000
,
10000000
00000000
00010000
01000000
00010000
00000000
01000000
00000000
,
00010000
00000000
00100000
01000000
00000000
00100000
00010000
00000000
,
02000000
03001000
00010000
00010010
,
00000010
00000000
00001000
00000001
00001000
00000100
00001000
00000000
,
00000001
00000100
00000000
00000001
00000010
00000000
00000001
00001000
,
00000000
00000100
00001000
00000000
00000010
00010000
00000000
00001000
,
00010000
0M011000
00001000
10000000
,
10100000
00000000
00000000
10000000
01000000
00100000
00010000
00100000
,
01000000
10000000
00010000
00000000
00100000
00001000
00100000
00001000
,
00010000
00000000
00000000
00000010
00001000
00000100
00000010
00000001
,
00000010
00000100
00001000
00000000
00000001
00000100
00000010
00000100
,
00000001
00000000
00000000
00010000
00000100
00001000
00000100
00010000
,
00001000
00010000
00000100
00000000
00010000
00001000
01000000
00100000
,
01000000
00000000
00000000
00000000
00010000
10000000
00100000
01000000
,
00001000
00010000
00001000
00000000
00011000
00000000
00010000
00000100
,
00001000
00000000
00000000
00000000
00000001
00000010
00000100
00001000
,
00000100
00000010
00000100
00000000
00001000
00000100
00010000
00000100
,
00010000
00000000
00000000
00000000
00001000
01000000
00100000
10000000
,
01000000
00100000
00000000
00000000
00002000
00000000
00000000
00000000
,
00000000
00000000
0M013000
00020000
,
00030000
00000000
00001000
00010000
00000100
00000000
00000100
00001000
,
00000001
00000000
00001000
00000010
00001000
00000000
00000001
00000100
,
00000001
00000000
00001000
00000100
00000000
00001000
00000100
00010000
,
00001000
02000000
00000000
03002000
,
00003000
00000000
01001000
00001000
01000000
00001000
00010000
00001000
,
00010000
00000000
00000100
00001000
00000000
00000100
00001000
00000010
,
00001000
00000000
00000100
00000010
00000000
00000001
00000010
00000100
,
00001000
00000002
00000000
00020003
,
00030000
00000000
00010010
00000010
00000000
00010000
00001000
01000000
,
00100000
00000000
10000000
01000000
00000000
00010000
01000000
10000000
,
00100000
00000000
01000000
00001000
00000000
00010000
00000000
00000100
,
00010000
00000002
00000000
00002003
,
00003000
00000000
00000110
00000010
00000000
00001000
00000100
00000010
,
00000001
00000000
00001000
00000010
00000000
00001000
00000100
00010000
,
00001000
00000000
01000000
00010000
00000000
10000000
00010000
00100000
,
00010000
00000000
00000000
00000000
10000000
00000000
00000000
00010000
00000000
00000000
01000000
00000000
00200000
00000000
00000000
00000000
,
01300000
01020000
10000000
10030000
,
00020000
00100000
00001000
00130000
,
00001000
00000000
00020000
00000000
00030010
00000100
00000010
00000000
,
00001000
00000000
00000001
00001000
00000100
00000000
00022000
00000000
,
00033000
00000000
00010100
00000100
00000000
01000000
00010000
01000000
,
00100000
02000000
00000000
00000000
03010000
00000000
01010000
00000000
,
01000000
00000000
00000100
00010000
00000000
00000010
00000100
00000010
,
00001000
00000001
00000000
00001000
00000100
00000000
00000010
00000000
,
00000001
00000102
00000000
00001003
,
00000010
00000000
00010000
00001000
00010000
00001000
00100000
00000000
,
00001000
00000000
02000000
00000000
03010000
01000000
00010000
00000000
,
10000000
01000000
00100000
00010000
00100000
00000000
00101000
00000000
,
00000000
00000000
00011000
00010000
00000000
00000010
00000100
00000001
,
00000000
00001100
00000000
00000000
00010100
00000000
00000100
01000000
,
00010000
00000000
10000000
00010000
00000000
10010000
00000000
00010000
,
01000000
00000000
00001000
00000000
00000000
00000000
00000000
00000000
00010000
00000000
00000000
00000000
00000001
00000000
00000000
00001000
,
00000000
00000020
00000000
00000000
00000000
00000000
00000000
00000000
,
00000000
00000030
00000000
00000000
;

//--------------- dance-double - XO+ FS ----------------
#NOTES:
     dance-double:
     XO+ FS:
     Hard:
     15:
     0.154,0.223,0.027,0.055,0.005:
00000000
00000000
00000000
00000000
,
00000000
00000000
00000000
00000000
,
00020000
00001000
00000100
00031000
00100000
00010000
20000000
00100000
,
30010000
01000000
00001000
00010000
00000020
00000000
00000000
00000000
,
00001030
00000000
00000001
00000100
00000001
00000000
00001000
00000100
00000010
00000000
00000001
00000000
00001000
00000000
00000100
00010000
,
00001000
00000000
00010000
00000100
00020000
00000000
00000100
00000000
00031000
00000000
00000000
00000000
01000000
00000000
00100000
10000000
,
00100000
00000000
10000000
00000000
01000000
00000000
00100000
00000000
00010000
00000000
00001000
00000000
00000100
00000010
00000001
00001000
,
00000001
00000000
00000100
00000010
00001000
00000100
00010000
00000000
00011000
00000000
00000000
00001000
00200000
00000000
00000000
00000000
,
00310000
00000000
00100000
01000000
10000000
00000000
01000000
00100000
00010000
00000000
00100000
00000000
00001000
00000000
00010000
00001000
,
00100000
00001000
00020000
00000100
00032000
00000000
00003000
00000010
,
00000100
00000000
00000001
00000100
00000001
00000000
00001000
00000000
00000100
00000000
00010000
00000000
00001000
00100000
00010000
01000000
,
00100000
00000000
10000000
01000000
00100000
00010000
01000000
00000000
00010000
00000000
00000000
00100000
000020M0
00000000
00000000
00000000
,
00000000
00000000
00000000
00000000
,
00000000
00000000
00000000
00000000
00003000
00000000
00011000
00001000
,
01000000
00000000
00100000
M0000000
00100000
00000000
00010000
00000000
00000000
00000000
01000000
00000000
00010000
00000000
01000000
00000000
,
00100000
00010000
00100000
01000000
00010000
10000000
00010000
00100000
,
00001000
00000000
00010000
00000M00
00010000
00000000
00200000
00000000
00000000
00000000
00301000
00000000
00010000
00000000
00000100
00001000
,
00000010
00000000
00000000
00000000
00000100
00000000
00000000
00000000
00000010
00000000
00000000
00000000
00001000
00000000
00000000
00000000
00000000
00000000
00000001
00000000
00000000
00001000
00000000
00000000
00000010
00000000
00000000
00000000
00001000
00000000
00000000
00000000
00000001
00000000
00000000
00000000
00001000
00000000
00000000
00000000
00000000
00000000
00000100
00000000
00000000
00000000
00000000
00000000
,
00000001
00000000
00000100
000000M0
00000100
00000000
00002000
00000000
00000000
00000000
00003100
00000000
00010000
00000000
00001000
00000000
,
00010000
00001000
01000000
00100000
00010000
00100000
01000000
00010000
,
10000000
00000000
00100000
0M000000
00100000
00000000
00010000
00000000
00100000
00000000
00001000
00000000
00010000
00000000
00000100
00001000
,
00000100
00000000
00000000
00000000
00010000
00000000
00000000
00000000
00000100
00000000
00000000
00000000
00001000
00000000
00000000
00000000
00000000
00000000
00000001
00000000
00000000
00001000
00000000
00000000
00000001
00000000
00000000
00000000
00000010
00000000
00000000
00000000
00000100
00000000
00000000
00000000
00001000
00000000
00000000
00000000
00000000
00000000
00000010
00000000
00000000
00000000
00000000
00000000
,
00001000
00000001
00000010
00000001
00010000
00001000
00010000
00000100
,
00001000
00000100
01000000
00010000
01000000
00100000
10000000
00100000
,
10000000
00010000
10000000
01000000
00100000
00010000
10000000
00100000
,
01000000
00000000
01M10000
00000000
01010000
01000000
10000000
01000000
,
00010000
00000000
01000000
00000000
00001000
00000000
00010000
00000000
00000100
00000000
00001000
00000000
00000100
000000M0
00000100
00000000
,
00000001
00000200
00000000
00000000
00000301
00000010
00000100
00000001
,
00000100
00000000
00000010
00000000
00000001
00000000
00000100
00000000
00000010
00000000
00010000
00000000
00001000
000000M0
00001000
00000000
,
00000100
00000000
00020000
00000000
00000000
00000000
00031000
00010000
00001000
00000000
01000000
00000000
00100000
00000000
00010000
00000000
,
00100000
00000000
10000000
00000000
00010000
00000000
01000000
00000000
01010000
00000000
00010000
00000000
00100000
0M000000
00100000
00000000
,
10000000
00020000
00000000
00000000
00130000
00001000
00010000
00000100
,
00001000
00000000
00000100
00000000
00000010
00000000
00000000
00000000
00000001
00000000
00000001
00000000
00000100
000000M0
00000100
00000000
,
00001000
00000100
00001000
00000100
00010100
00010000
00001000
00000100
,
00001000
00000000
00010000
00000000
00001000
00000000
00000000
00000000
01000000
00000000
00010000
00000000
01000000
00M00000
01000000
00000000
,
10000000
00010000
02000000
00000000
03100000
10000000
00001000
00010000
,
00001000
00000000
00000000
00000000
01000000
00000000
00000000
00000000
00010000
00000000
00100000
00000000
01000000
M0000000
01000000
00000000
,
00010000
00100000
01000000
10000000
00020000
00000000
01000000
00000000
,
00100000
10030000
0M100000
20000000
,
30000000
00000000
10001000
10000000
00010000
01000000
10000000
01000000
,
00010000
00100000
00001000
00010000
00000010
00000100
00001000
00000100
,
00000010
00001000
00000001
00000010
00000100
00000010
00000001
00001000
,
00000010
00000100
00000010
00001000
00000010
00010000
00001000
00100000
,
00010000
00100000
01100000
01000000
10000000
01000000
00010000
01000000
,
00100000
00010000
00001000
00000100
00001000
00010000
00001000
00010000
,
00000010
00001000
00000001
00000100
00000001
00000100
00001000
00000100
,
00000010
00010000
00001000
01000000
00100000
10000000
00010000
01000000
,
00001000
00000000
01001000
01000000
00100000
00010000
00001000
00010000
,
00001000
00100000
00001000
00010000
00000010
00000100
00001000
00000100
,
00000010
00001000
00000001
00000010
00000100
00001000
00010000
00100000
,
01000000
00100000
00010000
01000000
00100000
10000000
00010000
00100000
,
00010000
00000000
01010000
01000000
00100000
01000000
10000000
01000000
,
00100000
01000000
00010000
00100000
00001000
00010000
00001000
00010000
,
00000100
00001000
00000100
00001000
00000010
00000100
00001000
00000100
,
00000010
00000000
00001000
00000000
00002010
00000000
00000000
00000001
00000000
00000000
00003001
00000000
00001010
00000000
00000000
00000000
,
00002000
00003002
00002003
00003100
,
00010000
00001000
01000000
00100000
01000000
00010000
00100000
00000000
,
00010000
00000000
20000000
00000000
30020000
00000000
00130000
00001000
,
00010000
00000100
00001000
00000010
00000100
00000001
00001000
00000000
,
00000010
00000000
00001010
00001000
00000000
00000010
00000100
00000001
,
00001000
00000100
00000020
00000000
00000031
00000000
00001001
00000000
,
00001000
00000000
00000100
00001000
00000000
00000100
00010000
00001000
,
00000000
00010000
00001000
00100000
00010000
00000000
10000000
00000000
,
00100000
10200000
20300000
30020000
,
01030000
00100000
01000000
00001000
01000000
00010000
01010000
00000000
,
01000000
00000000
00001000
00010000
00001000
00000100
00001000
00010000
,
00001000
00010000
00000100
00001000
00000010
00001000
00000001
00000010
,
00000001
00000000
00001001
00001000
00000000
00000010
00100000
00000010
,
00000000
00010000
00001000
00000000
01001000
00000000
01000000
10010000
,
00000000
00000000
00010000
01000000
00000000
00001000
00010000
00000100
,
00001000
00000000
00000100
00000000
00001000
00000000
00000001
00000000
00001000
00000000
00000000
00000000
00001001
00000000
00000000
00001100
,
00000000
000M0022
00000000
00000000
00000000
00000000
00000000
00000000
,
00000000
00000033
00000110
00000000
;
