#VERSION:0.83;
#TITLE:경고;
#SUBTITLE:;
#ARTIST:타샤니;
#TITLETRANSLIT:GYOUNG GO;
#SUBTITLETRANSLIT:;
#ARTISTTRANSLIT:TASHANNIE;
#GENRE:;
#ORIGIN:;
#CREDIT:;
#BANNER:GYOUNG GO.png;
#BACKGROUND:GYOUNG GO-bg.png;
#PREVIEWVID:;
#JACKET:GYOUNG GO-jacket.png;
#CDIMAGE:;
#DISCIMAGE:;
#LYRICSPATH:;
#CDTITLE:;
#MUSIC:GYOUNG GO.mp3;
#OFFSET:1.046000;
#SAMPLESTART:17.701000;
#SAMPLELENGTH:15.000000;
#SELECTABLE:YES;
#BPMS:0.000=110.010;
#STOPS:;
#DELAYS:;
#WARPS:;
#TIMESIGNATURES:0.000=4=4;
#TICKCOUNTS:0.000=4;
#COMBOS:0.000=1;
#SPEEDS:0.000=1.000=0.000=0;
#SCROLLS:0.000=1.000;
#FAKES:;
#LABELS:0.000=Song Start;
#BGCHANGES:2.000=GYOUNG GO.avi=1.000=0=0=1=====,
99999=-nosongbg-=1.000=0=0=0 // don't automatically add -songbackground-
;
#KEYSOUNDS:;
#ATTACKS:
;

//---------------dance-single - ----------------
#NOTEDATA:;
#CHARTNAME:;
#STEPSTYPE:dance-single;
#DESCRIPTION:;
#CHARTSTYLE:;
#DIFFICULTY:Beginner;
#METER:2;
#RADARVALUES:0.096932,0.138532,0.009424,0.000000,0.000000,72.000000,71.000000,1.000000,0.000000,0.000000,0.000000,0.000000,0.000000,0.000000,0.096932,0.138532,0.009424,0.000000,0.000000,72.000000,71.000000,1.000000,0.000000,0.000000,0.000000,0.000000,0.000000,0.000000;
#CREDIT:;
#NOTES:
0000
0000
0000
0000
,
0000
0000
0000
0000
,
0000
0000
0000
0000
,
0000
0000
0000
0000
,
0000
0000
0000
0000
,
1000
0000
1000
0000
,
0001
0000
0001
0000
,
0100
0000
0100
0000
,
0010
0000
0010
0000
,
1000
0000
1000
0000
,
0100
0000
0000
0000
,
0010
0000
0010
0000
,
0001
0000
0000
0000
,
0100
0000
0100
0000
,
0010
0000
0000
0000
,
1000
0000
1000
0000
,
0001
0000
0000
0000
,
1000
0000
0000
0000
,
0100
0000
0000
0000
,
0010
0000
0000
0000
,
0001
0000
0000
0000
,
0100
0000
0000
0000
,
0010
0000
0000
0000
,
1000
0000
0000
0000
,
0001
0000
0000
0000
,
1000
0000
1000
0000
,
0010
0000
0010
0000
,
0100
0000
0100
0000
,
0001
0000
0000
0000
,
0010
0000
0010
0000
,
0001
0000
0001
0000
,
1000
0000
1000
0000
,
0100
0000
0000
0000
,
1000
0000
1000
0000
,
0010
0000
0010
0000
,
0100
0000
0100
0000
,
0001
0000
0000
0000
,
0001
0000
0001
0000
,
0010
0000
0010
0000
,
0100
0000
0100
0000
,
1000
1000
1000
0000
,
0001
0000
0001
0000
,
1000
0000
0000
0000
,
0010
0000
0010
0000
,
0100
0000
0000
0000
,
0001
0000
0001
0000
,
0010
0000
0000
0000
,
0100
0000
0100
0000
,
1000
0000
0000
0000
,
1001
0000
0000
0000
;

//---------------dance-single - ----------------
#NOTEDATA:;
#CHARTNAME:;
#STEPSTYPE:dance-single;
#DESCRIPTION:;
#CHARTSTYLE:;
#DIFFICULTY:Easy;
#METER:5;
#RADARVALUES:0.215404,0.277063,0.047120,0.000000,0.000000,160.000000,155.000000,5.000000,0.000000,0.000000,0.000000,0.000000,0.000000,0.000000,0.215404,0.277063,0.047120,0.000000,0.000000,160.000000,155.000000,5.000000,0.000000,0.000000,0.000000,0.000000,0.000000,0.000000;
#CREDIT:;
#NOTES:
0000
0000
0000
0000
,
0000
0000
0000
0000
,
0000
0000
0000
0000
,
0000
0000
0000
0000
,
0000
0000
0000
0000
,
1000
1000
0010
0010
,
0100
0100
0001
1001
,
0001
0001
0010
0010
,
0100
0100
1000
1000
,
0001
0100
0001
0000
,
1000
0010
1000
0000
,
0001
0010
0100
1000
,
0010
0100
0001
0000
,
1000
0100
1000
0000
,
0001
0010
0001
0000
,
1000
0010
0100
0001
,
0010
0100
1000
0000
,
0001
0001
1000
1000
,
0100
0100
0010
0010
,
0100
0100
0100
0000
1000
0000
0001
0000
,
0100
0010
1000
0001
,
1000
0100
0010
0001
,
0100
0000
0010
0000
0100
0100
0100
0000
,
0001
0000
1000
0000
0100
0100
0100
0000
,
1001
0000
0000
0000
,
1000
0010
0100
0001
,
0010
0100
0010
0001
,
1000
0010
0100
0010
,
1000
0000
1000
0000
,
0001
0010
0100
1000
,
0010
0100
0001
1000
,
0100
0000
0100
0010
,
0100
0000
0100
0000
,
1000
0010
0100
0001
,
0101
0001
0010
0100
,
1100
1000
0010
0100
,
0001
0000
0001
0000
,
1000
0010
1000
0100
,
0010
0001
1000
0000
,
0001
0100
1000
0010
,
0001
0000
0001
0000
,
1000
1000
0100
0100
,
0010
0010
0001
0000
,
0100
0100
0010
0100
,
0001
0000
0001
0000
,
1000
1000
0100
0100
,
0010
0100
1000
0000
,
0001
0010
0100
1000
,
0001
0000
1000
0000
,
1001
0000
0000
0000
;

//---------------dance-single - ----------------
#NOTEDATA:;
#CHARTNAME:;
#STEPSTYPE:dance-single;
#DESCRIPTION:;
#CHARTSTYLE:;
#DIFFICULTY:Medium;
#METER:8;
#RADARVALUES:0.313682,0.346329,0.065967,0.056543,0.000000,233.000000,226.000000,7.000000,6.000000,0.000000,0.000000,0.000000,0.000000,0.000000,0.313682,0.346329,0.065967,0.056543,0.000000,233.000000,226.000000,7.000000,6.000000,0.000000,0.000000,0.000000,0.000000,0.000000;
#CREDIT:;
#NOTES:
0000
0000
0000
0000
,
0000
0000
0000
0000
,
0000
0000
0000
0000
,
0000
0000
0000
0000
,
0000
0000
0000
0000
,
1000
0100
0010
0001
,
0100
0000
0010
0000
1000
0001
0000
0001
,
1000
0010
0100
0001
,
0010
0100
0000
0100
0000
0010
0000
0001
,
1000
0000
0010
0100
0001
0000
1000
0000
,
0001
0000
0010
0100
1000
0000
0001
0000
,
1000
0010
0100
0000
0001
1000
0100
0000
,
0010
0010
0001
0001
,
1000
0000
0010
0000
0100
0001
1000
0000
,
0001
0000
0010
0000
0100
1000
0001
0000
,
0100
0000
0100
0000
0010
0100
0010
0100
,
0001
0001
1000
0000
,
0001
0000
0010
0000
0100
1000
0001
0000
,
1000
0000
0010
0000
0100
0001
1000
0000
,
0001
0001
0001
0000
1000
0100
1000
0000
,
0010
0000
1000
0000
0100
0010
0001
0000
,
1000
0000
0010
0000
0100
0001
1000
0000
,
0100
0100
0100
0000
0010
0010
0010
0000
,
0001
0100
1000
0000
1000
0100
0001
0000
,
0220
0000
0000
0330
,
0001
0000
0010
0000
0100
1000
0100
1000
,
0010
0000
0100
0000
0010
1000
0010
1000
,
0001
0000
0001
0000
1000
0000
0100
1000
,
0001
1000
0010
0100
,
0010
0000
1000
0000
0001
0010
0100
0010
,
0001
0000
1000
0000
0010
0100
0001
0000
,
1000
0000
0100
0000
0010
0001
0100
0000
,
0010
1000
0010
1001
,
0001
0000
1000
0000
0100
0010
0100
1000
,
0001
0000
1000
0000
0001
0100
0010
0100
,
0001
0000
1000
0000
0100
0010
0100
0000
,
2000
0010
0100
3001
,
1000
0000
0100
0000
0010
0001
0100
0000
,
0020
0230
0302
1003
,
0001
0010
0100
1000
,
0010
0100
0010
0100
0110
0000
1001
0000
,
0001
0010
0100
0010
0001
0000
0001
0000
,
1000
0010
0100
0010
1000
0000
1000
0000
,
0100
0100
0010
0010
0001
0001
1000
1000
,
0010
0100
0110
1001
,
0001
0001
1000
1000
0100
0000
0100
0000
,
1000
1000
0001
0001
0100
0000
0100
0000
,
0010
0100
0010
0100
0001
1000
0001
1000
,
0100
0100
0010
0100
,
1001
0000
0000
0000
;

//---------------dance-single - ----------------
#NOTEDATA:;
#CHARTNAME:;
#STEPSTYPE:dance-single;
#DESCRIPTION:;
#CHARTSTYLE:;
#DIFFICULTY:Hard;
#METER:12;
#RADARVALUES:0.461772,0.577215,0.169630,0.103663,0.226174,343.000000,325.000000,18.000000,11.000000,0.000000,0.000000,0.000000,0.000000,0.000000,0.461772,0.577215,0.169630,0.103663,0.226174,343.000000,325.000000,18.000000,11.000000,0.000000,0.000000,0.000000,0.000000,0.000000;
#CREDIT:;
#NOTES:
// measure 0
0000
0000
0000
0000
,  // measure 1
0000
0000
0000
0000
,  // measure 2
0000
0000
0000
0000
,  // measure 3
0000
0000
0000
0000
,  // measure 4
0000
0000
0000
0000
,  // measure 5
1000
0010
0001
0010
1000
1000
0001
0001
,  // measure 6
1000
0100
0001
0100
1000
0110
1000
0110
,  // measure 7
0001
0100
1000
0100
0001
0001
1000
1000
,  // measure 8
0001
0000
1010
0000
1000
0000
0101
0000
0000
0000
0001
0000
0000
0001
0000
0000
,  // measure 9
1000
0000
0100
0001
0000
0100
0000
0010
0000
0000
0010
0000
0001
0000
1000
0000
,  // measure 10
0001
0000
0100
1000
0000
0100
0000
0010
0000
0000
1000
0000
0001
0000
0000
0000
,  // measure 11
1000
0010
0100
0001
0010
0100
1000
0010
,  // measure 12
1000
0101
0001
1100
,  // measure 13
0001
0000
0010
1000
0000
0010
0000
0100
0000
0000
0100
0000
1000
0000
0001
0000
,  // measure 14
1000
0000
0010
0001
0000
0010
0000
0100
0000
0000
0001
0000
1000
0000
0000
0000
,  // measure 15
0010
1000
0100
0001
0100
1000
0010
0100
,  // measure 16
0001
0000
1000
0000
0001
0000
1000
0010
,  // measure 17
0100
0000
0001
0000
1000
0000
0100
0000
1000
0010
1000
0010
0100
0000
0001
0000
,  // measure 18
0010
0000
0001
0000
1000
0000
0010
0000
0100
0001
0100
0001
0000
0000
1000
0100
,  // measure 19
0001
0000
0110
0000
1100
0000
1001
0000
1000
0010
1000
0010
0000
0010
0100
0001
,  // measure 20
0010
0010
0001
1000
0100
0100
1000
1000
,  // measure 21
0001
1000
0001
1000
0010
0000
0010
0000
1000
0001
1000
0001
0010
0000
0010
0000
,  // measure 22
0001
0100
0001
0100
0010
1000
0000
0000
1000
0100
1000
0100
0010
0001
0000
0000
,  // measure 23
0001
1000
0100
0000
0010
0001
0100
0010
,  // measure 24
2002
0000
0000
3003
,  // measure 25
1000
0000
0100
0000
0001
0000
0100
0000
0010
0000
0001
0000
0100
0010
0100
0010
,  // measure 26
1000
1000
0001
0020
0000
1030
0010
0001
,  // measure 27
1000
0000
1000
0000
0010
0001
0010
0100
,  // measure 28
0001
1000
0101
0000
1000
0001
1100
0000
,  // measure 29
0001
0000
0100
0000
1000
0000
0100
0000
0010
0000
1000
0000
0100
0010
0100
0010
,  // measure 30
0001
0001
1000
0020
0000
0130
1000
0100
,  // measure 31
0001
1000
0100
0000
0010
0001
0100
0010
,  // measure 32
1000
1000
0001
0001
0010
0100
1000
0000
,  // measure 33
0001
0100
1000
0100
0001
1000
0110
0001
,  // measure 34
0110
1000
0100
0001
0100
1000
0110
0001
,  // measure 35
0110
0001
0100
0010
1000
0100
0001
0100
,  // measure 36
2000
0010
0100
3001
,  // measure 37
1000
0100
0010
0001
0100
0010
0001
0010
,  // measure 38
2000
0100
3002
0100
,  // measure 39
1003
0100
0010
0001
0100
0010
1000
0001
,  // measure 40
1000
0100
0001
0010
1000
0000
0110
0000
,  // measure 41
0001
0000
0100
1000
0000
0100
0000
0010
0000
0000
0010
0000
1000
0000
0001
0000
,  // measure 42
1000
0000
0100
0001
0000
0100
0000
0010
0000
0000
0010
0000
0001
0000
0000
0000
,  // measure 43
1000
0010
0001
0010
1000
0100
0001
0100
,  // measure 44
2000
0100
3002
0100
,  // measure 45
1003
0000
0010
0001
0000
0010
0000
1000
0000
0000
0001
0000
1000
0000
1000
0000
,  // measure 46
0001
0000
0010
1000
0000
0010
0000
0001
0000
0000
0001
0000
1000
0000
0000
0000
,  // measure 47
0001
0100
1000
0100
0001
0010
0100
1000
,  // measure 48
0002
0100
2003
3100
,  // measure 49
0110
0000
0000
0000
;
