#TITLE:GHOSTBUSTERS;
#SUBTITLE:;
#ARTIST:Remixed by DJ Yoshitaka;
#TITLETRANSLIT:;
#SUBTITLETRANSLIT:;
#ARTISTTRANSLIT:;
#GENRE:;
#CREDIT:;
#MUSIC:GHOSTBUSTERS.ogg;
#BANNER:GHOSTBUSTERS.png;
#BACKGROUND:GHOSTBUSTERS-bg.png;
#CDTITLE:;
#SAMPLESTART:40.704;
#SAMPLELENGTH:15.360;
#SELECTABLE:YES;
#OFFSET:-0.383;
#BPMS:0.000=125.000;
#STOPS:;
#BGCHANGES:;
#FGCHANGES:;

//--------------- dance-single - ----------------
#NOTES:
     dance-single:
     :
     Hard:
     13:
     0,0,0,0,0:
0000
0000
0000
0000
,
0000
0000
0000
0000
,
0000
0000
0000
0000
,
0000
0000
0000
0000
,
0000
0000
0000
0000
,
1001
0000
0001
0010
0100
1000
0100
0010
,
0000
0001
0100
0010
1000
0010
0100
0000
,
0001
1000
0100
1000
0001
0100
0010
0100
,
0000
0001
0010
0100
1000
0001
1001
0000
,
0001
0000
1000
0100
1000
0000
0001
0000
0100
0000
0001
0000
0010
0000
0100
0000
,
0000
0000
0100
0000
1000
0010
1000
0010
0100
0000
0001
0000
1000
0000
0000
0000
,
0100
0000
0010
0100
0010
0000
0001
0000
0100
0000
0001
0000
1001
0000
0000
0000
,
1000
0100
1000
0000
0001
0100
0001
0000
0010
0100
0010
0100
0010
0000
0001
0000
,
1000
0010
0210
0000
1300
0000
0001
0100
,
0010
1000
1200
0000
0301
0100
1000
0000
,
0001
0010
0100
0010
0002
0000
0000
0000
1003
0000
0000
0000
0110
0000
0000
0000
,
1001
0000
0100
0000
0010
0000
0000
0000
1000
0000
0001
0000
0010
0000
0100
1000
,
0100
0000
1000
0000
1020
0000
0000
0000
0031
0000
0000
0000
0010
0000
0100
0010
,
0100
0001
0021
0000
1030
0010
0001
0000
,
1000
0010
0100
0010
2000
0000
0000
0000
3001
0000
0000
0000
0110
0000
0000
0000
,
0001
0100
0001
0000
1000
0100
1000
0000
0010
0100
0010
0100
0002
0000
0000
0000
,
2003
0000
0000
3010
0100
0000
2000
0000
0000
3100
0010
0000
2000
0000
0000
3010
,
0100
0000
2000
0000
0000
3100
0010
0000
1000
0000
0010
0000
0100
0001
1000
0000
,
0002
0000
0000
0013
0100
0000
0002
0000
0000
0103
0010
0000
0002
0000
0000
0013
,
0100
0000
0002
0000
0000
0103
0010
0000
0001
0010
0001
0000
0100
0010
1000
0000
,
2100
0000
0000
3100
0010
0000
2000
0000
0000
3010
0100
0000
2000
0000
0000
3100
,
0010
0000
2000
0000
0000
3010
0100
0000
1000
0000
0010
0000
0100
0001
1000
0000
,
0102
0000
0000
0103
0010
0000
0002
0000
0000
0013
0100
0000
0002
0000
0000
0103
,
0010
0000
1000
0001
0000
0001
0010
0000
0100
1000
0100
1000
0001
0000
1000
0010
,
1000
0000
0010
0000
0210
0000
0000
0000
1300
0000
0100
0000
0001
0000
0010
0100
,
0010
0100
0210
0000
0301
0100
1000
0000
,
0010
1000
0001
1000
0200
0000
0000
0000
0310
0000
0001
0000
1001
0000
0000
0000
,
0101
0110
1000
0000
0001
0010
1000
0010
,
0100
1000
0100
0000
0021
0000
0000
0000
1030
0000
0010
0000
0001
0000
0100
0001
,
0100
0010
1020
0000
0031
0010
1000
0010
,
0100
0001
1000
0001
0020
0000
0000
0000
0130
0000
1000
0000
1001
0000
0000
0000
,
1000
0100
0010
0000
0100
0010
0001
0000
1000
0010
1000
0010
0100
0000
0001
0000
,
0201
1000
0010
0301
,
0100
0010
0000
0100
0000
0001
1000
0000
0100
0000
0100
0000
0100
0010
0001
0000
,
1200
0001
0010
1300
,
0000
0100
0010
0100
0010
0000
0001
0010
0001
0000
0001
0100
0000
0100
0010
0000
,
1020
0001
0100
1030
,
0010
0000
0100
0010
0000
0100
0001
0000
1000
0000
1000
0000
1000
0001
0100
0001
,
0020
1000
0100
0031
,
0010
0100
0010
0000
0100
1000
0100
0000
0010
0001
0010
0001
1000
0010
1000
0000
,
0110
0000
0100
0001
0010
0100
0010
0001
,
0000
0100
0001
1000
0010
0001
0010
1000
,
0001
0100
0001
0100
0020
0000
0000
0000
0030
0000
0000
0000
1001
0000
0000
0000
,
1100
0110
0001
0000
1000
0010
0001
0010
,
1000
0000
0100
1000
0000
0100
0010
0000
0001
0010
0000
0100
0020
0000
0000
0000
,
0031
0000
0100
0001
0000
0100
0010
0000
1000
0010
0000
0100
0020
0000
0000
0000
,
1030
0100
1000
0100
0010
0000
0001
0000
1000
0000
0010
0000
0110
0000
0000
0000
,
0001
0010
0001
0000
1000
0010
1000
0000
0100
0010
0100
0010
0002
0000
0000
0000
,
2003
0000
0000
3100
0010
0000
2000
0000
0000
3010
0001
0000
2000
0000
0000
3100
,
0010
0000
2000
0000
0000
3010
0001
0000
1000
0000
0010
0000
0100
0001
1000
0000
,
0002
0000
0000
0103
0010
0000
0002
0000
0000
0013
1000
0000
0002
0000
0000
0103
,
0010
0000
0002
0000
0000
0013
1000
0000
0001
0010
0100
0000
1000
0001
0100
0001
,
2000
0000
0000
3010
0100
0000
2000
0000
0000
3100
0001
0000
2000
0000
0000
3010
,
0100
0000
2000
0000
0000
3100
0001
0000
1000
0000
0100
0000
0010
0001
1000
0000
,
0002
0000
0000
0013
0100
0000
0002
0000
0000
0103
1000
0000
0002
0000
0000
0013
,
0100
1000
0100
0000
1000
0001
1000
0000
0010
0100
0010
0100
0001
0010
0100
1000
;
