#VERSION:0.83;
#TITLE:Funny Little Feeling;
#SUBTITLE:;
#ARTIST:Rock 'N' Roll Soldiers;
#TITLETRANSLIT:;
#SUBTITLETRANSLIT:;
#ARTISTTRANSLIT:;
#GENRE:;
#ORIGIN:;
#CREDIT:;
#BANNER:Funny Little Feeling.png;
#BACKGROUND:Funny Little Feeling-bg.png;
#PREVIEWVID:;
#JACKET:Funny Little Feeling-jacket.png;
#CDIMAGE:;
#DISCIMAGE:;
#LYRICSPATH:;
#CDTITLE:;
#MUSIC:Funny Little Feeling.ogg;
#OFFSET:0.003000;
#SAMPLESTART:27.746683;
#SAMPLELENGTH:13.812952;
#SELECTABLE:YES;
#BPMS:0.000=139.000;
#STOPS:60.000=1.295,
155.000=0.432;
#DELAYS:;
#WARPS:;
#TIMESIGNATURES:0.000=4=4;
#TICKCOUNTS:0.000=4;
#COMBOS:0.000=1;
#SPEEDS:0.000=1.000=0.000=0;
#SCROLLS:0.000=1.000;
#FAKES:;
#LABELS:0.000=Song Start;
#BGCHANGES:;
#KEYSOUNDS:;
#ATTACKS:
;

//---------------dance-single - ----------------
#NOTEDATA:;
#CHARTNAME:;
#STEPSTYPE:dance-single;
#DESCRIPTION:;
#CHARTSTYLE:;
#DIFFICULTY:Hard;
#METER:12;
#RADARVALUES:0.456353,0.592019,0.295141,0.364587,0.021702,368.000000,334.000000,34.000000,42.000000,34.000000,0.000000,0.000000,0.000000,0.000000,0.456353,0.592019,0.295141,0.364587,0.021702,368.000000,334.000000,34.000000,42.000000,34.000000,0.000000,0.000000,0.000000,0.000000;
#CREDIT:;
#NOTES:
// measure 0
0000
0000
0000
0000
,  // measure 1
0000
0000
0000
0000
,  // measure 2
0000
0000
0000
0000
,  // measure 3
0000
0000
0000
0000
,  // measure 4
2000
3200
0302
0023
,  // measure 5
2030
3200
0302
0203
,  // measure 6
2300
3020
0032
0203
,  // measure 7
2300
3020
0200
0330
,  // measure 8
0001
0000
1000
0100
1000
0000
0001
0000
1000
0010
1000
0000
0001
0000
0000
0000
,  // measure 9
1000
0000
0001
0010
0001
0000
1000
0000
0001
0100
0001
0000
1000
0000
1000
0000
,  // measure 10
0001
0010
0100
1000
0010
0100
1000
0100
,  // measure 11
0010
0001
0010
0100
1000
0100
0020
0000
,  // measure 12
0130
0000
0020
0000
2030
3001
1000
0100
,  // measure 13
0010
0000
0001
0010
0100
1000
0001
0001
,  // measure 14
1001
MMMM
0110
MMMM
,  // measure 15
1001
0000
0001
1000
0100
0001
0000
0001
,  // measure 16
0100
1000
0001
1000
0010
0001
0000
0001
,  // measure 17
0010
1000
0001
0010
0100
1000
0001
0010
,  // measure 18
0100
1000
1100
0100
M101
0100
110M
1100
,  // measure 19
1001
0000
1000
0001
0010
1000
0001
1000
,  // measure 20
0010
0001
1000
0001
0100
1000
0000
1000
,  // measure 21
0100
0001
1000
0100
0010
0001
1000
0100
,  // measure 22
0010
0001
0011
001M
1010
0010
M011
0011
,  // measure 23
1001
0110
0000
0000
,  // measure 24
0000
1001
0000
0000
,  // measure 25
0000
0000
1000
0100
0010
1000
1000
0010
,  // measure 26
0100
1000
1000
0010
0100
1000
0100
0010
,  // measure 27
1000
0100
0110
0000
0000
0000
0000
0000
,  // measure 28
0000
1001
0000
0000
,  // measure 29
0000
0000
0001
0100
0010
0001
0001
0010
,  // measure 30
0100
0001
0001
0010
0100
0001
0100
0000
,  // measure 31
0110
0000
0011
0000
0010
0100
1000
0100
,  // measure 32
0010
0000
0100
1000
0100
0010
0001
0100
,  // measure 33
0010
0000
0010
0100
0001
0010
0100
0010
,  // measure 34
0001
0100
0110
0100
0101
0001
1001
1001
,  // measure 35
0001
0001
2000
0000
3200
0000
0302
0000
,  // measure 36
0023
2030
3200
0302
,  // measure 37
0203
2300
3020
0032
,  // measure 38
0203
0000
1300
1000
0010
0100
0120
0000
,  // measure 39
1030
0001
0010
1000
0000
1000
0010
0001
,  // measure 40
1000
0001
0100
1000
0000
1000
0100
0001
,  // measure 41
1000
0100
0010
0001
1000
0100
0010
0001
,  // measure 42
0011
0010
101M
0010
M011
0011
1001
0000
,  // measure 43
0001
1000
0100
0001
1000
0001
0100
1000
,  // measure 44
0001
1000
0010
0001
0000
0001
0010
1000
,  // measure 45
0001
0010
0100
1000
0001
0010
0100
1000
,  // measure 46
1100
0100
M101
0100
110M
1100
1001
0000
,  // measure 47
1000
0010
0100
1000
0100
0010
0001
0001
,  // measure 48
MMM1
0100
0010
0001
0010
0100
1000
1000
,  // measure 49
1MMM
0010
0100
1000
0100
0010
0001
0001
,  // measure 50
MMM2
0203
1000
0010
,  // measure 51
0301
0100
0010
0001
0010
0100
1000
1000
,  // measure 52
1MMM
0010
0100
1000
0100
0010
0001
0001
,  // measure 53
MMM1
0100
0010
0001
0010
0100
1000
1000
,  // measure 54
2MMM
3020
0001
1030
,  // measure 55
0002
0023
1000
0031
,  // measure 56
1000
0000
0010
0000
0000
0000
1000
0000
0001
0000
0000
0001
0000
0000
0001
0000
,  // measure 57
0020
0230
2300
3002
,  // measure 58
2000
0000
0000
0000
,  // measure 59
0000
0000
0000
0000
,  // measure 60
0000
0000
0000
0000
,  // measure 61
0000
0000
0000
0000
,  // measure 62
3003
0000
0000
0000
;

//---------------dance-single - ----------------
#NOTEDATA:;
#CHARTNAME:;
#STEPSTYPE:dance-single;
#DESCRIPTION:;
#CHARTSTYLE:;
#DIFFICULTY:Medium;
#METER:9;
#RADARVALUES:0.338545,0.430559,0.182293,0.598964,0.004340,273.000000,252.000000,21.000000,69.000000,0.000000,0.000000,0.000000,0.000000,0.000000,0.338545,0.430559,0.182293,0.598964,0.004340,273.000000,252.000000,21.000000,69.000000,0.000000,0.000000,0.000000,0.000000,0.000000;
#CREDIT:;
#NOTES:
0000
0000
0000
0000
,
0000
0000
0000
0000
,
0000
0000
0000
0000
,
0000
0000
0000
0000
,
2000
3200
0320
0230
,
0302
0203
0320
0230
,
2300
3200
0320
0230
,
2300
3002
2000
3003
,
0001
0000
1000
0100
0000
0100
0010
0000
,
0001
0000
1000
0010
0000
0010
0100
0000
,
0001
0000
1000
0100
0000
0100
0010
0000
,
0100
1000
0001
0000
1000
0010
0200
0000
,
0310
0000
0200
0000
0302
1003
0001
0000
,
0010
0000
0001
1000
0010
0000
0100
0100
,
0020
1030
2000
3001
,
1001
0000
1000
0000
1000
0100
0000
0010
,
0100
0000
0010
0000
0010
0001
0000
1000
,
0001
1000
0001
0000
0001
0100
0000
0010
,
0100
0101
1100
0101
,
1100
0000
0001
0000
0001
0100
0000
0010
,
0100
0000
0010
0000
0010
1000
0000
0001
,
1000
0001
1000
0000
1000
0100
0000
0010
,
0100
1100
0101
1100
,
0101
1001
0000
0000
,
0000
0110
0000
0000
,
0000
0000
1000
0100
1000
0100
0100
0010
,
0100
0010
0010
0001
0010
0001
1000
0000
,
0001
1001
0000
0000
,
0000
0110
0000
0000
,
0000
0000
0001
0100
0001
0100
0100
0010
,
0100
0010
0010
1000
0010
1000
0001
0000
,
1000
0000
0200
0000
0310
0100
1000
0000
,
0010
0000
0100
0000
0001
0000
1000
0100
,
0010
0000
0001
0010
0100
0000
1000
0001
,
1000
0000
0001
0100
0010
0100
0001
0001
,
1000
1000
0002
0000
0023
0000
0230
0000
,
0320
2030
3020
0230
,
0320
0032
0023
0230
,
0320
0000
0031
0010
0001
1000
0002
0000
,
1003
0000
1000
0100
0000
0010
0100
0000
,
0010
0000
0010
0001
0000
1000
0001
1000
,
0001
0000
0001
0100
0000
0010
0100
0000
,
0101
1100
0101
1100
,
0001
0000
0001
0100
0000
0010
0100
0000
,
0010
0000
0010
1000
0000
0001
1000
0001
,
1000
0000
1000
0100
0000
0010
0100
0000
,
1100
0101
1100
0101
,
2000
3020
0032
0203
,
2300
3020
0032
0023
,
2030
3200
0302
0023
,
2030
3200
0001
1300
,
0002
0203
2300
3020
,
0032
0203
2300
3200
,
0302
0023
2030
3200
,
0302
0013
2000
3010
,
0002
0013
2000
3010
,
0001
0000
0010
0000
0000
0000
0001
0000
1000
0000
0000
1000
0000
0000
0001
0000
,
2000
3020
0230
0302
,
2000
0000
0000
0000
,
0000
0000
0000
0000
,
0000
0000
0000
0000
,
0000
0000
0000
0000
,
3003
0000
0000
0000
;

//---------------dance-single - ----------------
#NOTEDATA:;
#CHARTNAME:;
#STEPSTYPE:dance-single;
#DESCRIPTION:;
#CHARTSTYLE:;
#DIFFICULTY:Easy;
#METER:7;
#RADARVALUES:0.280260,0.376739,0.243058,0.642367,0.000000,226.000000,198.000000,28.000000,74.000000,0.000000,0.000000,0.000000,0.000000,0.000000,0.280260,0.376739,0.243058,0.642367,0.000000,226.000000,198.000000,28.000000,74.000000,0.000000,0.000000,0.000000,0.000000,0.000000;
#CREDIT:;
#NOTES:
0000
0000
0000
0000
,
0000
0000
0000
0000
,
0000
0000
0000
0000
,
0000
0000
0000
0000
,
2000
3002
2003
3002
,
0023
0032
0023
0032
,
2003
3002
2003
3002
,
0203
0302
0200
0303
,
0001
1000
0100
0001
,
0000
0001
0100
1000
,
0000
1000
0010
0100
,
0001
0001
1000
0001
,
0001
0000
0020
0000
0230
0300
1000
0000
,
1000
0001
1000
0001
,
0100
1000
0100
0001
,
0110
0001
0010
0100
,
1000
0001
0100
2000
,
3002
0013
1000
0100
,
0010
0110
0110
1001
,
1001
0000
1000
0110
,
1000
0100
0001
2000
,
3002
0103
1000
0010
,
0100
0110
0110
1001
,
1001
0110
0000
0000
,
0000
1001
0000
0000
,
0000
1000
0200
0010
,
0001
0001
0010
1300
,
1000
0110
0000
0000
,
0000
1001
0000
0000
,
0000
0001
0200
0010
,
1000
1000
0010
0001
,
0301
0020
0130
1000
,
0010
0100
0010
1000
,
0001
1000
0100
0010
,
0001
1001
0110
1001
,
0000
0002
2003
3002
,
2003
3020
2030
3020
,
2030
3002
2003
3002
,
2003
3100
0010
1001
,
1000
0010
0100
0001
,
1000
0100
0002
2003
,
3010
0001
0100
0010
,
0110
0110
1001
1001
,
0000
0001
0110
0001
,
0100
1000
0002
2003
,
3100
0001
0010
0100
,
0110
0110
1001
1001
,
0002
0203
0320
0230
,
0302
0023
0230
2300
,
3200
0320
0032
0203
,
0320
2030
0002
3003
,
2000
3200
0320
0230
,
2300
3020
0230
0302
,
0203
0320
2030
3200
,
0320
0032
2003
0010
,
3002
0010
2003
0010
,
3001
0010
0100
1000
,
0001
0001
1000
0001
,
2002
0000
0000
0000
,
0000
0000
0000
0000
,
0000
0000
0000
0000
,
0000
0000
0000
0000
,
3003
0000
0000
0000
;

//---------------dance-single - ----------------
#NOTEDATA:;
#CHARTNAME:;
#STEPSTYPE:dance-single;
#DESCRIPTION:;
#CHARTSTYLE:;
#DIFFICULTY:Beginner;
#METER:3;
#RADARVALUES:0.143850,0.215280,0.017361,0.086806,0.000000,116.000000,114.000000,2.000000,10.000000,0.000000,0.000000,0.000000,0.000000,0.000000,0.143850,0.215280,0.017361,0.086806,0.000000,116.000000,114.000000,2.000000,10.000000,0.000000,0.000000,0.000000,0.000000,0.000000;
#CREDIT:;
#NOTES:
0000
0000
0000
0000
,
0000
0000
0000
0000
,
0000
0000
0000
0000
,
0000
0000
0000
0000
,
2000
0000
3000
0000
,
0002
0000
0003
0000
,
2000
0000
3000
0000
,
0020
0000
0030
0000
,
0100
0000
0100
0000
,
0010
0000
0010
0000
,
1000
0000
1000
0000
,
0001
0000
1000
0000
,
0001
0000
0010
0000
,
0100
0000
1000
0000
,
0001
0000
1000
0000
,
1001
0000
0001
0000
,
0001
0000
1000
0000
,
1000
0000
0010
0000
,
0010
0010
0010
0010
,
0010
0000
1000
0000
,
1000
0000
0001
0000
,
0001
0000
0010
0000
,
0010
0010
0010
0010
,
0010
0010
0000
0000
,
0000
0100
0000
0000
,
0000
1000
1000
0000
,
0000
1000
1000
0000
,
0000
0010
0000
0000
,
0000
0100
0000
0000
,
0000
0001
0001
0000
,
0000
0001
0001
0000
,
0000
1000
0000
0100
,
0000
0010
0000
0001
,
0000
0100
0000
0010
,
0000
0100
0100
0100
,
0000
0002
0000
0003
,
0000
2000
0000
3000
,
0000
0002
0000
0003
,
0000
1000
0000
1001
,
0000
0001
0000
0001
,
0000
1000
0000
1000
,
0000
0010
0000
0010
,
0010
0010
0010
0010
,
0000
1000
0000
1000
,
0000
0001
0000
0001
,
0000
0010
0000
0010
,
0010
0010
0010
0010
,
0000
0001
0001
0001
,
0000
1000
1000
1000
,
0000
0001
0001
0001
,
0000
0010
0000
0010
,
0000
0001
0001
0001
,
0000
1000
1000
1000
,
0000
0001
0001
0001
,
0000
0010
0020
0030
,
0000
0100
0200
0300
,
0000
1000
0000
1000
,
0000
0001
0000
0001
,
0002
0000
0000
0000
,
0000
0000
0000
0000
,
0000
0000
0000
0000
,
0000
0000
0000
0000
,
0003
0000
0000
0000
;
