#VERSION:0.83;
#TITLE:Fuck Your Blood;
#SUBTITLE:;
#ARTIST:Justin Kuritzkes;
#TITLETRANSLIT:;
#SUBTITLETRANSLIT:;
#ARTISTTRANSLIT:;
#GENRE:;
#CREDIT:bpgbcg;
#MUSIC:Fuck Your Blood.ogg;
#BANNER:bn.png;
#BACKGROUND:bg.png;
#CDTITLE:;
#SAMPLESTART:66.967;
#SAMPLELENGTH:10.284;
#SELECTABLE:YES;
#OFFSET:0.454;
#BPMS:0.000=105.013;
#STOPS:;
#SPEEDS:0.000=1.000=0.000=0;
#SCROLLS:0.000=1.000;
#TICKCOUNTS:0.000=4;
#TIMESIGNATURES:0.000=4=4;
#LABELS:0.000=Song Start;
#COMBOS:0.000=1;
#ORIGIN:;
#TAGS:;
#PREVIEWVID:;
#JACKET:jacket.png;
#CDIMAGE:;
#DISCIMAGE:bn.png;
#BGCHANGES:;
#FGCHANGES:;

//--------------- dance-single - bpgbcg ----------------
#NOTEDATA:;
#STEPSTYPE:dance-single;
#DESCRIPTION:bpgbcg;
#DIFFICULTY:Beginner;
#METER:5;
#RADARVALUES:0.195831,0.231049,0,0.04422,0,124,124,0,4,0,0,0,0,0,0.195831,0.231049,0,0.04422,0,124,124,0,4,0,0,0,0,0;
#CHARTNAME:bpgbcg;
#CHARTHASH:373763985;
#BANNER:;
#CHARTSTYLE:;
#METERF:0.000000;
#LASTSECONDHINT:86.392387;
#CREDIT:bpgbcg;
#NOTES:
0000
0000
0000
0000
,
0000
0000
0000
0000
,
0000
0000
0000
0000
,
0000
0000
0000
0000
,
1000
0001
0100
0010
,
0100
0001
1000
0000
,
0001
0001
0010
0010
,
0100
0100
1000
1000
,
0001
0000
1000
0100
,
0010
0001
0000
0001
,
1000
0010
0100
0010
,
0000
1000
0001
0010
,
0000
0001
0010
0100
,
0000
0010
0100
0010
,
0001
1000
0001
0000
,
0100
0010
0100
0000
,
0001
0010
0001
0000
,
0100
0010
0010
0000
,
1000
0001
1000
0001
,
0010
0100
1000
0000
,
0001
1000
0001
1000
,
0010
0100
0001
1000
,
0100
0100
0000
0100
,
1000
0010
0100
0001
,
0010
0000
0000
0100
,
1000
0000
0000
0001
,
2000
0001
0001
3001
,
0002
1000
1000
1003
,
0200
0010
0010
0310
,
0020
0100
0100
0130
,
1000
0001
1000
0010
,
0100
0010
1000
0100
,
0010
0001
0010
0001
,
0100
0010
0100
0001
,
1000
0000
0000
0000
0001
0000
0010
0001
,
0010
0000
0100
0000
0010
0000
0100
1000
,
0100
0000
1000
0000
0001
0000
0100
0001
,
0100
0000
0010
0000
0100
0000
0010
0100
,
0010
0000
0000
0000
;

//--------------- dance-single - bpgbcg ----------------
#NOTEDATA:;
#STEPSTYPE:dance-single;
#DESCRIPTION:bpgbcg;
#DIFFICULTY:Easy;
#METER:9;
#RADARVALUES:0.30796,0.357076,0.04422,0.11055,0.093967,195,191,4,10,16,0,0,0,0,0.30796,0.357076,0.04422,0.11055,0.093967,195,191,4,10,16,0,0,0,0;
#CHARTNAME:bpgbcg;
#CHARTHASH:3168293459;
#BANNER:;
#CHARTSTYLE:;
#METERF:0.000000;
#LASTSECONDHINT:86.392387;
#CREDIT:bpgbcg;
#NOTES:
0000
0000
0000
0000
,
0000
0000
0000
0000
,
0000
0000
0000
0000
,
0000
0000
0000
0000
,
1000
0000
0010
0100
0010
0000
1000
0001
,
1000
0000
0100
0010
0100
0000
1001
0000
,
0001
0010
0001
0010
0001
1000
0001
1000
,
0010
1000
0010
1000
0010
0100
0010
0100
,
0010
1000
0000
0000
0001
0010
0100
1000
,
0100
0010
0000
0000
0001
0001
1000
0000
,
0001
0000
0010
0000
0100
0000
0010
0000
0001
0000
0000
0100
0000
0000
0001
0000
,
1000
0000
0010
0100
0010
0000
1000
0000
,
0001
0000
0000
0000
0100
0000
0010
0000
1000
0000
0000
0100
0000
0000
1000
0000
,
0001
0000
0010
0100
0010
0000
0001
0000
,
1000
0010
0100
0010
1000
0001
0010
0000
,
0001
0010
0100
0010
0001
1000
0010
0000
,
0100
0010
1000
0010
0100
0010
1000
0000
,
0100
0010
0001
0010
0100
0000
MMMM
0000
,
1000
0010
0100
0010
1000
0000
0020
0000
,
1030
0000
0001
0010
0100
0000
MMMM
0000
,
1000
0100
0010
0100
1000
0000
0200
0000
,
1300
0000
0001
0100
0010
0000
MMMM
0000
,
2000
0000
0001
0000
0000
0000
3001
1000
,
0002
0000
0023
0000
0230
0000
2300
3001
,
1001
0000
MMMM
0000
0000
0000
1000
2020
,
0000
0000
0000
0000
3030
0001
0100
0001
,
0010
0000
0000
0000
0100
0000
1000
0000
0000
0000
0000
0000
0001
0000
0000
0100
,
0000
0010
0000
0000
1000
0000
0000
0000
0000
0000
1000
0000
0001
0000
0000
0010
,
0000
0100
0000
0000
1000
0000
0000
0000
0001
0000
0000
0000
1000
0000
0000
0200
,
0000
0010
0000
0000
0010
0000
0000
0000
0310
0000
0000
0001
0000
0000
0100
0000
,
0010
0000
0000
0000
1000
0000
0000
0001
0000
0000
0010
0000
0100
0000
1000
0000
,
0100
0000
0000
0000
0010
0000
0000
0001
0000
0000
0100
0000
0010
0000
1000
0000
,
0010
0000
0000
0000
0100
0000
0000
0010
0000
0000
1000
0000
0100
0000
0010
0000
,
0001
0000
0000
0000
0010
0000
0000
0001
0000
0000
1000
0000
0010
0000
0100
0000
,
0001
0000
0000
0000
1000
0000
0000
0010
0000
0000
0100
0000
0010
0000
1000
0000
,
0100
0000
0000
0000
0010
0000
0000
0001
0000
0000
0100
0000
0010
0000
0100
0000
,
0001
0000
0000
0000
1000
0000
0000
0100
0000
0000
0010
0000
0100
0000
1000
0000
,
0010
0000
0000
0000
0100
0000
0000
0001
0000
0000
0010
0000
0100
0000
0010
0000
,
0110
0000
0000
0000
;

//--------------- dance-single - bpgbcg ----------------
#NOTEDATA:;
#STEPSTYPE:dance-single;
#DESCRIPTION:bpgbcg;
#DIFFICULTY:Medium;
#METER:11;
#RADARVALUES:0.409034,0.462098,0.143715,0.254264,0.315067,259,246,13,23,0,0,0,0,0,0.409034,0.462098,0.143715,0.254264,0.315067,259,246,13,23,0,0,0,0,0;
#CHARTNAME:bpgbcg;
#CHARTHASH:3940686872;
#BANNER:;
#CHARTSTYLE:;
#METERF:0.000000;
#LASTSECONDHINT:86.392387;
#CREDIT:bpgbcg;
#NOTES:
0000
0000
0000
0000
,
0000
0000
0000
0000
,
0000
0000
0000
0000
,
0000
0000
0000
0000
,
0001
0000
0000
0001
1000
0000
0010
0000
1000
0000
0000
0000
1000
0000
0100
0000
,
0010
0000
0000
0010
0100
0000
0000
0000
1000
0000
0000
0000
0001
0000
0100
0000
,
0010
0010
0010
0100
0001
0001
0001
1000
,
0100
0100
0100
0010
0001
0001
0001
1000
,
1020
0130
0000
0000
0001
0100
0010
1000
,
1200
0310
0000
0000
0001
0001
0010
0000
,
0001
0000
1000
0000
0100
0000
0010
0000
0100
0000
0010
0200
0000
0000
1300
0000
,
0001
0000
0000
0100
0010
0000
0100
0000
0001
0000
0000
0000
0110
0000
0000
0000
,
1000
0000
0000
0001
0100
0000
0010
0000
0100
0010
0000
0200
0000
0000
0301
0000
,
1000
0000
0000
0100
0010
0000
0100
0000
1000
0000
0000
0000
0110
0000
0000
0000
,
1000
0000
0100
0000
0001
0000
0100
0000
1000
0001
0000
0000
0100
0000
0000
0000
,
0001
0000
0100
0000
1000
0000
0100
0000
0001
1000
0000
0000
0100
0000
0000
0000
,
1000
0000
0010
0000
0001
0000
0010
0000
1000
0001
0000
0000
0010
0000
0001
0000
,
0100
0000
0000
0010
1000
0000
0010
0000
0100
0000
0000
0000
0001
0000
0000
0000
,
0010
0000
0001
1000
0000
0000
1000
0001
0000
0001
0000
0001
0100
0000
0010
0000
,
1000
0000
0100
1000
0000
0000
1000
0001
0000
0001
0000
0001
0010
0000
0010
0000
,
0100
0000
1000
0001
0000
0000
0001
1000
0000
1000
0000
1000
0100
0000
0010
0000
,
0001
0000
0100
0001
0000
0000
0001
1000
0000
1000
0000
1000
0010
0000
0010
0000
,
0100
0000
0000
0100
0010
0000
1000
0000
0000
0000
0000
0000
0100
0000
1000
0000
,
0002
0000
0003
0001
0020
0000
0030
0010
0200
0000
0300
1000
0002
0000
0103
0000
,
0110
0000
0010
1000
0000
0000
0001
0002
,
1000
0000
0000
0000
0013
0000
0000
0000
0000
0000
0000
0100
0010
0000
0002
0000
,
0023
0000
0000
0000
0230
0000
2300
0000
3000
0000
0000
0000
0001
0000
0001
0100
,
0000
0010
0000
0000
1000
0000
0000
0000
1000
0000
0100
0000
0010
0000
0100
1000
,
0000
0001
0000
0000
0100
0000
0000
0000
0100
0000
0000
0001
0000
1000
0002
0000
,
1000
0000
0000
0000
1000
0000
0000
0000
1003
0000
0000
1000
0000
0100
0020
0000
,
0100
0000
0000
0000
0130
0000
1000
0002
0000
0000
0013
0000
0100
0000
1000
0000
,
2100
0000
0000
0000
3010
0000
1000
0002
0000
0000
0103
0000
0010
0000
1000
0000
,
1010
0000
0000
0000
1000
0000
0001
2000
0000
0000
3010
0000
0100
0000
0001
0000
,
0102
0000
0000
0000
0013
0000
0001
2000
0000
0000
3100
0000
0010
0000
0001
0000
,
0011
0000
0000
0000
0001
0000
1000
0001
0000
0010
0001
0010
0100
0000
1000
0000
,
2100
0000
0000
0000
3010
0000
1000
0001
0000
0100
0001
0100
0010
0000
1000
0000
,
1010
0000
0000
0000
1000
0000
0001
1000
0000
0010
1000
0010
0100
0000
0001
0000
,
0102
0000
0000
0000
0013
0000
0001
1000
0000
0100
1000
0100
0010
0000
0001
0000
,
0011
0000
0000
0000
;

//--------------- dance-single - bpgbcg ----------------
#NOTEDATA:;
#STEPSTYPE:dance-single;
#DESCRIPTION:bpgbcg;
#DIFFICULTY:Hard;
#METER:13;
#RADARVALUES:0.541694,0.56712,0.243209,0.453254,0.657771,343,321,22,41,13,0,0,0,0,0.541694,0.56712,0.243209,0.453254,0.657771,343,321,22,41,13,0,0,0,0;
#CHARTNAME:bpgbcg;
#CHARTHASH:1894736606;
#BANNER:;
#CHARTSTYLE:;
#METERF:0.000000;
#LASTSECONDHINT:86.392387;
#CREDIT:bpgbcg;
#NOTES:
0000
0000
0000
0000
,
0000
0000
0000
0000
,
0000
0000
0000
0000
,
0000
0000
0000
0000
,
0001
0000
0000
0001
1000
0100
0010
0000
0100
0000
0000
0000
0100
0000
1000
0001
,
0100
0000
0000
0100
0010
1000
0000
0000
1000
0000
0000
0000
0110
0000
0001
0000
,
0010
0000
0010
0001
0010
0100
0001
0000
0100
0000
0100
1000
0010
0100
1000
0000
,
0100
0000
0100
0001
0100
0010
0001
0000
0010
0000
0010
1000
0100
0010
1000
0000
,
1020
0000
0031
1000
0010
0100
0000
0100
0001
0000
0001
0010
0001
0100
0010
0000
,
0120
0000
1030
0001
0010
0001
0000
0001
1000
0000
1000
0000
0010
0000
0000
0000
,
0100
0000
0001
0010
0001
0000
0100
0010
0100
0000
0001
0200
0010
0000
0310
0000
,
1000
0000
0000
0100
0010
0000
0100
1000
0001
0010
0000
001M
1000
0000
0100
0000
,
1000
0000
0000
0010
0100
0010
0001
0000
0010
1000
0000
0200
0010
0000
0310
0000
,
0001
0000
0000
0100
0010
0000
0100
0001
1000
0010
0000
M010
0001
0000
0100
0000
,
0002
0000
0103
0010
0002
0000
0013
0100
0001
0100
0000
010M
0010
0000
0001
0000
,
2000
0000
3100
0010
2000
0000
3010
0100
1000
0100
0000
M100
0010
0000
1000
0000
,
0002
0000
1003
0010
0100
0010
1000
0100
0010
0100
0000
01M0
0001
0000
0100
0000
,
2000
0000
3000
0100
0001
0000
0010
0100
1000
0000
0000
0000
MMMM
0000
0000
0000
,
2000
0000
3001
0100
0001
1000
0010
0100
0000
0100
0000
0100
0010
0000
1000
0000
,
0002
0000
1003
0100
1000
0001
0010
0100
0000
0100
0000
0100
0010
0000
0001
0000
,
2000
0000
3001
0100
0010
0100
1000
0100
0000
0100
0000
0100
0010
0000
1000
0000
,
0002
0000
1003
0100
0010
0100
0001
0100
0000
0100
0000
0100
0010
0000
0001
0000
,
2000
0000
0000
3010
0100
0010
1000
0000
0000
0000
0000
0000
1010
0000
0010
0100
,
0002
0000
0003
0001
0020
0000
0030
0010
0200
0000
0300
1000
0002
0000
0103
0000
,
0110
0000
0000
0100
0001
1000
0100
0000
0000
0000
0000
0000
0110
0000
0200
0000
,
2000
0000
3000
0000
0010
0000
0000
0000
0300
0000
0000
0001
1000
0000
0020
0000
,
1000
0000
0000
0000
0000
0000
1030
0000
0010
0000
1000
0000
0001
0000
0000
0000
0010
0000
0000
0000
0000
0000
0000
0000
0010
0000
0000
0001
0000
0000
2000
0000
,
0000
0000
0100
0000
0000
0000
3100
0000
1000
0000
0001
0000
0010
0000
0000
0000
1000
0000
0000
0000
0010
0000
0000
0000
1000
0000
0000
0010
0000
0000
0200
0000
,
1000
0000
0000
1300
0100
1000
0001
0000
0100
0000
0000
0100
0000
0010
2000
0000
,
0001
0000
0000
0000
0000
0000
0000
0000
0001
0000
0000
0000
0000
0000
0000
0000
0001
0000
0000
0000
0000
0000
3001
0000
0000
0010
0000
0000
0002
0000
0000
0000
,
1000
0000
0000
0000
0103
0000
0001
2000
0000
3100
0010
0001
0011
0000
0001
0000
,
2100
0000
0000
0000
3001
0000
1000
0002
0000
0103
0010
1000
1010
0000
1000
0000
,
0102
0000
0000
0000
1003
0000
0001
2000
0000
3010
0100
0001
0101
0000
0001
0000
,
2010
0000
0000
0000
3001
0000
1000
0002
0000
0013
0100
1000
1100
0000
1000
0000
,
0021
0000
0000
0000
0031
0000
1000
0001
0000
0010
001M
1000
1020
0000
0130
0000
,
0102
0000
0000
0000
0010
0000
1003
0001
0000
0100
010M
1000
1200
0000
0310
0000
,
0012
0000
0000
0000
1003
0000
0010
1000
0000
0010
M010
0001
0021
0000
0130
0000
,
2100
0000
0000
0000
0010
0000
3001
1000
0000
0100
M100
0001
0201
0000
0310
0000
,
1010
0000
0000
0000
;
