#TITLE:Fractal;
#SUBTITLE:;
#ARTIST:SHIKI;
#TITLETRANSLIT:;
#SUBTITLETRANSLIT:;
#ARTISTTRANSLIT:;
#GENRE:;
#CREDIT:;
#MUSIC:Fractal.ogg;
#BANNER:Fractal-banner.png;
#BACKGROUND:Fractal-bg.png;
#CDTITLE:;
#SAMPLESTART:16.934;
#SAMPLELENGTH:15.190;
#SELECTABLE:YES;
#OFFSET:-1.744;
#BPMS:0.000=158.000;
#STOPS:;
#BGCHANGES:;
#FGCHANGES:;

//--------------- dance-single - Cremie ----------------
#NOTES:
     dance-single:
     Cremie:
     Beginner:
     3:
     0,0,0,0,0:
0000
0000
0000
0000
,
0000
0000
0000
0000
,
0000
0000
0000
0000
,
0000
0000
0000
0000
,
0000
0000
0000
0000
,
0000
0000
0000
0000
,
1000
0000
0000
0000
,
1000
0000
0000
0000
,
0001
0000
0000
0000
,
0001
0000
0000
0000
,
0010
0000
0000
0000
,
0001
0000
0000
0000
,
1000
0000
0000
0000
,
0010
0000
0010
0000
,
0010
0000
0000
0000
,
1000
0000
1000
0000
,
0100
0000
0010
0000
,
0001
0000
0000
0000
,
0010
0000
0100
0000
,
1000
0000
0001
0000
,
1000
0000
0010
0000
,
0010
0000
0100
0100
,
0200
0000
0000
0300
,
0002
0003
2000
3000
,
0100
0000
1000
0000
,
0010
0010
0010
0000
,
0100
0000
0000
0000
,
0001
0000
0000
0000
,
1000
0000
0000
0000
,
0010
0000
0000
0000
,
1000
0000
0000
0000
,
0001
0000
0000
0000
,
0010
0000
0010
0000
,
1001
0000
0000
0000
,
0001
0000
0000
0000
,
0010
0010
0010
0000
,
0100
0000
0000
0000
,
1000
0000
0100
0100
,
0100
0000
1000
1000
,
1000
0000
0001
0001
,
0001
0000
0100
0000
,
0100
0100
0100
0000
,
0001
0000
0000
0000
,
0010
0000
0000
0000
,
0100
0000
0000
0000
,
1000
0000
0000
0000
,
0010
0000
0100
0100
,
0100
0000
0001
0000
,
1000
1000
1000
0000
,
0001
0001
0001
0000
,
1000
0000
0000
0000
,
1000
0000
0000
0000
,
0001
0000
0000
0000
,
0010
0000
0100
0000
,
0010
0000
0000
0000
,
0001
0000
0001
0000
,
1000
0000
0010
0000
,
0100
0100
0100
0100
,
0000
0000
0010
0010
,
2000
3000
0002
0003
,
0100
0000
0010
0000
,
1000
1000
1000
0000
,
0001
0000
0010
0000
,
0100
0100
0100
0000
,
0020
0030
0002
0003
,
2000
3000
0200
0300
,
1000
0000
1000
0000
,
0001
0000
0001
0000
,
0100
0000
0000
0000
,
0010
0000
1000
0000
,
0002
0000
0000
0003
,
2000
3000
0200
0300
,
0010
0000
0010
0000
,
0001
0001
0001
0000
,
2002
0000
0000
0000
,
0000
0000
0000
0000
,
3003
0000
0000
0000
;

//--------------- dance-single - Cremie ----------------
#NOTES:
     dance-single:
     Cremie:
     Easy:
     6:
     0,0,0,0,0:
0000
0000
0000
0000
,
0000
0000
0000
0000
,
0000
0000
0000
0000
,
0000
0000
0000
0000
,
0000
0000
0000
0000
,
0000
0000
0000
0000
,
1000
0000
0000
0000
,
1000
0000
0000
0000
,
0001
0000
0000
0000
,
1001
0000
0000
0000
,
0001
0010
0001
0010
,
0200
0300
0100
1000
,
0200
0300
1000
0010
,
2000
3000
0002
0003
,
0100
0001
0100
0001
,
2000
3000
0200
0300
,
0010
0001
0020
0030
,
0100
1000
0200
0300
,
1000
0010
1000
0000
,
0001
0010
0001
0000
,
0020
0030
0200
0300
,
1000
0001
0100
0000
,
0002
0000
1003
0000
,
2000
0000
3200
0000
,
0310
0001
0010
0000
,
0001
0100
0001
0000
,
1000
0010
1000
0000
,
0010
0100
0010
0000
,
0100
0001
0100
0000
,
0001
0100
0001
0000
,
1000
0100
0010
0000
,
0100
0010
0001
0000
,
2000
3000
0002
0003
,
1001
0000
0000
0000
,
0002
0003
0100
0000
,
0010
0010
0010
0000
,
1000
0100
1000
0100
,
0020
0030
0002
0003
,
0100
0001
0100
0000
,
0001
1000
0001
0000
,
1000
0010
1000
0000
,
1002
1000
1003
0000
,
1000
0001
1000
0000
,
0001
0100
0001
0000
,
0100
0010
0100
0000
,
0010
1000
0010
0000
,
2000
0000
3000
0000
,
0002
0000
0003
0000
,
0100
0001
0100
0001
,
1000
0000
0000
0000
,
0010
0000
1000
0100
,
1000
0000
0010
1000
,
0010
0000
0100
0001
,
0100
0000
1001
0000
,
0001
0000
0010
0001
,
0010
0000
0100
1000
,
0100
0000
1000
0010
,
1000
1000
0001
0001
,
0000
1000
0100
1000
,
0002
0003
0010
0001
,
0020
0030
0200
0300
,
1000
1000
1000
0000
,
0010
0000
1000
0001
,
0020
0100
0100
0100
,
0230
0300
2000
3000
,
0010
1000
0010
1000
,
0001
0010
0100
0000
,
0010
0100
1000
0000
,
0200
0300
0020
0030
,
0001
1000
0010
0000
,
2000
0000
3001
0010
,
0002
0000
0013
0100
,
0100
1000
0001
1000
,
2001
0001
3001
0000
,
2002
0000
0000
0000
,
0000
0000
0000
0000
,
3003
0000
0000
0000
;

//--------------- dance-single - Cremie ----------------
#NOTES:
     dance-single:
     Cremie:
     Medium:
     10:
     0,0,0,0,0:
0000
0000
0000
0000
,
0000
0000
0000
0000
,
0000
0000
0000
0000
,
0000
0000
0000
0000
,
0000
0000
0000
0000
,
0000
0000
0000
0000
,
2000
3010
2000
3100
,
0002
0013
0002
0103
,
0010
1010
0100
0101
,
1001
0000
0000
0000
0000
0000
1000
0001
,
1000
0000
0010
0000
0100
0000
0001
1000
,
0002
0000
0010
0000
1003
0100
1000
0000
,
0010
0000
1000
0000
0001
0000
0010
0100
,
1000
0010
0100
1001
,
1000
0000
0000
0000
0100
0000
0010
0000
0001
0000
0000
0100
0000
0000
0001
0000
,
0010
0000
0000
0100
0000
0000
1000
0000
0100
0000
0000
0000
1100
0000
0000
0000
,
0021
0031
1020
1030
,
1000
0100
0010
0001
0010
0100
1000
0000
,
0001
0000
0100
0001
0100
0000
0010
0000
,
1000
0000
0100
0010
0001
0000
0010
0100
,
2000
3001
0020
0031
,
0100
0001
0100
0000
0001
1000
0001
0000
,
0020
0001
0100
0031
,
0200
0010
0302
0010
,
0103
0000
0000
0001
0000
0000
0100
0000
0010
0000
0000
1000
0000
0000
0010
0000
,
1000
0000
0000
0001
0000
0000
0010
0000
0100
0000
0000
1000
0000
0000
0010
0000
,
2000
0000
3100
0000
1000
0001
1000
0000
,
0002
0000
0013
0000
0001
1000
0001
0000
,
0020
0000
0031
0000
0010
0100
1000
0000
,
0200
0000
1300
0000
0100
0010
0001
0000
,
1001
0000
0000
0000
0001
1000
0001
1000
,
0001
0000
0000
0000
0100
0010
0100
0010
,
0100
0000
0000
0000
0001
0010
0100
1000
,
1001
0000
0000
0000
,
2001
0100
0001
0010
,
3002
0000
0003
0000
0002
0000
0003
0000
0010
0000
0000
0100
0000
0000
0010
0000
,
0100
0000
1000
0100
0000
0010
0001
0000
,
0100
0010
0100
0000
0010
1000
0010
1000
,
0001
0011
1000
1100
,
2000
0010
3002
0010
,
1003
0100
0000
1000
0010
0100
0001
0000
,
0010
0001
0010
0100
1000
0001
1000
0000
,
0100
1000
0000
0100
0010
0100
0010
0000
,
0001
0100
0000
0010
1000
0010
1000
0000
,
0100
0010
0000
0001
1000
0001
1000
0000
,
0010
0100
0000
0010
1000
0010
1000
0000
,
2100
0000
0000
0000
0000
0000
0001
0000
3002
0000
0000
0203
0000
0000
0320
0000
,
2030
0000
3100
0010
0002
0000
0023
0000
,
0230
0000
1000
0000
0310
0001
1000
0000
,
1002
1003
0000
0000
,
1000
0000
0100
0000
0010
0001
0010
0001
,
0100
0000
0110
0000
0010
1000
0010
1000
,
0100
0010
0001
1000
,
0010
0100
0010
0100
0010
0000
1001
0000
,
0001
0000
0100
0000
0010
1000
0010
1000
,
0100
0000
0000
0010
0000
0000
0001
0000
0010
0000
0000
0100
0000
0000
1000
0000
,
0001
0000
0100
0000
0010
1000
0001
0000
,
0010
0100
0010
0100
0010
0000
1001
0000
,
0000
0000
0001
0000
0100
0010
0100
0001
,
2000
0000
3100
0000
0010
0100
1000
0100
,
1000
0000
0010
0100
0001
0000
0100
0001
,
2000
0000
3100
0010
0001
0000
1001
0000
,
0001
0000
0010
0100
0010
0100
1000
0100
,
1000
0000
0000
0010
0000
0000
1000
0000
0000
0001
0000
0000
0010
0000
0100
0000
,
2000
0010
3200
0010
,
1300
0010
1000
0010
0100
0001
0100
0000
,
0001
0000
0011
0000
0010
0100
1000
0000
,
0010
0000
1010
0000
1000
0001
0100
0001
,
2000
0100
3002
0010
,
0103
0010
0100
0010
0100
0000
1001
0000
,
2000
0000
0100
0000
0001
0000
3100
0010
,
0002
0000
0103
0010
2000
0000
0010
0000
,
3001
0010
0000
0001
0100
0010
0000
1000
,
0100
0000
0000
0010
0000
0000
0001
0000
0010
0000
0000
0100
0000
0000
1000
0000
,
2002
0000
0000
0000
,
0000
0000
0000
0000
,
3003
0000
0000
0000
;

//--------------- dance-single - Cremie ----------------
#NOTES:
     dance-single:
     Cremie:
     Hard:
     12:
     0,0,0,0,0:
0000
0000
0000
0000
,
0000
0000
0000
0000
,
0000
0000
0000
0000
,
0000
0000
0000
0000
,
0000
0000
0000
0000
,
0000
0000
0000
0000
,
1001
0000
0001
0000
0010
0100
1000
0000
,
1001
0000
1000
0000
0100
0010
0001
0000
,
0101
0000
0100
0000
0010
1000
0001
0000
,
1001
0000
0000
0000
0000
0000
0000
0000
0000
0000
0001
0000
1000
0100
0000
0010
,
0001
0000
0010
0100
0010
0001
0010
1000
,
0010
0000
1100
0000
1000
0010
0100
0001
,
0010
0100
0010
0000
0001
1000
0001
0000
,
1000
0100
0010
0001
0010
0100
1000
0000
,
1010
0000
0101
0000
0001
0010
0100
1000
,
0002
0000
0000
0203
0000
0000
0320
0000
1030
0000
0001
0000
1000
0000
0100
0000
,
0020
0000
0031
0100
0020
0000
1030
0100
,
0010
0000
0001
0000
0010
0100
0000
0010
0100
0000
1000
0000
1001
0000
0000
0000
,
1000
0010
1000
0001
0010
0100
1000
0000
,
0100
1000
0001
0100
0001
0010
1000
0010
,
0001
0101
0010
1010
,
1000
0001
1000
0100
0001
0100
1000
0000
,
1010
1000
0100
0010
0001
0100
0001
0000
,
0101
0001
0100
0010
1000
0001
1000
0000
,
0001
0000
0010
0100
0000
0010
0100
0000
1000
0000
0010
0000
0100
0000
0001
0000
,
0010
0100
0000
0010
0000
0100
0010
0000
0100
1000
0000
0100
0000
1000
0100
0000
,
1000
0001
0010
0100
0001
0100
1000
0000
,
0001
1000
0010
0100
1000
0100
0001
0000
,
0010
0100
0001
0100
0010
0001
1000
0000
,
0010
0000
0100
0000
1000
0000
0100
0000
0001
0100
0000
0001
0010
0000
0000
0000
,
0011
0000
0000
0001
0100
0010
1000
0100
,
1100
0000
0000
1000
0010
0001
0010
1000
,
1010
0000
0000
0000
0000
0000
0010
0100
0010
0000
1000
0000
0100
0000
0010
0000
,
0011
0000
0000
0000
0000
0000
0000
0000
0001
1000
0000
0001
1000
0000
0000
0000
,
0001
0100
0001
0010
1000
0010
0100
1000
,
0020
0100
0230
0001
0301
1000
0001
0000
,
0011
0001
1000
0010
0100
1000
0100
0010
,
2000
0100
3001
1001
,
0001
0000
1000
0100
0000
1000
0100
0000
0010
0000
1000
0000
0010
0000
0001
0000
,
0200
0000
0301
1000
0020
0000
1030
0100
,
0010
0001
0010
0100
1000
0001
0100
0000
,
0001
0000
1000
0000
0010
0100
0000
0001
0000
1000
0000
0100
0010
0000
0000
0000
,
0001
0000
0010
0001
0000
0010
0001
0000
1000
0000
0010
0000
1010
0000
0000
0000
,
1000
0000
0100
1000
0000
0100
1000
0000
0001
0000
0100
0000
0101
0000
0000
0000
,
0001
0000
0100
0010
0000
0100
0010
0000
1000
0000
0100
0000
1100
0000
0000
0000
,
1000
0000
0010
0100
0000
0010
0100
0000
0001
0000
0010
0000
0011
0000
0000
0000
,
0001
0000
0100
0000
0010
0000
0100
0000
2000
0000
0000
3200
0000
0000
0302
0000
,
1003
0100
0010
0100
1000
0001
0020
0000
,
0031
0000
0101
0000
0010
1000
0002
0000
,
0010
1003
0000
0000
,
1000
0100
0010
1000
0010
0001
0100
0001
,
0010
0000
0110
0000
0010
0001
0100
0010
,
1000
0000
1100
0000
1000
0100
0010
0001
,
0010
0000
0100
0000
1000
0000
0010
0100
0010
0000
0000
0000
1001
0000
0000
0000
,
0100
1000
0010
1000
0100
0001
0100
0010
,
0001
0000
0010
0100
0000
0000
1000
0100
1000
0000
0100
0010
0000
0000
0001
0000
,
0100
0010
0001
0010
1000
0001
1001
0000
,
1000
0000
0100
0000
0010
0000
0001
0000
0100
0001
0010
0000
0100
1000
0010
0000
,
0000
0000
0000
0000
1010
0000
0010
0000
1000
0000
0100
0000
0010
0001
0010
0000
,
0002
0000
0100
0000
1003
0100
0001
0100
,
0010
0001
0010
0000
0100
1000
0100
0000
,
1000
0010
0001
0010
0100
0001
1000
0000
,
0100
0000
0010
0000
0100
0000
1000
0000
0010
0000
0100
0000
0001
0100
0001
0100
,
0001
0000
0000
0011
0000
0000
1000
0000
0000
1100
0000
0000
1000
0000
0010
0000
,
0100
0001
0010
0100
2000
0001
3001
0000
,
1000
0000
0100
0000
0010
0001
0000
0010
0000
0100
1000
0000
1100
0000
0000
0000
,
1010
1000
0100
0010
0001
0100
0010
0100
,
0101
0000
0001
0000
0010
0000
0100
0000
0001
0000
0100
0000
1000
0000
0100
0010
,
0200
0000
0000
0000
1000
0000
0000
0000
0310
0000
0001
0000
0010
0200
0000
0000
,
1300
0000
0010
0200
0000
0000
0301
0000
0010
0000
0100
1000
0100
0000
1000
0000
,
0001
0000
0010
0000
0100
0000
1000
0000
0010
0000
0100
0000
0001
0000
1000
0001
,
1000
0100
0010
0001
0100
0010
1000
0000
,
0100
0000
1000
0000
0010
0000
1000
0000
0100
0000
0010
0001
0000
0010
0001
0000
,
1000
0000
0100
0010
0000
0100
0010
0000
0001
0000
1000
0001
0000
1000
0001
0000
,
2002
0000
0000
0000
,
0000
0000
0000
0000
,
3003
0000
0000
0000
;

//--------------- dance-single - Cremie ----------------
#NOTES:
     dance-single:
     Cremie:
     Challenge:
     16:
     0,0,0,0,0:
0000
0000
0000
0000
,
0000
0000
0000
0000
,
0000
0000
0000
0000
,
0000
0000
0000
0000
,
0000
0000
0000
0000
,
0000
0000
0000
0000
,
0001
0000
1000
0100
0010
0000
0000
0000
0100
0000
1000
0000
1010
0000
0000
0000
,
0100
0000
0001
1000
0100
0000
0010
0000
0001
0000
0100
0000
0101
0000
0000
0000
,
0001
0000
0010
0100
1000
0000
0001
0000
0100
0010
1000
0000
0001
0000
0000
0000
,
2002
0000
0000
3003
,
1000
0000
0010
0000
0100
0000
0001
0010
0000
0100
0010
0100
1000
0000
0001
0000
,
0020
0000
1000
0000
0130
1000
0100
0010
,
0002
0000
0000
0000
0103
0000
0010
0000
2000
0000
0000
0000
3100
0010
0001
1000
,
0001
0010
1000
0001
0100
0000
1001
0000
,
0100
0000
0010
0000
1000
0000
0100
0010
0001
0000
0010
0100
0000
1000
0100
0000
,
1000
0000
0010
1000
0000
0010
0100
0000
0001
0100
0000
0001
0010
0000
0100
0000
,
2000
0000
0000
0000
3010
0100
0010
0100
0002
0000
0000
0000
0013
0100
0010
0100
,
1000
0000
0010
0100
0001
0100
0000
0010
0000
1000
0001
0000
1001
0000
0000
0000
,
1000
0001
0010
0001
0000
0010
0100
0000
1000
0001
0100
0001
0000
0100
0010
0000
,
1000
0000
0100
0010
0000
0001
1000
0001
0010
0000
0100
1000
0000
0010
0100
0001
,
0200
0000
0000
0000
0301
0000
0010
0100
1000
0000
0001
0000
0100
0010
0000
1000
,
0010
0000
0100
0010
0000
0100
0001
0000
0010
0000
0100
0000
1100
0000
0000
0000
,
1000
0000
0001
0000
0010
0000
0001
1000
0000
0100
0010
0000
0100
0000
1000
0000
,
0001
0000
0100
0000
0010
0000
1000
0001
1000
0000
0001
0000
1001
0000
0000
0000
,
1000
0000
0100
0010
0000
0001
0010
0000
0001
0100
0000
0010
0000
1000
0001
0000
,
0010
0100
1000
0100
0000
1000
0010
0000
1000
0100
0010
0001
0000
0100
0001
1000
,
0010
0100
0010
0001
0010
1000
0001
0010
,
0100
1000
0100
0010
1000
0010
0001
0000
,
0100
0000
0001
0100
0000
0010
1000
0001
1000
0000
0100
0000
0010
0000
0001
0000
,
0010
0000
0100
1000
0000
0001
0100
0010
0100
0000
0001
0000
0010
0000
0100
0000
,
1000
0000
0000
0000
0000
0000
0001
0010
0100
0000
0001
0000
0100
0000
1000
0000
,
1100
0000
0000
0000
0000
0000
1000
0010
0100
0000
1000
0000
0100
0000
0001
0000
,
0101
0000
0000
0000
0000
0000
0100
0001
1000
0000
0100
1000
0001
1000
0001
0000
,
1001
0000
0000
0000
0000
0000
0000
0000
0001
0010
0000
0100
0010
0100
1000
0001
,
1000
0000
0010
0000
0100
0000
0010
0000
0001
0000
0010
0000
1000
0010
1000
0010
,
0100
0000
0001
0010
0100
0000
1000
0010
0100
0000
0001
0000
0101
0000
0000
0000
,
0100
0000
0001
0000
0010
0000
1000
0000
0010
0000
0100
0000
1000
0001
1000
0001
,
0010
0000
0100
1000
0001
0000
0100
0001
1000
0000
0001
0000
1001
0000
0000
0000
,
1000
0100
0010
0001
0000
0010
0100
0000
1000
0001
0100
0010
0000
0100
0001
1000
,
0002
0010
2003
0100
3001
0000
1001
0000
,
1000
0001
0100
1000
0100
0010
0100
0000
,
0001
0000
0010
0100
1000
0100
0000
0010
0000
0001
1000
0001
0000
0100
0010
0000
,
1000
0000
0100
0010
0000
0001
0010
0100
1000
0000
0001
0000
0101
0000
0000
0000
,
0001
0000
0010
0100
0000
1000
0100
0010
0001
0000
1000
0000
1010
0000
0000
0000
,
0010
0000
0100
0001
0000
0100
0010
1000
0100
0000
1000
0000
1100
0000
0000
0000
,
0100
0000
1000
0010
0000
0100
0001
1000
0001
0000
0010
0000
0011
0000
0000
0000
,
0001
0000
0010
0000
0001
0000
1000
0010
1000
0000
0100
0010
0000
0001
0010
0000
,
0001
0100
1000
0100
0001
1000
1100
0000
,
1000
0100
0010
0001
0100
0010
0001
0010
,
2000
3001
0000
0000
,
1000
0010
0100
0000
0010
0000
1000
0000
0001
0010
0100
1000
0001
0000
0010
0000
,
0100
1000
0010
0000
0100
0001
0010
0000
1000
0000
0010
0000
0001
0000
0000
0000
,
1000
0000
0010
0100
0000
0010
1000
0000
0001
0010
0100
0000
1000
0000
0100
0000
,
0010
0000
0001
0000
1000
0000
0010
0100
0010
0000
1000
0000
1001
0000
0000
0000
,
0001
0000
0100
0000
0001
0000
0010
0100
1000
0000
0010
0100
0001
0000
0010
0000
,
1000
0000
0010
0100
0000
1000
0100
0010
0001
0000
0100
0001
0000
0100
0010
0000
,
0001
0000
0010
0000
1000
0000
0010
0100
0001
0000
1000
0000
1100
0000
0000
0000
,
1000
0000
0100
0000
0001
0000
0100
0010
0001
0000
0010
0100
1000
0001
1000
0000
,
0000
0000
0000
0000
1100
0000
1000
0010
0000
0100
0010
0100
0001
0000
1000
0000
,
0100
0010
0001
0000
0010
0100
1000
0000
,
0001
0000
0100
0000
1000
0000
0100
0000
0010
0000
1000
0000
0100
0010
0001
1000
,
0001
0010
0100
1000
0100
0000
1001
0000
,
1000
0000
0001
0000
0010
0000
0100
1000
0001
0000
1000
0001
0010
0000
0001
0000
,
0101
0000
0000
0011
0000
0000
1010
0000
0000
1100
0000
0000
1001
0000
0000
0000
,
2000
0000
0000
0000
3100
0010
0100
0010
0002
0000
0000
0000
0103
0010
0100
0010
,
1000
0000
0100
0010
0001
0010
0000
1000
0000
0010
0100
0000
1001
0000
0000
0000
,
0001
1000
0010
0100
0000
0010
1000
0000
0100
0010
0001
0100
0000
0010
1000
0000
,
0001
0000
0010
0100
0000
1000
0001
1000
0010
0000
0100
0001
0000
0010
0100
1000
,
0200
0000
0000
0000
1300
0000
0010
0100
0001
0000
1000
0000
0100
0010
0000
0001
,
0010
0000
0100
0010
0000
0100
1000
0000
0010
0000
0100
0000
0101
0000
0000
0000
,
0001
0000
1000
0000
0010
0000
0100
0000
1000
0000
0100
0000
0010
1000
0010
0100
,
0001
0000
0010
0000
0100
0000
1000
0001
1000
0000
0100
0000
0110
0000
0000
0000
,
0010
0000
0001
1000
0000
0010
0100
0001
1000
0100
0000
0010
0000
0001
1000
0000
,
0010
0100
0000
0010
0000
1000
0001
1000
0100
0010
0000
0001
0000
0010
0100
2000
,
0002
0000
0000
0000
,
0000
0000
0000
0000
,
3003
0000
0000
0000
;
