#TITLE:Fire In The Hole;
#SUBTITLE:;
#ARTIST:Pegboard Nerds;
#TITLETRANSLIT:;
#SUBTITLETRANSLIT:;
#ARTISTTRANSLIT:;
#GENRE:;
#CREDIT:;
#BANNER:banner.png;
#BACKGROUND:bg.png;
#LYRICSPATH:;
#CDTITLE:;
#MUSIC:Fire In The Hole.ogg;
#OFFSET:-0.000000;
#SAMPLESTART:44.446102;
#SAMPLELENGTH:17.777779;
#SELECTABLE:YES;
#BPMS:0.000000=108.000000
;
#STOPS:
;
#BGCHANGES:;
#KEYSOUNDS:;
#ATTACKS:;

//---------------dance-single - DS FS XO----------------
#NOTES:
     dance-single:
     :
     Challenge:
     15:
     0.657332,0.720614,0.280759,0.616109,0.775986,590.000000,554.000000,36.000000,79.000000,16.000000,0.000000,0.657332,0.720614,0.280759,0.616109,0.775986,590.000000,554.000000,36.000000,79.000000,16.000000,0.000000:
// measure 0
0000
0000
0000
0000
,  // measure 1
0000
0000
0000
0000
,  // measure 2
0000
0000
0000
0000
,  // measure 3
0000
0000
1000
0002
0100
2003
0010
3001
,  // measure 4
1000
0000
0100
0000
1000
0001
1000
0010
0000
1000
0000
0100
1000
0001
0010
0000
,  // measure 5
1001
0000
0000
0000
1001
0000
0000
0000
0001
0000
1000
0000
0001
0000
0010
0000
0000
0000
0001
0000
1000
0100
1000
0000
0001
0000
0100
0000
0010
0000
0000
0000
,  // measure 6
2000
0000
0000
0000
3001
0100
0001
0010
0000
0100
1000
0010
1000
0001
0010
0000
,  // measure 7
1001
1001
0001
2000
0100
3002
0010
1003
,  // measure 8
0001
0000
0100
0000
0001
1000
0001
0010
0000
0001
0000
0100
0001
1000
0010
0000
,  // measure 9
1001
0000
0000
0000
1001
0000
0000
0000
1000
0000
0001
0000
1000
0000
0010
0000
0000
0000
1000
0000
0001
0100
0001
0000
1000
0000
0100
0000
0010
0000
0000
0000
,  // measure 10
0001
0100
0001
0100
0010
1000
0010
1000
0001
0010
0100
1000
0001
0100
0010
1000
,  // measure 11
0100
1000
0001
0010
0001
0100
0001
1000
0010
0100
0001
1000
0002
0000
0000
0000
,  // measure 12
1003
0000
0000
0001
0000
1000
0100
00M0
0100
0001
0000
0000
0100
0000
0000
0020
0000
1000
0000
0000
0130
0001
0000
0000
,  // measure 13
2000
0000
0000
0000
0000
0000
3100
0000
0000
0001
0000
0000
0100
0000
0000
0020
0000
0001
0000
0000
0130
1000
0000
0001
,  // measure 14
0200
0000
0000
0000
0000
0000
0300
0000
0000
0000
0001
0000
0100
0000
00M0
0000
0100
0000
1000
0000
0000
0000
0000
0000
0200
0000
0000
0000
0000
0000
0310
0000
0000
0001
0000
0000
0100
0000
0000
0001
0000
0000
1000
0000
0000
0000
0000
0000
,  // measure 15
0010
0000
0000
0000
0000
0000
0100
0000
0001
0000
1000
0000
0010
0000
0000
1000
0000
0000
0001
0000
0000
0000
0010
0000
0001
0000
0000
0000
1000
0000
0100
0000
0000
0000
0000
0000
1100
0000
0000
0000
0000
0000
0101
0000
0000
0000
0000
0000
,  // measure 16
1001
0000
0000
1000
0000
0001
0100
00M0
0100
1000
0000
0000
0100
0000
0000
0020
0000
0001
0000
0000
0130
1000
0000
0000
,  // measure 17
0002
0000
0000
0000
0000
0000
0103
0000
0000
1000
0000
0000
0100
0000
0000
0020
0000
1000
0000
0000
0130
0001
0000
1000
,  // measure 18
0200
0000
0000
0000
0000
0000
0300
0000
0000
0000
1000
0000
0100
0000
00M0
0000
0100
0000
0001
0000
0000
0000
0000
0000
0200
0000
0000
0000
0000
0000
0310
0000
0000
1000
0000
0000
0100
0000
0000
1000
0000
0000
0001
0000
0000
0000
0000
0000
,  // measure 19
0100
0000
0000
0010
0000
2000
0002
0000
0000
3003
0000
0000
0022
0000
0000
0033
0000
0000
2200
0000
0000
3300
0000
0000
,  // measure 20
2010
0000
0000
3001
0000
1000
0100
00M0
0100
0001
0000
0000
0100
0000
0000
0010
0000
1000
0100
0000
1000
0001
0000
0000
,  // measure 21
0020
0000
0000
0001
0000
0000
0130
0000
0000
0001
0000
0000
0100
0000
0000
1000
0000
0001
0100
0000
0010
1000
0000
0020
,  // measure 22
0100
0000
0000
0000
0000
0000
1030
0000
0000
0000
0001
0000
0100
0000
00M0
0000
0100
0000
1000
0000
0000
0000
0000
0000
0200
0000
0000
0000
0000
0000
0310
0000
0000
0100
0000
0000
0001
0000
0000
0100
0000
0000
1000
0000
0000
0000
0000
0000
,  // measure 23
0002
0000
0000
0000
0000
0000
1003
0000
0010
0000
0100
0000
0001
0000
0000
1000
0000
0000
0100
0000
0000
0000
1000
0000
0001
0000
0000
0000
1000
0000
0010
0000
0000
0000
0000
0000
0101
0000
0000
0000
0000
0000
1100
0000
0000
0000
0000
0000
,  // measure 24
0012
0000
0000
1003
0000
0001
0100
00M0
0100
1000
0000
0000
0100
0000
0000
0010
0000
0001
0100
0000
0001
1000
0000
0000
,  // measure 25
0020
0000
0000
1000
0000
0000
0130
0000
0000
1000
0000
0000
0100
0000
0000
0001
0000
1000
0100
0000
0010
0001
0000
0020
,  // measure 26
0100
0000
0000
0000
0000
0000
0031
0000
0000
0000
1000
0000
0100
0000
00M0
0000
0100
0000
0001
0000
0000
0000
0000
0000
0200
0000
0000
0000
0000
0000
0310
0000
0000
0100
0000
0000
1000
0000
0000
0100
0000
0000
0001
0000
0000
0000
0000
0000
,  // measure 27
1000
0000
0000
0100
0000
0020
0002
0000
0000
0033
0000
0000
2200
0000
0000
3300
0000
0000
0202
0000
0000
0303
0000
0000
,  // measure 28
1000
0100
1000
0010
1000
0001
0100
0001
,  // measure 29
0010
0001
1000
0100
0010
0001
1000
0010
,  // measure 30
0100
0001
0100
0001
1000
0100
1000
0100
,  // measure 31
0010
0001
1000
0002
0100
2003
0010
3001
,  // measure 32
1000
0000
0100
0000
1000
0001
1000
0010
0000
1000
0000
0100
0010
0100
0001
0000
,  // measure 33
0110
0000
0000
0000
0110
0000
0000
0000
0001
0000
1000
0000
0001
0000
0010
0000
0000
0000
0001
0000
1000
0100
1000
0000
0001
0000
0100
0000
1000
0000
0000
0000
,  // measure 34
0200
0000
0000
0000
0301
1000
0001
0010
0000
0100
1000
0010
0100
1000
0100
0000
,  // measure 35
0101
1100
0001
2000
0100
3002
0010
1003
,  // measure 36
0001
0000
0100
0000
0001
1000
0001
0010
0000
0001
0000
0100
0010
0100
1000
0000
,  // measure 37
0110
0000
0000
0000
0110
0000
0000
0000
1000
0000
0001
0000
1000
0000
0010
0000
0000
0000
1000
0000
0001
0100
0001
0000
1000
0000
0100
0000
0001
0000
0000
0000
,  // measure 38
0100
0010
0001
0010
0100
1000
0010
0100
0001
1000
0010
0100
0010
0001
0010
1000
,  // measure 39
0001
1000
0100
0010
0001
0100
0010
1000
0100
0010
0001
0100
0020
0000
0030
0000
,  // measure 40
1001
0000
0000
1000
0000
0001
0010
0M00
0010
1000
0000
0000
0010
0000
0000
0200
0000
1000
0000
0000
0310
1000
0000
0000
,  // measure 41
0002
0000
0000
0000
0000
0000
0013
0000
0000
1000
0000
0000
0010
0000
0000
0200
0000
1000
0000
0000
0310
0001
0000
1000
,  // measure 42
0020
0000
0000
0000
0000
0000
0030
0000
0000
0000
1000
0000
0010
0000
0M00
0000
0010
0000
0001
0000
0000
0000
0000
0000
0020
0000
0000
0000
0000
0000
0130
0000
0000
0010
0000
0000
1000
0000
0000
0010
0000
0000
0001
0000
0000
0000
0000
0000
,  // measure 43
1000
0000
0000
0000
0000
0000
0001
0000
0100
0000
0010
0000
1000
0000
0000
0001
0000
0000
0010
0000
0000
0000
0100
0000
1000
0000
0000
0000
0001
0000
0010
0000
0000
0000
0000
0000
0011
0000
0000
0000
0000
0000
1010
0000
0000
0000
0000
0000
,  // measure 44
1001
0000
0000
0001
0000
1000
0010
0M00
0010
0001
0000
0000
0010
0000
0000
0200
0000
0001
0000
0000
0310
0001
0000
0000
,  // measure 45
2000
0000
0000
0000
0000
0000
3010
0000
0000
0001
0000
0000
0010
0000
0000
0200
0000
0001
0000
0000
0310
1000
0000
0001
,  // measure 46
0020
0000
0000
0000
0000
0000
0030
0000
0000
0000
0001
0000
0010
0000
0M00
0000
0010
0000
1000
0000
0000
0000
0000
0000
0020
0000
0000
0000
0000
0000
0130
0000
0000
0010
0000
0000
0001
0000
0000
0010
0000
0000
1000
0000
0000
0000
0000
0000
,  // measure 47
0010
0000
0000
0100
0000
0002
2000
0000
0000
3003
0000
0000
1100
0000
0001
0100
0000
0001
0010
0000
0100
1000
0000
0010
,  // measure 48
2000
0000
0000
0000
0001
0000
3100
00M0
0100
0002
0000
0103
2000
0000
3200
0000
,  // measure 49
0010
0000
0301
0000
1000
0100
0000
0020
0001
0000
0230
0000
1000
0000
0310
0000
,  // measure 50
0002
0000
0000
0000
1000
0000
0103
00M0
0100
2000
0000
3200
0001
0000
0310
0000
,  // measure 51
0011
2100
0001
3010
1020
0000
0130
0001
,  // measure 52
1002
0000
0000
0000
1000
0000
0103
00M0
0100
2000
0000
3100
0002
0000
0203
0000
,  // measure 53
0010
0000
1300
0000
0001
0100
0000
0020
1000
0000
0230
0000
0001
0000
0310
0000
,  // measure 54
2000
0000
0000
0000
0001
0000
3100
00M0
0100
0002
0000
0203
1000
0000
0310
0000
,  // measure 55
2010
0000
3001
0000
0102
0000
0013
0000
0012
0000
1003
0000
2100
0000
3010
0100
,  // measure 56
0001
0000
0000
0000
;
