#TITLE:Feel The Beat;
#SUBTITLE:;
#ARTIST:Darude;
#TITLETRANSLIT:;
#SUBTITLETRANSLIT:;
#ARTISTTRANSLIT:;
#GENRE:;
#CREDIT:;
#MUSIC:Feel The Beat.ogg;
#BANNER:Feel The Beat.png;
#BACKGROUND:Feel The Beat-bg.png;
#CDTITLE:;
#SAMPLESTART:27.852;
#SAMPLELENGTH:15.000;
#SELECTABLE:YES;
#OFFSET:1.697;
#BPMS:0.000=137.978
,66.000=144.978
,67.000=137.860
,132.000=69.199
,140.000=108.300
,141.000=103.870
,172.000=109.500
,174.000=110.000
,176.000=116.000
,180.000=122.000
,182.000=123.000
,184.000=125.000
,186.000=126.000
,188.000=132.000
,192.000=134.000
,194.000=135.000
,195.000=136.000
,196.000=137.600
,220.000=137.860
;
#STOPS:;
#DISPLAYBPM:69.000:138.000;
#BGCHANGES:3.895=Feel The Beat.mp4=1.000=0=0=0=StretchNoLoop====,
99999.000=-nosongbg-=1.000=0=0=0=StretchNoLoop====
;
#FGCHANGES:;

//--------------- dance-single - Extraordiberry ----------------
#NOTES:
     dance-single:
     Extraordiberry:
     Beginner:
     2:
     0,0,0,0,0:
0000
0000
0000
0000
,
0000
0000
0000
0000
,
0000
0000
0000
0000
,
0000
0000
0000
0000
,
0000
0000
0000
0000
,
1000
0000
0000
0000
,
0000
0000
0000
0000
,
0001
0000
0000
0000
,
0000
0000
0000
0000
,
1000
0000
0000
0000
,
0000
0000
0000
0000
,
1000
0000
0000
0000
,
0000
0000
0000
0000
,
0001
0000
0000
0000
,
0000
0000
0000
0000
,
0001
0000
0000
0000
,
0000
0000
0000
0000
,
0100
0000
0000
0000
,
0000
0000
0000
0000
,
0100
0000
0000
0000
,
0000
0000
0000
0000
,
0010
0000
0000
0000
,
0000
0000
0000
0000
,
0010
0000
0000
0000
,
0000
0000
0000
0000
,
1000
0000
0000
0000
,
0000
0000
0000
0000
,
0001
0000
0000
0000
,
0000
0000
0000
0000
,
0010
0000
0000
0000
,
0000
0000
0000
0000
,
0100
0000
0000
0000
,
0000
0000
0000
0000
,
1001
0000
0000
0000
,
0000
0000
0000
0000
,
1000
0000
0000
0000
,
1000
0000
0000
0000
,
0001
0000
0000
0000
,
0001
0000
0000
0000
,
1000
0000
0000
0000
,
1000
0000
0000
0000
,
0001
0000
0000
0000
,
0001
0000
0000
0000
,
1000
0000
0000
0000
,
0000
0000
0000
0000
,
0100
0000
0000
0000
,
0000
0000
0000
0000
,
0010
0000
0000
0000
,
0000
0000
0000
0000
,
0001
0000
0000
0000
,
0000
0000
0000
0000
,
1001
0000
0000
0000
,
0000
0000
0000
0000
,
1000
0000
0000
0000
,
0000
0000
0000
0000
,
1001
0000
0000
0000
,
0000
0000
0000
0000
,
0001
0000
0000
0000
,
0000
0000
0000
0000
,
1001
0000
0000
0000
,
1000
0000
0000
0000
,
1000
0000
0000
0000
,
1000
0000
0000
0000
,
0001
0000
0000
0000
,
0001
0000
0000
0000
,
0001
0000
0000
0000
,
0001
0000
0000
0000
,
0010
0000
0000
0000
,
0010
0000
0000
0000
,
0010
0000
0000
0000
,
0010
0000
0000
0000
,
0100
0000
0000
0000
,
0100
0000
0000
0000
,
0100
0000
0000
0000
,
0100
0000
0000
0000
,
1001
0000
0000
0000
;

//--------------- dance-single - Extraordiberry ----------------
#NOTES:
     dance-single:
     Extraordiberry:
     Easy:
     6:
     0,0,0,0,0:
0000
0000
0000
0000
,
0000
0000
0000
0000
,
0000
0000
0000
0000
,
0000
0000
0000
0000
,
0000
0000
0000
0000
,
1000
0100
1000
0000
,
0100
0000
0010
0000
,
0001
0000
0100
0000
,
0010
0000
1000
0000
,
1001
0000
1000
0000
,
0100
0000
0010
0000
,
0001
0000
0100
0000
,
0010
0000
1000
0000
,
0001
0000
0010
0000
,
0100
0000
1000
0000
,
0010
0000
0100
0000
,
0001
0000
1000
0000
,
1001
0000
1000
0000
,
1000
0100
1000
0000
,
0001
0000
0001
0000
,
0001
0010
0001
0000
,
1001
0000
0001
0000
,
0001
0100
0001
0000
,
1000
0000
1000
0000
,
1000
0010
1000
0000
,
1001
0000
0001
0000
,
0001
0010
0100
0000
,
1000
0000
1000
0000
,
1000
0010
0100
0000
,
1001
0000
1000
0000
,
1000
0100
0001
0000
,
0001
0000
0001
0000
,
0001
0100
1000
0000
,
2002
0000
0000
0000
,
0000
0000
0000
0000
0000
0000
0000
3003
,
1001
0000
1000
0000
,
0100
0000
0010
0000
,
0001
0000
1000
0000
,
0100
0010
0010
0000
,
0001
0000
0100
0000
,
0010
0000
1000
0000
,
0001
0000
0100
0000
,
0010
1000
1000
0000
,
1000
0000
1000
0000
,
0001
0000
0001
0000
,
0010
0000
0010
0000
,
0100
0000
0100
0000
,
2000
0000
0001
0000
,
3002
0000
1000
0000
,
2003
0001
0001
0001
,
3002
1000
1003
0000
,
2002
0000
0000
0000
,
0000
0000
0000
0000
,
0000
0000
0000
0000
,
0000
0000
3003
1001
,
2002
0000
0000
3003
,
0220
0000
0000
0330
,
1001
0000
0110
0000
,
1000
1000
0001
0001
,
1001
0000
1000
0000
,
0100
0010
0001
0000
,
0001
0000
0001
0000
,
0001
0100
0010
0000
,
1001
0000
1000
0000
,
1000
0100
0001
0000
,
0001
0000
0001
0000
,
0001
0100
1000
0000
,
1001
0000
1000
0000
,
0100
1000
0010
0000
,
1000
0000
0001
0000
,
0100
0001
0010
0000
,
1001
0000
1000
0100
,
1000
0010
0100
0000
,
0001
0010
0001
0010
,
0001
0100
0010
1000
,
2002
0000
0000
3003
;

//--------------- dance-single - Extraordiberry ----------------
#NOTES:
     dance-single:
     Extraordiberry:
     Medium:
     12:
     0,0,0,0,0:
0000
0000
0000
0000
,
0000
0000
0000
0000
,
0000
0000
0000
0000
,
0000
0000
0000
0000
,
0000
0000
0000
0000
,
1000
0000
0000
0000
1000
0000
0000
1000
0000
0000
0000
0000
0001
0000
0000
0001
,
0000
0000
0000
0000
0100
0000
0000
0100
0000
0000
0000
0000
0010
0000
0000
0010
,
0000
0000
0000
0000
0100
0000
0000
0100
0000
0000
0000
0000
0010
0000
0000
0010
,
0000
0000
0000
0000
1000
0000
0000
1000
0000
0000
0000
0000
0001
0000
0000
0000
,
1001
0000
0000
0000
1000
0000
0000
0100
0000
0000
1000
0000
0100
0000
0000
1000
,
0000
0000
0001
0000
0100
0000
0000
0001
0000
0000
0100
0000
0001
0000
0000
0100
,
0000
0000
0001
0000
0010
0000
0000
0001
0000
0000
0010
0000
0001
0000
0000
0010
,
0000
0000
0001
0000
0100
0000
0000
0001
0000
0000
0100
0000
0001
0000
0000
0100
,
0000
0000
0001
0000
1000
0000
0000
0100
0000
0000
1000
0000
0001
0000
0000
0010
,
0000
0000
0001
0000
1000
0000
0000
0010
0000
0000
1000
0000
0001
0000
0000
0100
,
0000
0000
0010
0000
0100
0000
0000
0001
0000
0000
0010
0000
0100
0000
0000
1000
,
0000
0000
0010
0000
0100
0000
0000
0001
0000
0000
1000
0000
1000
0000
1000
0000
,
0001
0000
0010
0000
0020
0000
0000
0130
0000
0000
0010
0000
0020
0000
0000
0130
,
0000
0000
1000
0000
2000
0000
0000
3001
0000
0000
1000
0000
2000
0000
0000
3001
,
0000
0000
0100
0000
0200
0000
0000
0310
0000
0000
0100
0000
0200
0000
0000
0310
,
0000
0000
0100
0000
0200
0000
0000
0310
0000
0000
0100
0000
0100
0000
0100
0000
,
0010
0000
0010
0000
0100
0000
0000
0110
0000
0000
1000
0000
0001
0000
0000
1001
,
0000
0000
1000
0000
0100
0000
0000
1100
0000
0000
0010
0000
0001
0000
0000
0011
,
0000
0000
0001
0000
0100
0000
0000
0101
0000
0000
0010
0000
1000
0000
0000
1010
,
0000
0000
1000
0000
0001
0000
0000
1001
0000
0000
0001
0000
0001
0000
0001
0000
,
2000
0000
0001
0000
0001
0000
0000
3020
0000
0000
1000
0000
1000
0000
0000
0230
,
0000
0000
0010
0000
0010
0000
0000
0302
0000
0000
0010
0000
0010
0000
0000
2003
,
0000
0000
0010
0000
0010
0000
0000
3200
0000
0000
1000
0000
1000
0000
0000
0320
,
0000
0000
0100
0000
0100
0000
0000
0032
0000
0000
1000
0000
1000
0000
1003
0000
,
0001
0000
0001
0000
0100
0000
0000
0101
0000
0000
0002
0000
0100
0000
0000
1003
,
0000
0000
1000
0000
0100
0000
0000
1100
0000
0000
2000
0000
0100
0000
0000
3010
,
0000
0000
0100
0000
0001
0000
0000
0101
0000
0000
0002
0000
0100
0000
0000
0013
,
0000
0000
0010
0000
0100
0000
0000
0110
0000
0000
1000
0000
0001
0000
0000
0000
,
2002
0000
0000
0000
,
0000
0000
0000
0000
0000
0000
0000
3003
,
1001
0000
0000
0000
1000
0000
0000
1000
0000
0000
0000
0000
0010
0000
0000
0010
,
0000
0000
0000
0000
0100
0000
0000
0100
0000
0000
0000
0000
0001
0000
0000
0001
,
0000
0000
0000
0000
1000
0000
0000
1000
0000
0000
0000
0000
0100
0000
0000
0100
,
0000
0000
0000
0000
0010
0000
0000
0010
0000
0000
0000
0000
0001
0000
0000
0000
,
2001
0000
0000
0000
0100
0000
0000
3200
0000
0000
0000
0000
0010
0000
0000
0320
,
0000
0000
0000
0000
0001
0000
0000
0032
0000
0000
0000
0000
0100
0000
0000
0203
,
0000
0000
0000
0000
0010
0000
0000
0320
0000
0000
0000
0000
1000
0000
0000
2030
,
0000
0000
0000
0000
0001
0000
0000
3002
0000
0000
0000
0000
1000
0000
0000
0000
,
2003
0000
0000
0000
0010
0000
0000
0010
0000
0000
0000
0000
3002
0000
0000
0010
,
0000
0000
0000
0000
2003
0000
0000
0010
0000
0000
0000
0000
3002
0000
0000
0010
,
0000
0000
1000
0000
2003
0000
0000
0010
0000
0000
0001
0000
3002
0000
0000
0010
,
0000
0000
1000
0000
2003
0000
0000
0010
0000
0000
0001
0000
3002
0000
0000
1000
,
0000
0000
0010
0000
0023
0000
0000
0001
0000
0000
0100
0000
0230
0000
0000
0010
,
0000
0000
1000
0000
2300
0000
0000
0100
0000
0000
0010
0000
3002
0000
0000
0000
,
1003
0010
0100
0001
1000
0010
0100
0001
,
1000
1000
0100
0100
0010
0010
0001
0001
,
2002
0000
0000
0000
,
0000
0000
0000
3000
,
0200
0000
0000
0003
,
0020
0000
0330
0110
,
1002
0000
0000
0000
1000
0000
0000
2003
0000
0000
0000
0000
0100
0000
0000
3200
,
0000
0000
0000
0000
0010
0000
0000
0320
0000
0000
0000
0000
0001
0000
0000
0032
,
0000
0000
0000
0000
1000
0000
0000
2003
0000
0000
0000
0000
3002
0000
0000
0023
,
0000
0000
0000
0000
2030
0000
0000
3020
0000
0000
0001
0000
0001
0000
0031
0000
,
1000
0000
0100
0000
1000
0000
0100
1000
0000
0000
0001
0000
0010
0000
0001
0010
,
0000
0000
0001
0000
0100
0000
0001
0100
0000
0000
0010
0000
1000
0000
0010
1000
,
0000
0000
1000
0000
0100
0000
1000
0100
0000
0000
0010
0000
0001
0000
0010
0001
,
0000
0000
1000
0000
0100
0000
1000
0100
0000
0000
0010
0000
0001
0000
0010
0001
,
0010
0000
0001
0000
0100
0000
0001
0100
0000
0000
0010
0000
1000
0000
0010
1000
,
0000
0000
0100
0000
1000
0000
0100
1000
0000
0000
0001
0000
0010
0000
0001
0010
,
0000
0000
0010
0000
0100
0000
0010
0100
0000
0000
1000
0000
0001
0000
1000
0001
,
0000
0000
0100
0000
0010
0000
0100
0010
0000
0000
1000
0000
0001
0000
1000
0001
,
1000
0000
0001
0000
0100
0000
0010
1000
0000
0000
0001
0000
0100
0000
0010
1000
,
0000
0000
0001
0000
0010
0000
0100
1000
0000
0000
0001
0000
0010
0000
0100
1000
,
0000
0000
1000
0000
0010
0000
0100
0001
0000
0000
1000
0000
0010
0000
0100
0001
,
0000
0000
0010
0000
0100
0000
1000
0001
0000
0000
0010
0000
0100
0000
1000
0001
,
1000
0000
0010
0000
0100
0000
0001
1000
0000
0000
0001
0000
0010
0000
0100
1000
,
0000
1000
0100
0000
0010
0000
0001
0010
0000
0000
0001
0000
0100
0000
0010
1000
,
0000
1000
0010
0000
0100
0000
0001
0100
0000
0100
0001
0000
1000
0000
0001
0010
,
0000
0010
0001
0000
1000
0000
0001
0100
0000
0100
0001
0000
1000
0000
0000
0000
,
2002
0000
0000
3003
;

//--------------- dance-single - Extraordiberry ----------------
#NOTES:
     dance-single:
     Extraordiberry:
     Hard:
     15:
     0,0,0,0,0:
0000
0000
0000
0000
,
0000
0000
0000
0000
,
0000
0000
0000
0000
,
0000
0000
0000
0000
,
0000
0000
0000
0000
,
1000
0000
0100
0000
1000
0000
0100
1000
0000
0000
0000
0000
1000
0000
0100
1000
,
0000
0000
0000
0000
1000
0000
0100
1000
0000
0000
0000
0000
0001
0000
0100
0001
,
0000
0000
0000
0000
0001
0000
0100
0001
0000
0000
0000
0000
0001
0000
1000
0001
,
0000
0000
0000
0000
1000
0000
0001
1000
0000
0001
1000
0000
0001
0000
0001
0000
,
1001
0000
1000
0000
0100
0000
0010
0001
0000
0000
1000
0000
0100
0000
0010
0001
,
0000
0000
1000
0000
0010
0000
0100
0001
0000
0000
1000
0000
0010
0000
0100
0001
,
0000
0000
0010
0000
0100
0000
1000
0001
0000
0000
0010
0000
0100
0000
1000
0001
,
0000
0000
0100
0000
0010
0000
1000
0001
0000
0000
0100
0000
0010
0000
1000
0001
,
0010
0000
0100
0000
1000
0000
0001
0010
0000
0000
0100
0000
1000
0000
0001
0010
,
0000
0000
0001
0000
0100
0000
0010
1000
0000
0000
0001
0000
0100
0000
0010
1000
,
0000
0000
0001
0000
0010
0000
0100
1000
0000
0000
0001
0000
0010
0000
0100
1000
,
0000
0000
0010
0000
0100
0000
0001
1000
0000
0000
0001
1000
0001
1000
0001
1000
,
0010
0100
0010
0000
0100
0000
0001
1000
0000
1000
0001
0000
0100
0000
0001
1000
,
0000
1000
0001
0000
0010
0000
0001
1000
0000
1000
0001
0000
0010
0000
0001
1000
,
0000
1000
0100
0000
0010
0000
0100
1000
0000
1000
0100
0000
0010
0000
0100
1000
,
0000
1000
0100
0000
0010
0000
0100
1000
0000
0001
1000
0001
1000
0001
1000
0001
,
0100
0001
0100
0000
0010
0000
1000
0001
0000
0001
1000
0000
0010
0000
1000
0001
,
0000
0001
0010
0000
0001
0000
0010
0001
0000
0001
0010
0000
0001
0000
0010
0001
,
0000
0001
0100
0000
0010
0000
0100
0001
0000
0001
0100
0000
0010
0000
0100
0001
,
0000
0001
1000
0000
0100
0000
1000
0100
0000
0100
1000
0001
1000
0001
1000
0001
,
0100
0010
0100
0000
0010
0100
0010
0100
0000
0100
0010
0000
0010
0100
0010
0100
,
0000
0100
0001
0000
0001
1000
0001
1000
0000
1000
0001
0000
0001
1000
0001
1000
,
0000
1000
0100
0000
0100
0010
0100
0010
0000
0010
0100
0000
0100
0010
0100
0010
,
0000
0010
0001
0000
0001
1000
0001
1000
0000
1000
0010
1000
0010
1000
0010
1000
,
0001
0010
0001
0000
0010
0001
0010
0100
0000
0010
0001
0000
0010
0001
0010
0100
,
0000
1000
0001
0000
1000
0001
1000
0010
0000
1000
0001
0000
1000
0001
1000
0010
,
0000
1000
0100
0000
1000
0100
1000
0001
0000
1000
0100
0000
1000
0100
1000
0001
,
0000
1000
0010
0000
1000
0010
0100
0010
0000
1000
0010
0000
1000
0001
1000
0000
,
2002
0000
0000
0000
,
0000
0000
0000
0000
0000
0000
0000
3003
,
1001
0000
1000
0000
1000
0000
0000
1000
0000
0000
0001
0000
0001
0000
0000
0001
,
0000
0000
0010
0000
0010
0000
0000
0010
0000
0000
0100
0000
0100
0000
0000
0100
,
0000
0000
1000
0000
1000
0000
0000
0001
0000
0000
0001
0000
0001
0000
0000
1000
,
0000
0000
0010
0000
0010
0000
0000
0100
0000
0000
0100
0000
0100
0000
0000
0010
,
0100
0000
0010
0000
0100
0000
0001
1000
0000
1000
0010
0000
0100
0000
0001
1000
,
0000
1000
0010
0000
0100
0000
0001
1000
0000
1000
0010
0000
0100
0000
0001
0010
,
0000
0010
0100
0000
1000
0000
0001
0010
0000
0010
0100
0000
1000
0000
0001
0100
,
0000
0100
0001
0000
1000
0000
0001
0100
0000
0100
0001
0000
0100
0000
0010
1000
,
0100
0000
0010
0000
0001
0000
1000
0100
0000
0100
0010
0000
0001
0000
1000
0100
,
0000
0100
0010
0000
0001
0000
1000
0100
0000
0100
0010
0000
0001
0000
1000
0010
,
0000
0010
0100
0000
0001
0000
1000
0010
0000
0010
0100
0000
0001
0000
1000
0100
,
0000
0100
0010
0000
0001
0000
1000
0100
0000
0100
0010
0000
0001
0010
0001
0010
,
0000
0010
0001
0000
0010
0001
0010
0001
0000
0001
1000
0000
0001
0100
0001
0100
,
0000
0100
0010
0000
1000
0010
1000
0010
0000
0010
1000
0000
0001
0010
0100
0010
,
0000
0010
0001
0000
1000
0010
0100
0010
0000
0010
1000
0000
0001
0010
0100
1000
,
0000
1000
0001
0000
1000
0010
0100
0001
0000
0001
1000
0001
1000
0001
1000
0001
,
0200
0000
0000
0000
0010
0000
0000
0320
0000
0000
0000
0000
0100
0000
0000
0230
,
0000
0000
0000
0000
0001
0000
0000
0302
0000
0000
0000
0000
1000
0000
0000
2003
,
0000
0000
0000
0000
0100
0000
0000
3200
0000
0000
0000
0000
0010
0000
0000
0320
,
0000
0000
0000
0000
0001
0000
0000
0032
0000
0000
1003
0000
1001
0000
0000
0000
,
1001
0000
0001
0000
1000
0000
0001
1000
0000
0000
0001
0000
1000
0000
0001
1000
,
0000
0000
0010
0000
0100
0000
0010
0100
0000
0000
0010
0000
0100
0000
0010
0100
,
0000
0100
0001
0000
1000
0000
0001
1000
0000
1000
0001
0000
1000
0000
0001
1000
,
0000
1000
0100
0000
0010
0000
0010
0001
0000
0001
0010
0001
0010
0001
0010
0001
,
1000
0100
1000
0000
0100
1000
0100
0010
0000
0100
1000
0000
0100
1000
0100
0010
,
0000
0001
0100
0000
0010
1000
0010
0100
0000
0010
1000
0000
0010
1000
0010
0100
,
0000
0001
0010
0000
0001
0010
0001
1000
0000
0001
0010
0000
0001
0010
0001
1000
,
0000
0001
0010
0000
0001
0010
0001
1000
0000
0001
0010
0001
0010
0001
0010
0001
,
1000
0100
0010
0000
0100
0010
0001
1000
0000
0001
1000
0000
0100
0010
0001
1000
,
0000
0001
0100
0000
0010
1000
0001
0100
0000
0001
0100
0000
0010
1000
0001
0100
,
0000
0001
0010
0000
0100
1000
0001
0010
0000
0100
1000
0000
0001
0010
0100
1000
,
0000
0001
0100
0000
0010
1000
0001
0100
0000
0010
1000
0001
1000
0001
1000
0001
,
0010
0100
0010
0000
0001
1000
0100
0010
0000
0001
1000
0100
0010
0001
1000
0100
,
0000
1000
0001
0100
0010
1000
0001
0100
0000
0010
1000
0001
0100
0010
1000
0001
,
0000
1000
0100
0010
0001
1000
0100
0010
0000
0001
1000
0100
0010
0001
1000
0100
,
0000
1000
0010
0100
0001
1000
0010
0100
0000
0010
1000
0001
1000
0001
1000
0001
,
0100
0010
0100
0001
0100
0010
1000
0001
0000
0001
1000
0010
0100
0001
1000
0010
,
0100
0001
0010
0100
1000
0001
0010
0100
0000
0100
1000
0001
0010
0100
1000
0001
,
0100
0010
1000
0001
0100
0010
1000
0001
0010
0100
1000
0001
0010
0100
1000
0001
,
0100
0010
1000
0001
0100
0010
1000
0100
0010
0001
0100
0010
1000
0100
0010
0001
,
2002
0000
0000
3003
;
