#TITLE:Fall Into the Truth;
#SUBTITLE:;
#ARTIST:AS-13 with IA;
#TITLETRANSLIT:;
#SUBTITLETRANSLIT:;
#ARTISTTRANSLIT:;
#GENRE:;
#CREDIT:;
#BANNER:fallintothetruth-bn.png;
#BACKGROUND:fallintothetruth-bg.png;
#LYRICSPATH:;
#CDTITLE:;
#MUSIC:Fall Into the Truth.mp3;
#OFFSET:-0.080000;
#SAMPLESTART:45.814011;
#SAMPLELENGTH:12.900002;
#SELECTABLE:YES;
#BPMS:0.000000=150.000000
;
#STOPS:
;
#BGCHANGES:;
#KEYSOUNDS:;
#ATTACKS:;

//---------------dance-single - ----------------
#NOTES:
     dance-single:
     :
     Beginner:
     3:
     0.152045,0.206266,0.035184,0.043980,0.000000,121.000000,117.000000,4.000000,5.000000,0.000000,0.000000,0.152045,0.206266,0.035184,0.043980,0.000000,121.000000,117.000000,4.000000,5.000000,0.000000,0.000000:
0000
0000
0000
0000
,
0000
0000
0000
0000
,
0000
0000
0000
0000
,
0000
0000
0000
0000
,
1000
0000
1000
0000
,
0100
0000
0000
0000
,
0001
0000
0001
0000
,
0100
0000
0000
0000
,
1000
0000
1000
0000
,
0010
0000
0000
0000
,
0001
0000
0001
0000
,
0010
0000
0100
0000
,
1001
0000
0000
0000
,
1000
0000
0001
0000
,
0100
0000
0100
0000
,
0010
0000
0010
0000
,
0110
0000
0001
0000
,
0001
0000
1000
0000
,
1000
0000
0000
0000
,
0010
0000
0000
0000
,
1001
0000
0001
0000
,
1000
0000
0000
0000
,
1000
0000
0001
0000
,
0100
0000
0100
0000
,
0010
0000
0100
0000
,
0001
0000
0001
0000
,
1000
0000
0000
0000
,
0200
0000
0000
0000
,
0000
0000
0300
0000
,
0010
0010
0010
0000
,
0100
0000
0100
0000
,
1000
0000
0001
0000
,
1000
0000
0100
0000
,
1000
1000
1000
0000
,
0001
0000
1000
0000
,
0010
0000
0100
0000
,
0010
0000
1000
0000
,
0001
0001
0001
0000
,
1000
0000
0010
0000
,
1000
0000
0001
0000
,
0100
0000
0010
0000
,
1000
1000
1000
0000
,
0010
0010
0010
0000
,
0100
0000
0100
0000
,
0010
0000
0010
0000
,
1001
0000
0000
0000
,
0000
0000
0000
0000
,
0001
0000
0001
0000
,
1000
0000
1000
0000
,
0100
0000
1000
0000
,
0001
0000
0100
0000
,
0010
0000
0010
0000
,
0100
0000
0100
0000
,
0001
0000
0010
0000
,
0100
0000
1000
0000
,
0010
0010
0010
0000
,
1000
0000
0100
0000
,
0001
0000
0100
0000
,
1000
0000
0010
0000
,
1000
1000
1000
0000
,
0001
0000
0100
0000
,
0010
0010
0010
0010
,
0010
0000
0000
0000
,
2000
0000
0000
0000
,
3002
0000
0000
0000
,
0203
0000
0000
0000
,
0320
0000
0000
0000
,
0130
0000
0000
0000
;

//---------------dance-single - ----------------
#NOTES:
     dance-single:
     :
     Easy:
     6:
     0.301577,0.383066,0.175920,0.123144,0.000000,240.000000,220.000000,20.000000,14.000000,0.000000,0.000000,0.301577,0.383066,0.175920,0.123144,0.000000,240.000000,220.000000,20.000000,14.000000,0.000000,0.000000:
0000
0000
0000
0000
,
0000
0000
0000
0000
,
0000
0000
0000
0000
,
0000
0000
0000
0000
,
0001
0001
0100
0010
,
1000
0100
0010
0001
,
1000
1000
0010
0100
,
0001
0010
0100
1000
,
0010
0010
0100
0001
,
0010
0100
1000
0010
,
0100
0100
0010
0010
,
1000
0010
0100
0001
,
1001
0000
0000
0100
0100
0000
0000
1000
,
1000
0100
0010
0100
,
1001
0000
0000
0100
0100
0000
0000
0001
,
0001
0010
0100
1000
,
0010
0000
0000
1000
1000
0000
0000
0001
,
0001
0100
0001
1000
,
0010
1001
0010
1001
,
0100
0010
0001
1000
,
0110
0000
0000
0001
1000
0000
0000
1000
,
0001
1000
0001
0100
,
1001
0000
0000
0100
0010
0000
0000
1000
,
0001
0100
0010
1000
,
0001
0000
0000
1000
0001
0000
0000
1000
,
0100
0001
0100
1000
,
0010
0100
0110
1001
,
0020
0000
0000
0000
,
0000
0000
0030
0000
,
1000
0010
0001
0010
,
1000
0001
0200
0300
,
0001
0100
1000
0100
,
0001
0010
0100
0010
,
0001
0010
1000
0100
,
0001
0100
2000
3000
,
0001
0100
1000
0010
,
0001
0100
0010
0000
,
1001
1000
0001
0100
,
0001
1000
0200
0300
,
0010
0100
1000
1001
,
0010
0010
1000
0001
,
0010
0001
1000
1001
,
0001
0100
0002
0003
,
1000
0010
0001
0010
,
2002
3003
0110
1001
,
0200
0000
0000
0000
,
0000
0000
0000
0300
,
0001
0100
0010
0100
,
0001
0010
1000
0100
,
0001
1000
0100
1000
,
0001
0100
0010
0001
,
0100
0010
0001
1000
,
0100
1000
0010
1000
,
0001
0010
0100
1000
,
0001
0100
1000
0100
,
1001
1001
0110
1001
,
0100
0001
0200
0300
,
0010
1000
0100
0100
,
1000
0010
0001
0010
,
1000
0110
0001
0110
,
1000
0001
0200
0300
,
0001
0100
1000
0010
,
0001
0000
0000
0000
,
2000
0000
0000
0001
,
3002
0000
0000
0100
,
0203
0000
0000
0010
0000
0000
0000
0000
,
0320
0000
0000
0100
0000
0000
0000
0000
,
0130
0000
0000
0000
;

//---------------dance-single - ----------------
#NOTES:
     dance-single:
     :
     Medium:
     10:
     0.436030,0.471466,0.431004,0.096756,0.043980,347.000000,298.000000,49.000000,11.000000,0.000000,0.000000,0.436030,0.471466,0.431004,0.096756,0.043980,347.000000,298.000000,49.000000,11.000000,0.000000,0.000000:
0000
0000
0000
0000
,
0000
0000
0000
0000
,
0000
0000
0000
0000
,
0000
0000
0000
0000
,
0100
1001
0010
1001
,
0100
0010
1000
0001
0000
1000
0001
0000
,
0010
1100
0001
1100
,
0001
0010
0001
0010
0000
0100
1000
0000
,
0001
0101
1000
1010
,
0010
1000
0001
1000
0000
0001
0000
0001
,
1000
0000
0001
0100
0000
1001
0000
1100
,
0000
0100
0010
0000
1001
0000
0101
0000
,
1000
0000
1000
0001
0100
0000
0100
0001
,
1000
0010
0000
0010
0000
1000
0001
1000
,
0010
0000
0010
1000
0001
0000
0001
0010
,
0001
1000
0000
0110
0000
1001
0000
0100
,
0001
0000
0001
0100
0010
0000
0010
0100
,
0001
0100
0000
0010
0000
0100
0000
0000
,
1001
0000
1000
0001
0000
1100
0000
0011
,
0000
1000
0001
1000
0001
0000
0010
0001
,
1000
0000
1000
0001
0010
0000
0010
0100
,
1000
0100
0000
0010
0000
0010
0000
0100
,
1000
0000
1000
0001
0100
0000
0001
0100
,
0001
0100
0000
1010
0000
0101
0000
0010
,
0100
0000
0000
0001
0100
0000
0010
0100
,
0001
0001
0000
0100
0000
0010
0000
0010
,
1000
0100
0001
0010
,
2002
0000
0000
0000
,
0000
0000
3003
0000
,
0010
0101
0010
1100
,
0001
0010
0100
1000
0000
0100
0010
0000
,
1001
0100
1000
0101
,
0010
0000
1000
0100
0000
0010
0001
0010
,
0100
1001
0110
1001
,
0001
0100
0010
0100
0000
0100
0010
0000
,
1001
0000
0010
1000
0000
1000
0100
0000
,
1001
0000
0100
0001
0000
0000
0110
0000
,
1000
0010
1000
0000
0101
0000
1010
0000
,
1000
0100
0010
0001
0000
0010
0100
0000
,
1000
0000
0010
0100
0000
0100
0010
1000
,
0100
0000
0010
0001
0000
0001
0010
0100
,
1000
1010
0110
0101
,
0010
0100
0001
0200
0000
0000
0310
0000
,
1010
1100
0101
0011
,
2002
0000
3003
0000
0010
1000
0001
0100
,
0220
0000
0000
0000
,
0000
0000
0000
0330
,
1000
0000
0000
0100
0000
0000
0010
0000
0000
0000
0001
0000
0010
0000
0000
0000
,
0100
0000
0000
0010
0000
0000
0001
0000
0000
0000
0010
0000
0100
0000
0000
0000
,
1000
0000
0000
0010
0000
0000
0100
0000
0000
0000
0001
0000
0100
0000
0001
0000
,
0100
0000
0000
0010
0000
0000
0100
0000
0010
0000
1000
0000
0001
0000
0100
0000
,
0001
0000
0000
0010
0000
0000
0100
0000
0000
1000
0000
0000
0100
0000
0000
0000
,
1000
0000
0000
0010
0000
0000
0100
0000
0000
0000
0001
0000
0100
0000
0000
0000
,
0010
0000
0000
0100
0000
0000
1001
0000
0000
0000
0100
0000
0010
0000
0100
0000
,
0010
0000
0000
1001
0000
0000
0101
0000
0000
0000
1000
0000
0100
0000
0000
0000
,
1001
0000
0100
0001
0100
0000
1001
0000
,
0010
1000
0010
1000
0000
1000
0001
0000
,
1100
0000
0001
0010
0000
0010
0001
1000
,
0010
0000
0010
1000
0000
0001
0100
0000
,
1100
0101
0011
1010
,
1000
0010
0100
0001
0000
0001
0100
0000
,
0010
0100
0010
0100
0001
1000
0001
1000
,
0100
0000
0000
0000
,
0020
0000
0000
0001
,
0032
0000
0000
0100
,
0203
0000
0000
0000
0000
0000
0010
0000
0000
0000
0010
0000
0000
0010
0000
0000
,
0320
0000
0000
1000
0000
0000
1030
0000
,
0100
0000
0000
0000
;

//---------------dance-single - ----------------
#NOTES:
     dance-single:
     :
     Hard:
     13:
     0.571740,0.736665,0.211104,0.087960,0.382626,455.000000,431.000000,24.000000,10.000000,0.000000,0.000000,0.571740,0.736665,0.211104,0.087960,0.382626,455.000000,431.000000,24.000000,10.000000,0.000000,0.000000:
// measure 0
0000
0000
0000
0000
,  // measure 1
0000
0000
0000
0000
,  // measure 2
0000
0000
0000
0000
,  // measure 3
0000
0000
0000
0000
0000
0000
0000
0100
,  // measure 4
0001
0010
0000
0010
0001
0100
0010
0000
,  // measure 5
0010
0100
0001
0010
0000
0010
0100
1000
,  // measure 6
0100
0010
0000
0010
0100
1000
0000
0100
,  // measure 7
1000
0010
0100
0010
0000
0010
1000
0001
,  // measure 8
0100
1000
0000
1000
0100
0001
0010
0000
,  // measure 9
0100
0010
0001
0010
0000
0100
1000
0001
,  // measure 10
0100
0100
0001
0100
0000
1000
0100
0001
,  // measure 11
0000
0000
0001
0000
0100
0000
0010
0000
1000
0000
0010
0100
0010
1000
0001
1000
,  // measure 12
0100
0000
1001
0001
0100
0000
1001
0010
,  // measure 13
1000
0100
0010
0001
0000
0001
0010
0100
,  // measure 14
1000
0000
0110
1000
0001
0000
1100
0001
,  // measure 15
0010
0100
1000
0010
0000
1001
0001
0010
,  // measure 16
0100
0000
1001
0100
1000
0000
0101
1000
,  // measure 17
0001
0100
0010
1000
0000
0100
0010
0001
,  // measure 18
0001
0100
0001
0100
0000
0100
0001
0010
,  // measure 19
0000
0000
0010
0000
0001
0000
0100
0000
0010
0000
0100
0010
1000
0001
0100
0001
,  // measure 20
1000
0000
0101
1000
0100
0000
1000
0001
,  // measure 21
0010
0001
0100
0110
0010
1001
1000
0100
,  // measure 22
0010
0000
0001
0100
0010
0000
1000
0101
,  // measure 23
0001
0000
0010
0000
0100
0000
1000
0000
0010
0000
0100
0001
0100
0010
1000
0001
,  // measure 24
0100
0000
1000
0100
0001
0000
1001
0100
,  // measure 25
1000
0010
1000
0100
0001
0100
1000
0010
,  // measure 26
0100
0000
0100
0000
0001
0000
0010
0000
0001
0010
0001
0010
0001
0000
1000
0001
,  // measure 27
0020
0000
0000
0000
,  // measure 28
0000
0000
0030
0000
,  // measure 29
0100
1000
0000
0000
0100
0001
0000
0000
0100
1000
0000
0000
1000
0010
0000
0000
,  // measure 30
1000
0000
0001
0000
0100
0000
0001
0000
1000
0010
0000
0000
0010
0100
0000
0000
,  // measure 31
0001
0010
0000
0000
0010
1000
0000
0000
1000
0100
0000
0000
0100
0001
0000
0000
,  // measure 32
0001
0000
0010
0000
0100
0000
1000
0000
0000
1000
0100
0000
0010
0000
0001
0000
,  // measure 33
0100
0010
0000
0000
0010
0100
0000
0000
0001
0100
0000
0000
1000
0010
0000
0000
,  // measure 34
0001
0000
0010
0000
0001
0000
0100
0000
0000
0100
0001
0000
0100
0000
0010
0000
,  // measure 35
1000
0100
0000
0000
1000
0010
0000
0000
0001
0010
0000
0000
0001
0100
0000
0000
,  // measure 36
1000
0010
1000
0100
0000
0100
0010
0000
,  // measure 37
1001
0000
0000
0000
0100
0001
0000
0000
0001
0010
0000
0000
0100
1000
0000
0000
,  // measure 38
1000
0010
0100
0010
0000
1000
0010
0100
,  // measure 39
0001
0100
0000
0000
0010
0000
0100
0000
0000
0100
0010
0000
0100
0000
0001
0000
,  // measure 40
0100
0010
0000
0000
1000
0000
0010
0000
0000
0000
1000
0000
0100
0000
0000
0000
,  // measure 41
0010
0001
0000
0000
0100
0010
0000
0000
1000
0001
0000
0000
0010
0100
0000
0000
,  // measure 42
1000
0100
1000
0200
0000
1300
0010
1000
,  // measure 43
0001
1000
0010
0100
0001
1000
0001
0010
,  // measure 44
0001
0010
0001
0010
0100
1000
0100
1000
0001
0100
0001
0100
0010
1000
0010
1000
,  // measure 45
0200
0000
0000
0000
,  // measure 46
0000
0000
0000
0300
,  // measure 47
1001
0000
0000
0100
0000
0000
1010
0000
0000
0010
1000
0000
0010
0000
0100
0000
,  // measure 48
0001
0000
0100
0010
0000
0000
0100
0000
0001
0100
0010
0000
1000
0100
1000
0001
,  // measure 49
0100
0000
0000
0001
0000
0001
0100
0000
0000
0010
0100
0000
0001
0000
0100
0000
,  // measure 50
0010
0000
0000
1000
0000
0010
0100
0000
0001
0000
0100
0000
0010
1000
0001
0100
,  // measure 51
0010
0000
0000
1001
0000
0000
0010
0000
0000
0000
1001
0000
0010
0000
0000
1000
,  // measure 52
0001
0000
0000
0110
0000
0000
1000
0000
0000
0010
0100
0000
0001
0000
0000
0000
,  // measure 53
1100
0000
0000
0010
0000
0000
1001
0000
0000
0001
0010
0000
0100
0000
1000
0000
,  // measure 54
0001
0100
0000
1001
0000
0000
1100
0000
0000
1000
0001
0000
0101
0000
0000
0000
,  // measure 55
0010
1000
0000
0000
0100
0001
0000
0000
1000
0100
0000
0000
0001
0010
0000
0000
,  // measure 56
0100
0010
0001
0010
0100
1000
0010
0000
,  // measure 57
1000
0010
0000
0000
1001
0000
0100
0000
0001
0000
0100
0000
0010
0000
1000
0000
,  // measure 58
0001
1000
0000
0000
1000
0000
0100
0000
0000
0000
0100
0000
0010
0000
0000
0000
,  // measure 59
0001
0010
0000
0000
1000
0010
0000
0000
0001
0100
0000
0000
1000
0100
0000
0000
,  // measure 60
0001
1000
0001
0200
0000
1300
0100
0001
,  // measure 61
1000
0000
0100
0000
0010
0100
0010
0100
0010
0000
0001
0000
0100
0010
0100
0010
,  // measure 62
0100
0000
0000
0000
,  // measure 63
0020
0000
0000
0100
,  // measure 64
2030
0000
0000
0010
,  // measure 65
3002
0000
0000
0000
0000
0000
1000
0000
0003
0000
1000
0000
0000
0001
0000
0000
,  // measure 66
0200
0000
0000
0302
0000
0000
2003
0000
,  // measure 67
3100
0000
0000
0000
;
