#VERSION:0.83;
#TITLE:FREEF4LL;
#SUBTITLE:;
#ARTIST:YUKIYANAGI;
#TITLETRANSLIT:;
#SUBTITLETRANSLIT:;
#ARTISTTRANSLIT:;
#GENRE:;
#ORIGIN:;
#CREDIT:;
#BANNER:;
#BACKGROUND:;
#PREVIEWVID:;
#JACKET:;
#CDIMAGE:;
#DISCIMAGE:;
#LYRICSPATH:;
#CDTITLE:;
#MUSIC:FREEF4LL.mp3;
#OFFSET:-0.102000;
#SAMPLESTART:101.733002;
#SAMPLELENGTH:20.000000;
#SELECTABLE:YES;
#BPMS:0.000=170.000;
#STOPS:;
#DELAYS:;
#WARPS:;
#TIMESIGNATURES:0.000=4=4;
#TICKCOUNTS:0.000=4;
#COMBOS:0.000=1;
#SPEEDS:0.000=1.000=0.000=0;
#SCROLLS:0.000=1.000;
#FAKES:;
#LABELS:0.000=Song Start;
#BGCHANGES:;
#KEYSOUNDS:;
#ATTACKS:
;

//---------------dance-single - ----------------
#NOTEDATA:;
#CHARTNAME:;
#STEPSTYPE:dance-single;
#DESCRIPTION:;
#CHARTSTYLE:;
#DIFFICULTY:Hard;
#METER:14;
#RADARVALUES:0.667503,0.728914,0.547353,0.073425,0.176888,700.000000,618.000000,82.000000,11.000000,0.000000,0.000000,0.000000,0.000000,0.000000,0.667503,0.728914,0.547353,0.073425,0.176888,700.000000,618.000000,82.000000,11.000000,0.000000,0.000000,0.000000,0.000000,0.000000;
#CREDIT:ZSL;
#NOTES:
0000
0000
0000
0000
,
0000
0000
0000
0000
,
0000
0000
0000
0000
,
0000
0000
0000
0000
,
0001
0000
0000
0000
0000
0010
0000
0110
,
0000
0000
0000
1000
,
0010
0000
0000
0000
0000
0100
0000
0101
,
0000
0000
0000
0010
,
1010
0000
0000
0000
1000
0000
0000
0100
0000
0000
0010
0000
0000
0000
0011
0000
,
0000
0000
0001
0000
0100
0010
0000
0000
1000
0000
0100
0000
0010
0000
0100
0000
,
1000
0000
0000
0000
0001
0000
0000
1000
0000
0000
0010
0000
0000
0000
0110
0000
,
0000
0000
0100
0000
0001
0010
0000
0000
0100
0000
1000
0000
0010
0000
0100
0000
,
0010
1000
0001
0010
0100
1000
0010
0100
,
0001
1000
0100
0010
0001
0100
0010
1000
,
0100
0000
0010
0000
0001
0000
1000
0000
0001
1000
0001
1000
0001
1000
0001
1000
,
0001
0000
0000
1001
,
1000
0100
0010
0100
1000
0001
1000
0000
,
0001
0100
0010
0100
0001
1000
0001
0000
,
1000
0100
0010
0001
1000
0100
0010
0000
,
0001
0100
0010
1000
0001
0100
0010
0000
,
1000
0100
0010
0001
0100
0010
1000
0000
,
0001
0100
0010
1000
0100
0010
0001
0000
,
1000
0100
0010
0100
0001
0100
1000
0000
,
0001
0100
0010
0100
0110
0101
0000
1000
,
0100
0010
0100
1000
0001
0100
0010
0100
,
0001
0010
0100
1000
0001
0010
0100
1000
,
0010
0100
0001
1000
0010
0100
0010
1000
,
0100
0010
0001
1000
0100
0010
0001
1000
,
0010
0100
1000
0100
0010
1000
0100
0010
,
0001
0010
1000
0010
0001
0100
0010
1000
,
0100
0001
1000
0010
0001
1000
0010
0100
,
2002
0000
0000
3003
,
1100
0000
0100
0110
0000
0010
0011
0000
,
0001
0101
0000
0100
0110
0000
1010
0000
,
1001
0000
0010
0110
0000
0100
0110
0000
,
0010
1001
0000
0100
1001
0000
0001
0000
,
0101
0000
0100
1010
0000
1000
1100
0000
,
0100
0011
0000
0001
0101
0000
0110
0000
,
1010
0000
1000
0110
0000
0001
0110
0000
,
1000
0011
0000
0001
2002
0000
0000
3003
,
1001
0000
0000
0001
0100
0010
1000
0100
,
0010
0100
0010
0000
0001
0000
0100
0001
0100
0000
0010
0000
1000
0000
0100
0000
,
0010
0000
0000
0100
1000
0001
0100
0010
,
1000
0100
0010
0000
0100
0000
1000
0001
0100
0000
0010
0100
0000
0000
0000
0000
,
0010
0000
0000
1000
0100
0000
0010
0000
0001
0000
0000
0100
0010
0000
1000
0000
,
0100
0000
0000
0010
0100
0000
1000
0000
0001
0000
0000
0100
0010
0000
0001
0000
,
0010
0000
1000
0000
0100
0000
0010
0000
0100
1000
0100
1000
0001
0100
0001
0100
,
0020
0000
0000
1030
,
0001
0000
0000
0000
0000
0010
0000
0110
,
0000
0000
0000
0100
,
1000
0000
0000
0000
0000
0001
0000
1001
,
0000
0000
0000
1000
,
0010
0000
0100
0000
0001
0100
0000
0100
,
0010
1000
0100
0010
,
0100
0000
1000
0000
0100
1000
0000
1000
,
0010
0000
0100
0000
0001
1000
0001
0000
,
0010
0000
0100
0000
1000
0001
1000
0100
,
0010
0000
0001
0000
0100
0010
1000
0100
,
0010
0000
0001
1000
0000
1001
0000
0001
,
0100
0010
0000
1000
0100
0010
0001
0000
,
1000
0000
0010
0000
0100
0001
0000
0010
,
0100
1000
0000
0010
1000
1000
0010
0100
,
0001
0010
0100
0001
0100
1000
0010
0100
,
1000
0000
0100
0000
0010
0000
1000
0000
0100
0010
0100
0010
0100
0000
0000
0000
,
1000
1100
0000
0001
0000
0011
0000
0100
,
0000
1001
0000
1000
0000
0110
0000
0001
,
0100
0101
0000
0010
0000
1010
0000
1000
,
0000
1100
0000
0010
0000
0011
0000
0001
,
1000
0010
0100
0001
1000
0100
0010
0001
,
1000
0010
0001
0010
1000
0100
0001
0100
,
1000
0000
0010
0000
0100
0000
0001
0000
1000
0100
0010
0001
1000
0010
1000
0010
,
0100
0000
0000
0000
,
0110
0010
1000
0100
0010
0100
1000
0001
,
0100
0010
0100
0000
0000
0000
0010
0000
1000
0000
0100
0000
0010
0000
0100
0000
,
1100
1000
0001
0100
0010
1000
0100
0010
,
0001
1000
0001
0000
0000
0000
0100
0000
0010
0000
1000
0000
0100
0000
0010
0000
,
0011
0001
0100
0010
1000
0100
0001
0100
,
1000
0001
1000
0000
0000
0000
0010
0000
0100
0000
0001
0000
0010
0000
0100
0000
,
1000
0001
0100
0010
0001
0010
1000
0100
,
0010
0001
0010
0000
0000
0000
0001
0000
1000
0000
0100
0000
0000
0000
0000
0000
,
0110
0010
0001
1000
1010
0010
0100
0001
,
1000
0100
0010
0000
0001
0000
0010
0000
0100
0000
1000
0000
0001
0000
0100
0000
,
0101
0001
1000
0100
0110
0010
0001
1000
,
0010
0100
0001
0000
1000
0000
0010
0000
0001
0000
1000
0000
0100
0000
0001
0000
,
1001
0000
0000
0000
1000
0100
0010
0000
0100
0010
0001
0000
1000
0000
0000
0000
,
1001
0000
0000
0000
0001
0100
0010
0000
0100
0010
1000
0000
0001
0000
0000
0000
,
1001
0000
0000
0000
1000
0010
0100
0000
0001
0010
0100
0000
1000
0000
0000
0000
,
2002
0000
0000
3003
,
0101
0000
0100
0110
0000
0010
1010
0000
,
1000
1100
0000
0100
0110
0000
0011
0000
,
1001
0000
0100
0110
0000
0010
0110
0000
,
0100
1001
0000
0010
1001
0000
1000
0000
,
1100
0000
0100
0011
0000
0001
0101
0000
,
0100
1010
0000
1000
1100
0000
0110
0000
,
0011
0000
0001
0110
0000
1000
0110
0000
,
0001
1010
0000
1000
2002
0000
0000
3003
,
1001
0000
0000
1000
0100
0010
0001
0100
,
0010
0100
0010
0000
1000
0000
0100
1000
0100
0000
0010
0000
0001
0000
0100
0000
,
0010
0000
0000
0100
0001
1000
0100
0010
,
0001
0100
0010
0000
0100
0000
0001
1000
0100
0000
0010
0100
0000
0000
0000
0000
,
0110
0000
0000
0000
0010
0001
1000
0100
0010
0000
0000
0100
0000
0000
1000
0000
,
1001
0000
0000
0000
0001
0100
0010
1000
0001
0000
0000
1000
0000
0000
0100
0000
,
0011
0000
0000
0000
0010
0100
1000
0010
0100
0000
0000
0001
0000
0000
0100
0000
,
0220
0000
0000
0330
,
1001
0000
0000
0000
;

//---------------dance-single - ----------------
#NOTEDATA:;
#CHARTNAME:;
#STEPSTYPE:dance-single;
#DESCRIPTION:;
#CHARTSTYLE:;
#DIFFICULTY:Challenge;
#METER:16;
#RADARVALUES:0.820075,1.076015,0.620778,0.006675,0.393827,860.000000,767.000000,93.000000,1.000000,0.000000,0.000000,0.000000,0.000000,0.000000,0.820075,1.076015,0.620778,0.006675,0.393827,860.000000,767.000000,93.000000,1.000000,0.000000,0.000000,0.000000,0.000000,0.000000;
#CREDIT:ZSL;
#NOTES:
// measure 0
0000
0000
0000
0000
,  // measure 1
0000
0000
0000
0000
,  // measure 2
0000
0000
0000
0000
,  // measure 3
0000
0000
0000
0000
,  // measure 4
1000
0000
0000
0000
0000
0010
0000
0110
,  // measure 5
0000
0000
0000
0001
,  // measure 6
0010
0000
0000
0000
0000
0100
0000
1100
,  // measure 7
0000
0000
0000
1000
,  // measure 8
1001
0000
0000
0000
0001
0000
1000
0001
0000
0000
0010
0000
0000
0000
0110
0000
,  // measure 9
0000
0000
0100
0000
1000
0001
0000
0000
0100
0000
0010
0000
1000
0000
0100
0000
,  // measure 10
0010
0000
0000
0000
0011
0000
0001
0100
0000
0000
0010
0000
0000
0000
1010
0000
,  // measure 11
0000
0000
1000
0000
0100
0010
0000
0000
0001
0000
0100
0000
0010
0000
0100
0000
,  // measure 12
0001
0010
0100
1000
0010
0100
0001
1000
,  // measure 13
0100
0010
0100
1000
0100
0010
0001
1000
,  // measure 14
0001
0100
0010
1000
0001
0100
0010
1000
0001
0010
0100
1000
0001
0010
0100
1000
,  // measure 15
0010
0000
0000
0100
,  // measure 16
0001
0100
0010
0100
1000
0100
0010
0100
,  // measure 17
0001
1000
0100
0010
0001
0100
0010
0000
,  // measure 18
1000
0100
0010
0100
0001
0100
0010
0100
,  // measure 19
1000
0001
0100
0010
1000
0100
0010
0000
,  // measure 20
0001
0100
1000
0100
0001
0010
0100
1000
,  // measure 21
0010
0001
0010
1000
0100
0010
0001
0000
,  // measure 22
1000
0100
0001
0100
1000
0010
0100
0001
,  // measure 23
0010
1000
0010
0001
0101
0110
0000
0100
,  // measure 24
0010
1000
0100
0010
0001
1000
0010
0100
,  // measure 25
0010
1000
0010
0001
1000
0100
0010
1000
,  // measure 26
0100
0010
0001
0100
0010
0100
0001
0010
,  // measure 27
0100
0010
1000
0001
0100
1000
0010
0100
,  // measure 28
0001
0001
1000
0010
0100
0100
0001
0010
,  // measure 29
0100
0100
1000
0001
0010
0010
0100
1000
,  // measure 30
0001
0100
0001
0100
0010
1000
0010
1000
0100
0010
0001
0100
0010
1000
0001
0010
,  // measure 31
0100
0100
0100
0100
0100
1000
0001
0100
,  // measure 32
0110
0001
1000
0110
1000
0001
0110
0001
,  // measure 33
1000
0110
1000
0001
0011
0010
0110
0000
,  // measure 34
1001
0100
0010
1001
0010
0100
1001
0100
,  // measure 35
0010
1001
0010
0100
1001
0000
0001
0000
,  // measure 36
0101
0010
1000
0101
0010
1000
0101
0010
,  // measure 37
1000
0101
0100
0001
0011
0010
0110
0000
,  // measure 38
0011
0100
1000
0011
0100
1000
0011
0100
,  // measure 39
1000
0011
0100
1000
0010
0100
0010
1000
,  // measure 40
1001
0000
0000
0000
0001
0000
1000
0100
0001
0000
1000
0000
0010
0000
0001
0000
,  // measure 41
1000
0010
0001
0000
1000
0000
0001
0010
1000
0000
0001
0010
0100
0000
1000
0000
,  // measure 42
1001
0000
0000
0000
1000
0000
0010
0100
0001
0000
1000
0000
0100
0000
0010
0000
,  // measure 43
1000
0010
0001
0000
1000
0000
0001
0100
1000
0000
0100
0010
0000
0000
0000
0000
,  // measure 44
1010
0000
0000
1000
0100
0000
0010
0000
0011
0000
0000
0001
0100
0000
0010
0000
,  // measure 45
1010
0000
0000
1000
0001
0000
0010
0000
0110
0000
0000
0100
1000
0000
0010
0000
,  // measure 46
0110
0000
0100
0000
0001
0000
0001
0000
0010
0100
1000
0001
0010
0100
1000
0010
,  // measure 47
0200
0000
0000
0301
,  // measure 48
1000
0000
0000
0000
0000
0001
0000
0101
,  // measure 49
0000
0000
0000
0100
,  // measure 50
0010
0000
0000
0000
0000
1000
0000
1001
,  // measure 51
0000
0000
0000
0001
,  // measure 52
0100
0000
0010
0000
1000
0100
0010
0001
,  // measure 53
0010
0000
0001
0000
0100
0010
1000
0001
,  // measure 54
1000
0000
0001
0000
0010
0001
0100
0010
,  // measure 55
1000
0000
0100
0000
1000
0010
0100
0001
,  // measure 56
0010
0000
0000
0000
0001
0000
0000
0000
1000
0000
0010
0000
1000
0100
1000
0100
,  // measure 57
0010
0000
0000
0000
0100
0000
1000
0001
0100
0000
0010
0000
0100
0001
0100
0001
,  // measure 58
1000
0000
0100
0010
0000
0011
0000
0001
,  // measure 59
1001
0000
0000
0000
1000
0010
1000
0010
0100
0000
0000
0000
0001
0000
1000
0000
,  // measure 60
0100
0000
0000
0000
0010
0000
0000
0000
0001
0000
1000
0000
0010
0100
0001
0100
,  // measure 61
0010
0000
1010
0100
0001
0001
0010
0100
,  // measure 62
1000
0001
1000
0001
0010
0100
0010
0100
1000
0001
1000
0001
0100
0010
0100
0010
,  // measure 63
1000
0100
0010
0001
1000
0100
0010
0001
0100
0010
1000
0100
0010
0000
0000
0000
,  // measure 64
0011
0001
0000
0101
0000
0010
0000
1100
,  // measure 65
0000
0010
0000
0101
0000
0001
0000
1000
,  // measure 66
1001
0001
0000
0011
0000
0100
0000
1010
,  // measure 67
0000
0100
0000
0011
0000
0001
0000
1000
,  // measure 68
0010
0100
1000
0100
0010
1000
0001
1000
,  // measure 69
0100
0010
1000
0010
0100
1000
0001
0100
,  // measure 70
0010
1000
0001
0010
0100
1000
0001
0100
0010
1000
0010
1000
0100
0010
0100
0010
,  // measure 71
0001
0000
0000
0000
,  // measure 72
1001
0000
1000
0010
0100
0000
0001
0010
0100
0000
1000
0000
0100
0000
0010
0000
,  // measure 73
0001
0100
0010
0000
1000
0000
0100
0000
0110
0000
0010
0000
0001
0000
1000
0000
,  // measure 74
1010
0000
0010
0100
0001
0000
0010
0100
1000
0000
0001
0000
0100
0000
0010
0000
,  // measure 75
1000
0100
0010
0000
0001
0000
0100
0000
0101
0000
0010
0000
1000
0000
0100
0000
,  // measure 76
0011
0000
0010
0100
0001
0000
0100
0010
0001
0000
0100
0000
0010
0000
1000
0000
,  // measure 77
0001
0100
1000
0000
0100
0000
0010
0000
0110
0000
1000
0000
0001
0000
0100
0000
,  // measure 78
1010
0000
0010
0100
1000
0000
0100
0010
1000
0000
0100
0000
0010
0000
0001
0000
,  // measure 79
1000
0100
0001
0000
0100
0000
0010
0000
0011
0000
1001
0000
0000
0000
0000
0000
,  // measure 80
1100
0000
0100
0010
0001
0000
1000
0010
0100
0000
0001
1000
0100
0000
0010
0000
,  // measure 81
0100
1000
0010
0100
0001
0000
0100
0000
0101
0000
0001
0000
1000
0000
0100
0000
,  // measure 82
0010
0000
0001
0100
0010
0000
0001
0010
0100
0000
0001
1000
0100
0000
0010
0000
,  // measure 83
1000
0010
0001
1000
0010
0000
1000
0000
1001
0000
0001
0000
0100
0000
0010
0000
,  // measure 84
1001
0000
0000
0000
0001
0010
0100
0010
1000
0010
0100
0010
0001
0000
0000
0000
,  // measure 85
1001
0000
0000
0000
1000
0010
0100
0010
0001
0010
0100
0010
1000
0000
0000
0000
,  // measure 86
1001
0000
0000
0000
0001
0010
1000
0010
0001
1000
0001
0010
0001
0000
0000
0000
,  // measure 87
0100
0100
0100
0100
0100
0001
1000
0100
,  // measure 88
0110
1000
0001
0110
0001
1000
0110
1000
,  // measure 89
0001
0110
0001
1000
1010
0010
0110
0000
,  // measure 90
1001
0010
0100
1001
0100
0010
1001
0010
,  // measure 91
0100
1001
0100
0010
1001
0000
1000
0000
,  // measure 92
1100
0010
0001
1100
0010
0001
1100
0010
,  // measure 93
0001
1100
0100
1000
1010
0010
0110
0000
,  // measure 94
1010
0100
0001
1010
0100
0001
1010
0100
,  // measure 95
0001
1010
0100
0001
0010
0100
0010
0001
,  // measure 96
1001
0000
0000
0000
1000
0000
0001
0100
1000
0000
0001
0000
0010
0000
1000
0000
,  // measure 97
0001
0010
1000
0000
0001
0000
1000
0010
0001
0000
1000
0010
0100
0000
0001
0000
,  // measure 98
1001
0000
0000
0000
0001
0000
0010
0100
1000
0000
0001
0000
0100
0000
0010
0000
,  // measure 99
0001
0010
1000
0000
0001
0000
1000
0100
0001
0000
0100
0010
0000
0000
0000
0000
,  // measure 100
0011
0000
0000
0000
0001
0100
0010
0100
1000
0000
0000
1100
0000
0000
0100
0000
,  // measure 101
1001
0000
0000
0000
1000
0100
0010
0100
0001
0000
0000
0101
0000
0000
0100
0000
,  // measure 102
1001
0000
0000
0000
0001
0100
1000
0100
0001
0000
0000
0011
0000
0000
0010
0000
,  // measure 103
0100
1000
0100
1000
0100
0010
0001
0100
,  // measure 104
0010
0000
0000
0000
;
