#TITLE:FINAL AUDITION 3 U.F.;
#SUBTITLE:;
#ARTIST:BANYA;
#TITLETRANSLIT:;
#SUBTITLETRANSLIT:;
#ARTISTTRANSLIT:;
#GENRE:;
#CREDIT:;
#BANNER:Final Audition 3 U.F.png;
#BACKGROUND:Final Audition 3 U.F-bg.png;
#LYRICSPATH:;
#CDTITLE:;
#MUSIC:Final Audition 3 U.F.ogg;
#OFFSET:0.096100;
#SAMPLESTART:64.260056;
#SAMPLELENGTH:12.000000;
#SELECTABLE:YES;
#BPMS:0.000000=130.500000
;
#STOPS:
;
#BGCHANGES:0.000=FINAL AUDITION 3 U.F.mp4=1.000=0=0=1=====,
99999=-nosongbg-=1.000=0=0=0 // don't automatically add -songbackground-
;
#KEYSOUNDS:;
#ATTACKS:;

//---------------dance-single - ----------------
#NOTES:
     dance-single:
     :
     Hard:
     16:
     0.765953,1.050697,0.260369,0.376089,1.012546,556.000000,529.000000,27.000000,39.000000,0.000000,0.000000,0.765953,1.050697,0.260369,0.376089,1.012546,556.000000,529.000000,27.000000,39.000000,0.000000,0.000000:
0000
0000
0000
0000
,
0000
0000
0000
0000
,
0000
0000
0000
0000
,
1000
0000
0100
0000
0010
0000
0000
0010
0000
0000
0001
0000
2000
0000
0000
0000
,
3001
0000
0100
0000
0010
0000
0000
0010
0000
0000
1000
0000
0002
0000
0000
0000
,
1003
0000
0100
0000
0010
0000
0000
0010
0000
0001
1000
0000
0001
0000
0000
0000
,
0001
0000
0100
0000
0010
0000
0000
0010
0000
1000
0001
0000
1000
0000
0000
0000
,
0001
0000
0010
0000
0100
0000
1000
0010
0000
1000
0100
0000
0020
0000
0000
0000
,
0031
0000
0100
0000
1000
0000
0100
0010
0000
0010
1000
0000
0001
0000
0000
0000
,
1000
0000
0100
0000
0010
0000
0001
0100
0000
0001
0010
0000
0100
0000
1000
0001
,
1300
0000
0010
0000
0001
0000
0010
0100
0000
0100
0001
0000
1000
0000
0000
0000
,
0001
0100
0010
1000
0100
0010
0001
1000
0010
0100
0010
0100
0001
1000
0001
1000
,
0001
0010
0100
1000
0010
0100
0001
1000
0001
0100
0001
0100
0010
1000
0010
1000
,
0001
0010
0100
1000
0010
0100
0001
1000
0100
0010
0001
0100
0010
0100
0001
1000
,
0001
0000
0000
0000
,
2002
0000
0003
3200
,
0020
0000
0300
0032
,
1003
0000
0000
1000
0000
0000
1000
0000
0000
0010
0000
0000
0200
0000
0000
0000
,
0301
0000
0000
0001
0000
0000
0001
0000
0000
0010
0000
0000
0001
1000
0001
0000
,
0200
0000
0301
2000
0000
3001
0020
0000
0130
1000
0001
0000
2001
0000
0000
0000
,
3010
0000
0100
0000
0001
0000
1000
0100
0000
0010
0001
0000
1000
0000
0000
0000
,
1010
2020
3030
3030
0101
0202
0303
0000
,
2001
0000
3010
0000
1002
0000
0013
0000
0001
1000
0001
1000
0010
0100
0001
1000
,
0001
0000
1000
0100
0000
1000
0001
1000
0010
0000
0010
0031
0000
0001
0013
0030
,
1000
0000
0001
0010
0000
0001
1030
0001
0010
0000
0010
1300
0000
1000
3010
0000
,
0001
0000
1000
0100
0000
1000
0100
0010
0001
1000
0001
0000
0101
0000
0100
0010
,
1000
0000
3001
0100
0000
0001
0010
0100
1000
0001
1000
0000
0001
0100
1000
0100
,
0001
0000
1000
0000
1010
0000
0001
0010
0001
0010
0100
0000
1100
0000
1000
0000
,
0001
0000
0100
0000
0101
0000
1000
0100
1000
0100
0010
0000
0011
0000
0001
0000
,
1000
0000
1000
0000
0001
0000
0200
0000
0000
0301
1000
0001
0100
0010
0100
0001
,
1000
0001
0010
0100
0010
0001
1000
0001
0000
0000
0000
0000
1000
0100
0001
0100
,
1000
0000
0001
0000
0101
0000
1000
0100
1000
0001
0100
0010
1000
0000
0000
0000
,
0001
0000
0010
0000
0011
0000
1000
0010
1000
0001
0010
0100
1000
0000
0000
0000
,
1010
2002
3003
0000
0011
2002
3003
0000
,
1001
0000
1001
0000
1001
0000
1001
0000
0001
1000
0001
1000
0001
0100
0010
1000
,
0002
0000
1003
0010
1000
0001
0100
0001
1000
0100
0010
0001
0100
0010
1000
0001
,
1000
0010
1000
0010
0100
0001
0100
0001
1000
0100
0010
0001
0010
0100
1000
0001
,
0100
0010
0100
0001
1000
0001
0010
0100
1000
0010
0100
0001
1000
0100
0010
0001
,
0100
1000
0100
1000
0100
0001
0100
0001
1000
0100
0010
0001
0100
0010
1000
0001
,
1000
1000
0010
0001
0010
0100
0010
1000
0001
0001
0010
1000
0010
0100
0010
0001
,
1000
0001
1000
0000
0100
0000
0001
0000
0100
0000
0010
0000
0100
0000
1000
0000
0001
1000
0001
0000
0100
0000
1000
0000
0100
0000
0010
0000
0100
0000
0001
0000
,
1000
0010
1000
0000
0100
0000
0001
0000
1000
0000
0010
0000
0001
0000
1000
0000
0001
0100
0001
0000
0100
0000
1000
0000
0001
0000
0010
0000
1000
0000
0001
0000
,
1000
0010
0100
0001
0010
0100
1000
0010
0100
0002
0000
0000
0000
0000
0000
0000
0000
0000
0000
0000
0000
0003
0000
0000
,
0102
0000
0000
0100
0000
0000
2003
0000
0000
0000
3010
0001
0010
0200
0000
0000
,
0301
0010
0100
1000
0020
0000
0001
0003
1030
0100
0010
0001
0100
0010
1000
0001
,
0010
0000
0000
0010
0100
0001
0100
1000
0020
0000
0000
0000
0130
0000
0001
1000
,
0000
0000
0001
0010
1000
0020
0000
0000
0031
0100
0010
1000
0000
0001
0013
0001
,
2000
0000
3010
0100
0000
0100
0001
0000
0020
0000
3230
0000
1300
0000
0001
0000
,
0100
0000
0001
0010
0100
0000
1000
0010
0100
0000
0001
1000
0031
0000
0000
0000
,
2010
0000
3001
0100
0010
0100
0001
0000
0001
0000
1000
0100
0010
0100
1000
0000
,
0001
0100
0010
0000
1000
0100
0010
0000
0001
0100
0010
0100
0001
1000
0001
0000
,
1001
0000
1000
0000
0010
0000
0100
0010
0000
0010
1000
0000
0100
0000
1200
0000
,
1303
0000
0001
0000
0010
0000
0100
0010
0000
0010
0001
0000
1000
0000
0000
0000
,
0001
0010
0001
1000
0010
1000
0001
0100
0001
1000
0100
0010
0001
0100
0010
2000
,
0002
0000
0000
0000
,
0000
0000
0000
0000
0000
0000
0000
3003
;

//---------------dance-single - ----------------
#NOTES:
     dance-single:
     :
     Medium:
     13:
     0.579975,0.835170,0.173579,0.327872,0.486986,421.000000,403.000000,18.000000,34.000000,0.000000,0.000000,0.579975,0.835170,0.173579,0.327872,0.486986,421.000000,403.000000,18.000000,34.000000,0.000000,0.000000:
0000
0000
0000
0000
,
0000
0000
0000
0000
,
0000
0000
0000
0000
,
0001
0100
0010
0000
1000
0100
0010
0000
,
0001
0100
0001
0000
1000
0100
1000
0000
,
0001
0100
0001
0100
0010
1000
0001
0000
,
1000
0100
1000
0100
0010
0001
1000
0000
,
0001
0000
0100
0000
1000
0000
0000
0100
0000
0100
0001
0000
2000
0000
0000
0000
,
3100
0000
0010
0000
0001
0000
0100
0010
0000
0100
0010
0000
1001
0000
0000
0000
,
1000
0000
0100
0000
0001
0000
0000
0100
0000
0100
1000
0000
0002
0000
0000
0000
,
0103
0000
0010
0000
1000
0000
0100
0010
0000
0100
0010
0000
1001
0000
0000
0000
,
1000
0000
0100
0000
0010
0000
0001
0000
0100
0010
0100
0000
0010
1000
0010
0000
,
1000
0001
1000
0000
0001
0010
0001
0000
0010
0100
0010
0000
0100
1000
0100
0000
,
1000
0010
0100
0000
0001
0100
0010
0000
1000
0100
0010
0000
0001
0100
0010
0000
,
1001
0000
0000
3003
,
0002
0000
0000
0023
,
0230
0000
0000
2330
,
3001
0000
0000
0001
0000
0000
0001
0000
0000
0000
0000
0000
0102
0000
0000
0000
,
1003
0000
0000
1000
0000
0000
1000
0000
0000
0000
0000
0000
1000
0001
1000
0000
,
3002
0000
0000
0203
0000
0000
0320
0000
0100
0000
1030
0000
1002
0000
0000
0000
,
1003
0000
0100
0000
0010
0000
0001
0100
0000
0001
0100
0000
0010
0000
0000
0000
,
1000
2020
0000
3033
0001
0022
0000
0033
,
1000
0000
0100
0000
0001
0000
0100
0300
1000
0010
1000
0000
0001
1000
0001
1000
,
0001
0000
0000
0010
0000
0000
0100
0000
0100
0000
0000
1000
0000
0000
0010
0000
,
0010
0000
0000
0100
0000
0000
0001
0000
0001
0000
0000
1000
0000
0000
0100
0000
,
0020
0000
0000
0031
0100
0000
0010
0000
0020
0000
0000
1030
0001
0000
0001
0000
,
0020
0000
0000
0130
1000
0000
1000
0000
0001
0000
0100
0000
0001
1000
0001
1000
,
0001
0000
0000
0000
1010
0000
0000
0010
0000
0100
0001
0000
1000
0000
0000
0000
,
0001
0000
0010
0000
0011
0000
0000
0010
0000
0100
1000
0000
0001
0000
0000
0000
,
1000
0010
1010
0000
0001
0001
0010
0010
,
0100
0000
0100
0000
1000
0000
0001
1000
0000
0000
0000
0000
0001
1000
0001
1000
,
0001
0000
0100
0000
0010
0000
1000
0010
0000
0010
1000
0000
0001
0000
0000
0000
,
1000
0000
0100
0000
0010
0000
0001
0100
0000
0100
0001
0000
1000
0000
0000
0000
,
1000
0000
2200
0000
0000
0000
3300
0000
0001
0000
0202
0030
0000
0000
0303
0000
,
1000
0000
0001
0000
1000
0000
0001
0000
1000
0001
1000
0001
1000
0001
1000
0001
,
1000
0000
0010
0000
0100
0000
0001
0000
1000
0100
1000
0000
0001
0100
0001
0000
,
1000
0000
0100
0000
0001
0000
0100
0000
1000
0010
0100
0000
0001
0010
0100
0000
,
1000
0001
1000
0000
0010
0000
0100
0000
0001
1000
0001
0000
0010
0000
0100
0000
,
1000
0100
1000
0000
0001
0100
0001
0000
0010
0000
0100
0000
1000
0000
0001
0000
,
1000
0010
1000
0010
1000
0001
1000
0000
0001
0010
0001
0010
0001
1000
0001
0000
,
1000
0100
0010
0100
1000
0001
1000
0000
0001
0100
0010
0100
0001
1000
0001
0000
,
1000
0100
0010
0100
1000
0100
0010
0010
0001
0100
0010
0100
0001
0100
0010
0010
,
1000
0100
0010
0001
0100
0000
2002
0000
0000
0000
0000
0000
3003
0000
0000
0000
,
0201
0000
0000
0001
0000
0000
0320
0000
0000
0000
1033
0100
2000
0000
0000
0000
,
3001
0100
0020
0000
1030
0100
0010
0001
,
0100
0000
0000
0100
0010
0000
1000
0000
0002
0000
0000
0000
0013
0000
0100
0010
,
0000
0000
0001
0100
0001
0200
0000
0000
0310
0000
1000
0000
0001
0000
0000
0000
,
1000
0000
0001
0010
0000
0010
0100
0000
1000
0000
0010
0000
0001
0000
0010
0000
,
1000
0000
0001
0010
0100
0000
1000
0010
0100
0000
0001
1000
0001
0000
0100
0000
,
0010
0000
0100
0010
0000
1000
0001
0000
0001
0000
1000
0100
1000
0000
0001
0100
,
0001
0000
0000
0000
0101
0000
0000
0000
0110
0000
0000
0000
1000
0001
1000
0000
,
1002
0000
0013
0100
1000
0001
1000
0000
,
2001
0000
3010
0100
0001
1000
0001
0000
,
1000
0100
1000
0000
0001
0100
0001
0000
1000
0000
0100
0000
0010
0000
0002
0000
,
2000
0000
0000
0000
,
0000
0000
0000
0000
0000
0000
0000
3003
;

//---------------dance-single - ----------------
#NOTES:
     dance-single:
     :
     Easy:
     8:
     0.352669,0.457996,0.250726,0.347159,0.000000,256.000000,230.000000,26.000000,36.000000,0.000000,0.000000,0.352669,0.457996,0.250726,0.347159,0.000000,256.000000,230.000000,26.000000,36.000000,0.000000,0.000000:
0000
0000
0000
0000
,
0000
0000
0000
0000
,
0000
0000
0000
0000
,
1000
1010
0001
1000
,
0200
0310
0000
0010
,
0001
0101
1000
0001
,
0020
0130
0000
0100
,
1000
1000
0010
0000
0000
0000
1010
0000
,
0001
0000
1000
0000
0100
0010
0001
0000
,
0001
0001
0100
0000
0000
0000
0101
0000
,
1000
0000
0001
0000
0010
0100
1000
0000
,
0001
0100
0001
0000
2000
0000
3010
0000
,
1000
0100
1000
0000
0002
0000
0013
0000
,
0001
1000
0010
0000
1000
0001
0010
0000
,
1001
0000
0000
0000
,
2000
0000
0000
0000
,
3002
0000
0000
0000
,
0103
0000
0000
0100
0000
0000
0010
0000
,
0010
0000
0000
0010
0000
0000
0110
0000
,
1001
0000
0001
0000
0010
0100
2000
0000
,
3001
0100
0010
1000
,
0001
0001
0000
0000
1000
1000
0000
0000
,
1001
0000
1001
0000
1000
0001
1000
0000
,
0002
0100
1000
0100
,
2003
0100
0001
0100
,
3002
0000
0013
0000
0001
0010
0100
0000
,
2000
0000
3010
0000
1000
0010
0100
0000
,
0001
0001
0001
0000
1000
1000
1000
0000
,
0010
1001
0010
1001
,
0001
0001
0001
0000
1000
1000
1000
0000
,
0100
1001
0100
1001
,
1000
0100
0010
0000
0010
0100
1000
0000
,
0001
0100
0010
0000
0010
0100
0001
0000
,
1000
1000
0000
0000
0001
0001
0000
0000
,
1001
0110
1001
0110
,
1002
0000
0013
0000
0100
1000
0100
0000
,
2000
0000
3010
0000
0100
0001
0100
0000
,
0001
0010
0100
0000
1000
0010
0100
0000
,
0020
2030
3002
0023
,
0031
0100
0001
0100
0001
1000
0001
1000
,
0001
0010
0001
0010
0001
1000
0001
1000
,
0001
0100
0001
1000
0001
0010
0001
1000
,
0001
0100
0001
2000
0000
0000
0000
0000
,
3020
0000
0000
0000
0000
0130
0200
0000
,
0301
1000
0200
0000
0320
0000
0031
1000
,
0002
0103
2302
3003
,
1000
0100
0100
0000
0010
0001
0001
0000
,
2000
0010
3002
0010
,
1003
0000
0010
0100
0020
0000
0030
0000
,
1000
0100
0020
0000
0032
0000
1003
0000
,
1001
1100
1001
0101
,
2002
0000
3003
0000
1000
0010
0100
0000
,
0001
0000
0010
0000
0100
1000
0001
0000
,
0202
0000
3303
0000
0001
0100
0010
0000
,
2002
0000
0000
0000
,
0000
0000
0000
0000
0000
0000
0000
3003
;

//---------------dance-single - ----------------
#NOTES:
     dance-single:
     :
     Beginner:
     3:
     0.118475,0.208295,0.019287,0.000000,0.000000,86.000000,84.000000,2.000000,0.000000,0.000000,0.000000,0.118475,0.208295,0.019287,0.000000,0.000000,86.000000,84.000000,2.000000,0.000000,0.000000,0.000000:
0000
0000
0000
0000
,
0000
0000
0000
0000
,
0000
0000
0000
0000
,
0001
0000
0000
1000
,
1000
0000
0000
0000
,
0010
0000
0000
0100
,
0100
0000
0000
0000
,
0001
0000
0001
0000
,
0001
0000
0000
0000
,
1000
0000
1000
0000
,
1000
0000
0000
0000
,
0100
0000
0100
0000
,
0100
0000
0000
0000
,
0010
0000
0010
0000
,
0010
0000
0000
0000
,
0001
0000
0000
0000
,
1000
0000
0000
0000
,
0010
0000
0000
0000
,
0100
0000
0000
0000
,
0001
0000
0001
0000
,
0001
0000
0000
0000
,
1000
0000
1000
0000
,
1000
0000
0000
0000
,
0010
0010
0000
0000
,
0010
0000
0000
0000
,
0100
0100
0000
0000
,
0100
0000
0000
0000
,
0001
0000
0001
0000
,
0001
0000
0000
0000
,
1000
0000
1000
0000
,
1000
0000
0000
0000
,
0010
0010
0000
0000
,
0010
0000
0000
0000
,
0100
0000
0100
0000
,
0100
0000
0000
0000
,
1001
0000
1000
0000
,
1000
0000
0000
0000
,
0010
0000
0010
0000
,
0010
0000
0000
0000
,
0100
0100
0100
0000
,
0001
0001
0001
0000
,
1000
1000
1000
0000
,
0010
0010
0010
0010
,
0010
0000
0000
0000
,
1000
0000
0000
0000
,
0001
0000
0001
0000
,
0001
0000
0000
0000
,
0100
0100
0000
0000
,
0100
0100
0000
0000
,
0010
0000
0010
0000
,
0010
0000
0010
0000
,
1001
0000
0000
1000
,
1000
0000
0000
0000
,
0001
0000
0000
0010
,
0010
0000
0000
0000
;

//---------------dance-double - ----------------
#NOTES:
     dance-double:
     :
     Hard:
     16:
     0.724625,1.050697,0.318229,0.617171,0.848610,526.000000,493.000000,33.000000,64.000000,0.000000,0.000000,0.724625,1.050697,0.318229,0.617171,0.848610,526.000000,493.000000,33.000000,64.000000,0.000000,0.000000:
// measure 0
00000000
00000000
00000000
00000000
,  // measure 1
00000000
00000000
00000000
00000000
,  // measure 2
00000000
00000000
00000000
00000000
,  // measure 3
00010000
00000000
00001000
00000000
00000200
00000000
00000000
00000320
00000300
00000000
00010030
00000000
00001000
00000000
00000000
00000000
,  // measure 4
00001000
00000000
00010000
00000000
02000000
00000000
00000000
03200000
00000000
00000000
00301000
00000000
00010000
00000000
00000000
00000000
,  // measure 5
00001000
00000000
00010000
00000000
00000010
00000000
00000000
00000100
00000000
00000100
00001000
00000000
00010000
00000000
00000000
00000000
,  // measure 6
00001000
00000000
00010000
00000000
00100000
00000000
00000000
01000000
00000000
01000000
00001000
00000000
00010000
00000000
00000000
00000000
,  // measure 7
00001000
00000000
00100000
00000000
01000000
00000000
10000000
00100000
00000000
10000000
01000000
00000000
00200000
00000000
00000000
00000000
,  // measure 8
00310000
00000000
01000000
00000000
00001000
00000000
00100000
00001000
00000000
00001000
00010000
00000000
00000200
00000000
00000000
00000000
,  // measure 9
00010300
00000000
00000010
00000000
00000100
00000000
00000001
00000010
00000000
00000001
00000100
00000000
00000010
00000000
00010000
00001000
,  // measure 10
00010000
00000000
00001000
00000000
01000000
00000000
00010000
00100000
00000000
00010000
10000000
00000000
00100000
00000000
00000000
00000000
,  // measure 11
10000000
00000000
00100000
00000000
01100000
00000000
00010000
00000000
00100000
00001000
00100000
00001000
00010000
00000010
00010000
00000010
,  // measure 12
00001000
00000001
00001000
00000001
00000100
00000010
00000100
00000010
00001000
00000100
00001000
00000100
00010000
00001000
00010000
00001000
,  // measure 13
00100000
00010000
01000000
00100000
10000000
01000000
00100000
00010000
01000000
00001000
00010000
00000100
00000010
00000001
00001000
00000001
,  // measure 14
00000100
00000000
00000000
00000000
,  // measure 15
20020000
00000000
00030000
30200000
,  // measure 16
00320000
00000000
00000000
00032000
,  // measure 17
00103000
00000000
00000000
00100000
00000000
00000000
00001000
00000000
00000000
00010000
00000000
00000000
00011000
00000000
00000000
00000000
,  // measure 18
00000010
00000000
00000000
00000010
00000000
00000000
00010000
00000000
00000000
00001000
00000000
00000000
00010000
00000100
00010000
00000100
,  // measure 19
00002000
00000000
00003001
00000200
00000000
00000301
00000020
00000000
00000130
00000000
00010000
00000000
00012000
00000000
00000000
00000000
,  // measure 20
01003000
00000000
00010000
00000000
10000000
00000000
01000000
00100000
00000000
00100000
00010000
00000000
01000000
00000000
00001000
00000000
,  // measure 21
00101000
00202000
00000000
00303000
00010010
00020020
00000000
00030330
,  // measure 22
00012000
00000000
00103000
00000000
00021000
00000000
00030010
00000000
00010000
00001000
00010000
00001000
00000100
00000010
00001000
00000001
,  // measure 23
00001000
00000000
00000001
00000100
00000000
00000010
00001000
00000010
00001000
00000000
00000100
00013000
00000000
00001000
00100000
00000000
,  // measure 24
00010000
00000000
10000000
00100000
00000000
01000000
00010000
01000000
00010000
00000000
00100000
00001000
00000000
00010000
00000100
00000000
,  // measure 25
00001000
00000000
00000010
00000000
00001010
00000000
00000001
00000100
00000000
00001000
00010000
00000000
00001000
00000000
00100000
00000000
,  // measure 26
00010000
00000000
01000000
00000000
01010000
00000000
10000000
01000000
00000000
00010000
00001000
00000000
00010000
00001000
00000100
00000010
,  // measure 27
00001000
00000000
00000001
00000000
00000011
00000000
00000010
00000100
00000000
00000100
00001000
00000000
00001100
00000000
00010000
00000000
,  // measure 28
00001000
00000000
01000000
00000000
01010000
00000000
10000000
01000000
00000000
01000000
00100000
00000000
00110000
00000000
00001000
00000000
,  // measure 29
00010000
00000000
00010000
00000000
00000100
00000000
00020000
00000000
00000000
00031000
01000000
00001000
00010000
00000100
00010000
00001000
,  // measure 30
01000000
00001000
00010000
00000010
00010000
00001000
00100000
00001000
00000000
00000000
00000000
00000000
00001000
00010000
00100000
01000000
,  // measure 31
00010000
00000000
10000000
00000000
11000000
00000000
00010000
01000000
00100000
01000000
00001000
00010000
00000100
00000000
00001000
00000001
,  // measure 32
00001000
00000000
00000001
00000000
00000101
00000000
00001000
00000010
00000100
00000010
00010000
00001000
00100000
00000000
00010000
00000000
,  // measure 33
10010000
20020000
30030000
00000000
00011000
00022000
00033000
00000000
,  // measure 34
00001001
00000000
00001001
00000000
00001001
00000000
00001001
00000000
00000001
00001000
00000001
00001000
00000001
00000100
00000010
00001000
,  // measure 35
00000002
00000000
00001003
00000100
00000010
00000100
00000010
00000001
00000100
00000010
00000100
00000010
00002000
00000000
00003200
00000000
,  // measure 36
00010300
00001000
00200000
00000000
00301000
00010000
00000020
00000000
00010030
00001000
02000000
00000000
03001000
00010000
00000200
00000000
,  // measure 37
00100300
00010000
00100000
00010000
10000000
00100000
10000000
00100000
01000000
00010000
00100000
01000000
10000000
00100000
01000000
00010000
,  // measure 38
00200000
00302000
00003020
00000032
00000203
00002300
00023000
00230000
,  // measure 39
10300000
01000000
00010000
00001000
00010000
00001000
00000100
00000010
00001000
00000001
00000010
00001000
00010000
00001000
00010000
00100000
,  // measure 40
10000000
00010000
10000000
00000000
01000000
00000000
00100000
00000000
00010000
00000000
00001000
00000000
00000100
00000000
00000010
00000000
00000001
00001000
00000001
00000000
00000100
00000000
00000010
00000000
00001000
00000000
00010000
00000000
01000000
00000000
00100000
00000000
,  // measure 41
10000000
00010000
10000000
00000000
00010000
00000000
01030000
00000000
10000000
00000000
01000000
00000000
00010000
00000000
00100000
00000000
00001000
00010000
00001000
00000000
00010000
00000000
00000010
00000000
00000100
00000000
00000010
00000000
00001000
00000000
00000001
00000000
,  // measure 42
00001000
00000100
00000010
00000001
00000100
00000010
00001000
00000100
00000010
00000002
00000000
00000000
00000000
00000000
00000000
00000000
00000000
00000000
00000003
00000000
00000000
00000000
00000000
00000000
,  // measure 43
00010200
00000000
00000000
00001000
00000000
00000000
00020300
00000000
00000000
00000000
00031000
01000000
00100000
02000000
00000000
00000000
,  // measure 44
03010000
10000000
01000000
10000000
00200000
00000000
00010000
00000000
01300000
00000000
00010000
10000000
00010000
00100000
00001000
00010000
,  // measure 45
00000100
00000000
00000000
00000100
00000010
00000001
00001000
00000001
00000200
00000000
00000000
00000000
00000310
00000000
00001000
00000200
,  // measure 46
00000000
00000000
00010300
00001000
00010000
02000000
00000000
00000000
03100000
00010000
10000000
00010000
01000000
00000000
00100000
00000000
,  // measure 47
10000000
00000000
00100000
01000000
00000000
01000000
00001000
00000000
00020000
00000000
00030200
00000000
00000310
00000000
00000001
00000000
,  // measure 48
00001000
00000001
00000100
00000000
00000001
00000100
00000010
00000100
00000001
00000000
00001000
00000100
00010003
00000000
00000000
00000000
,  // measure 49
00001000
00000000
00100000
01000000
00100000
00000000
00010000
00000000
00020000
00000000
10030000
00000000
00200000
00000000
01300000
00000000
,  // measure 50
02020000
00000000
03030000
00000000
00022000
00000000
00033000
00000000
00002200
00000000
00003300
00000000
00010000
00001000
00013000
00000000
,  // measure 51
00200020
00000000
00000000
00000000
00300030
00000000
00000000
00000000
00010000
00000000
00001000
00000000
01000000
00000000
01020000
03000000
,  // measure 52
10030000
00000000
01000000
00000000
00100000
00000000
00001000
01000000
00000000
00001000
00010000
00000000
00011000
00000000
00000000
00000000
,  // measure 53
00010000
00000100
00010000
00000100
00000010
00000001
00000010
00000001
00000100
00000010
00001000
00000100
00010000
00001000
01000000
00020000
,  // measure 54
20000000
00000000
00000000
00000000
,  // measure 55
00000000
00000000
00000000
00000000
00000000
00000000
00000000
30030000
;

//---------------dance-double - ----------------
#NOTES:
     dance-double:
     :
     Medium:
     13:
     0.571710,0.781288,0.192866,0.298942,0.414662,415.000000,395.000000,20.000000,31.000000,0.000000,0.000000,0.571710,0.781288,0.192866,0.298942,0.414662,415.000000,395.000000,20.000000,31.000000,0.000000,0.000000:
00000000
00000000
00000000
00000000
,
00000000
00000000
00000000
00000000
,
00000000
00000000
00000000
00000000
,
00001000
00010000
00100000
00000000
00100000
00010000
00001000
00000000
,
00010000
00001000
00000010
00000000
00000010
00001000
00010000
00000000
,
00001000
01000000
00100000
10000000
01000000
00100000
00001000
00000000
,
00010000
00000010
00000100
00000001
00000010
00000100
00010000
00000000
,
00001000
00000000
01000000
00000000
00100000
00000000
10000000
01000000
00000000
00010000
01000000
00000000
20000000
00000000
00000000
00000000
,
30100000
00000000
01000000
00000000
00010000
00000000
00100000
00001000
00000000
00100000
00001000
00000000
00010000
00000000
00000000
00000000
,
00010000
00000000
00000010
00000000
00000100
00000000
00000001
00000010
00000000
00001000
00000010
00000000
00000002
00000000
00000000
00000000
,
00000103
00000000
00000010
00000000
00001000
00000000
00000100
00010000
00000000
00000100
00010000
00000000
00001000
00000000
00000000
00000000
,
00100000
00000000
00010000
00000000
01000000
00000000
00100000
00000000
10000000
00100000
10000000
00000000
00010000
01000000
00010000
00000000
,
10000000
00000000
01000000
00000000
00100000
00000000
00001000
00000000
00010000
00000010
00010000
00000000
00001000
00100000
00001000
00000000
,
00010000
00000000
00000010
00000000
00000100
00000000
00000001
00000000
00001000
00000100
00001000
00000000
00000001
00000100
00000001
00000000
,
00001001
00000000
00000000
00000000
,
20020000
00000000
30000000
00230000
,
00002000
00000000
00300000
00023000
,
00030010
00000000
00000000
00000010
00000000
00000000
00010000
00000000
00000000
00010000
00000000
00000000
00002000
00000000
00000000
00000000
,
00103000
00000000
00000000
00100000
00000000
00000000
00001000
00000000
00000000
00001000
00000000
00000000
00010000
00001000
00010000
00000000
,
00000020
00000000
00000000
00000230
00000000
00000000
00000301
00000000
00000010
00000000
00000100
00000000
00020100
00300000
00000000
00000000
,
00031000
00000000
01000000
00000000
00100000
00000000
10000000
00010000
00000000
10000000
00010000
00000000
00100000
00000000
00000000
00000000
,
00101000
00002000
00000000
00003000
00010010
00020000
00000000
00030000
,
00001000
00000000
00010000
00000000
01000000
00000000
00010000
00000000
00001000
00010000
00001000
00000000
00010000
00001000
00010000
00000000
,
00001000
00000000
00000000
00001000
01000000
00000000
00100000
00000000
00100000
00000000
00000000
00100000
10000000
00000000
00010000
00000000
,
00010000
00000000
00000000
00010000
00100000
00000000
00001000
00000000
00001000
00000000
00000000
00001000
00010000
00000000
00000010
00000000
,
00000010
00000000
00000000
00001000
00000100
00000000
00000010
00000000
00000001
00000000
00000000
00000001
00000100
00000000
00000010
00000000
,
00010000
00000000
00000000
00010000
00001000
00000000
00100000
00000000
01000000
00000000
10000000
00000000
00010000
10000000
00010000
00000000
,
01000000
00000000
00000000
00000000
01010000
00000000
00000000
00001000
00010000
00001000
00010000
00000000
00000100
00000000
00000000
00000000
,
00001000
00000000
00000010
00000000
00001010
00000000
00000000
00010000
00001000
00010000
00001000
00000000
01000000
00000000
00000000
00000000
,
00010000
10000000
01000000
01000000
00000000
10000000
01000000
00010000
,
00001000
00000000
00000010
00000000
00000001
00000000
00000100
00001000
00000000
00000000
00000000
00000000
00010000
00001000
00010000
00000000
,
00000100
00000000
00001000
00000000
00000010
00000000
00000100
00001000
00000000
00000100
00000010
00000000
00010000
00000000
00001000
00000000
,
00100000
00000000
00010000
00000000
01000000
00000000
00100000
00010000
00000000
00100000
01000000
00000000
00010000
00000000
01000000
00000000
,
01001000
02002000
00000000
03003000
00010100
00020200
00000000
00030300
,
00011000
00000000
00001000
00000000
00011000
00000000
00010000
00000000
00001000
00010000
00001000
00010000
00001000
00010000
00001000
00010000
,
00000100
00000000
00001000
00000000
00000010
00000000
00000100
00000000
00000001
00000100
00000001
00000000
00001000
00000100
00001000
00000000
,
00000100
00000000
00010000
00000000
00001000
00000000
01000000
00000000
00010000
00100000
00010000
00000000
10000000
00100000
10000000
00000000
,
00010000
00100000
10000000
00100000
00001000
00010000
00000010
00000100
,
00000001
00000100
00000001
00000000
00001000
00000010
00001000
00000000
00000100
00000000
00000100
00000000
00010000
00000000
00001000
00000000
,
00100000
00010000
00100000
00010000
00100000
00001000
00100000
00000000
00000010
00001000
00000010
00001000
00000010
00010000
00000010
00000000
,
01000000
00010000
01000000
00100000
01000000
00001000
00010000
00000000
00000100
00001000
00000100
00000010
00000100
00010000
00001000
00000000
,
00010000
00001000
00000100
00001000
00010000
00001000
00010000
00000000
00001000
00010000
01000000
00010000
00001000
00010000
00001000
00000000
,
00010000
00001000
00000100
00000001
00000010
00000100
00020000
00000000
00000000
00000000
00000000
00000000
00030000
00000000
00000000
00000000
,
02001000
00000000
00000000
00001000
00003000
00000000
03020000
00000000
00000000
00000000
10030000
01000000
10000000
02000000
00000000
00000000
,
03100000
00000000
00010000
00000000
02000000
00000000
00000000
00000000
03001000
00000000
00010000
00000100
00000000
00010000
00000100
00000000
,
00000020
00000300
00000000
00000000
00000031
00000000
00001000
00000001
00002000
00000000
00000000
00000000
00003100
00000000
00010000
00000000
,
00001000
00100000
00001000
00000010
00001000
00010000
02000000
00000000
,
13000000
00100000
00010000
00001000
00100000
00100000
00001000
00000010
,
00000001
00000100
00001000
00000100
00000020
00000000
00001030
00000100
,
00000010
00000001
00000100
00000010
00000010
00000000
00000110
00000000
,
00001001
00000000
00000000
00000000
00010100
00000000
00000000
00000000
00101000
00000000
00000000
00000000
00100000
01000000
00100000
00000000
,
20020000
00000000
30030000
00000000
10000000
00100000
02000000
00000000
,
03010000
00000000
00100000
00000000
00001000
00000000
00010000
00000010
00000000
00000010
00000100
00000000
00000001
00000000
00000000
00000000
,
00001000
00000000
00000100
00000000
00000001
00000000
00000100
00010000
00000000
00010000
00001000
00000000
01000000
00000000
00100000
00000000
,
20020000
00000000
00000000
00000000
,
00000000
00000000
00000000
00000000
00000000
00000000
00000000
30030000
;

//---------------dance-double - ----------------
#NOTES:
     dance-double:
     :
     Easy:
     8:
     0.351291,0.404114,0.298942,0.337515,0.000000,255.000000,224.000000,31.000000,35.000000,0.000000,0.000000,0.351291,0.404114,0.298942,0.337515,0.000000,255.000000,224.000000,31.000000,35.000000,0.000000,0.000000:
00000000
00000000
00000000
00000000
,
00000000
00000000
00000000
00000000
,
00000000
00000000
00000000
00000000
,
00010000
00010000
00000100
00000000
00001000
00000000
00001100
00000000
,
00020000
00030000
00002000
00003000
,
00001000
00001000
01000000
00000000
00010000
00000000
01010000
00000000
,
00002000
00003000
00020000
00030000
,
00010000
00000100
00000010
00000000
00000001
00000000
00001000
00000000
,
00000010
00000100
00000010
00000000
00001000
00000000
00000000
00000000
,
00000001
00000010
00000100
00000000
00010000
00010000
00010000
00000000
,
00001000
00101000
00011000
00000000
,
00001000
00100000
01000000
00000000
10000000
00000000
00010000
00000000
,
01000000
00100000
01000000
00000000
00010000
00000000
00000000
00000000
,
10000000
01000000
00100000
00000000
00001000
00001000
00001000
00000000
,
00011000
00000000
00000000
00000000
,
00020000
00000000
00000000
00030020
,
00000230
00000000
00000000
00000000
,
00000302
00000000
00000000
00000023
,
00000230
00000000
00020300
00031000
,
00011000
00000000
00101000
00000000
00100000
00010000
01000000
00000000
,
00010000
10000000
00100000
00000000
10000000
00010000
00100000
00000000
,
00001000
00001000
00000000
00000000
00010000
00010000
00000000
00000000
,
00011000
00000000
00011000
00000000
00010000
00000100
00010000
00000000
,
00000100
00000110
00000010
00000011
,
00000001
00000101
00000100
00000110
,
00001000
00000010
00001000
00000000
00000100
00010000
00000100
00000000
,
00010000
00001000
00010000
00000000
00001000
00100000
01000000
00000000
,
10000000
10100000
00100000
01100000
,
01000000
01010000
00010000
00110000
,
00100000
00001000
00010000
00000000
00001000
00010000
00001000
00000000
,
00010000
00000010
00001000
00000000
00001010
00000000
00000000
00000000
,
00000002
00000000
00000103
00000000
00000001
00000100
00000010
00000000
,
00002000
00000000
00003100
00000000
00001000
00000100
00010000
00000000
,
00001000
00001000
00000000
00000000
00010000
00010000
00000000
00000000
,
00011000
00101000
00010100
00011000
,
20010000
00000000
30100000
00000000
10000000
00100000
10000000
00000000
,
00010000
01000000
00010000
00000000
00100000
00001000
00100000
00000000
,
00002000
00023000
00030200
00000320
,
00000031
00001000
00000001
00000000
00001000
00000010
00001000
00000000
,
00000001
00000100
00001000
00000000
00010000
00100000
10000000
00000000
,
10000000
01000000
00010000
00000000
00001000
00000010
00000001
00000000
,
00000001
00000100
00000010
00000100
00001000
00000100
00000010
00000100
,
00000001
00000010
00000100
00020000
00000000
00000000
00030000
00000000
,
00022000
00000000
00033000
00002000
,
00103000
01000000
00200000
00000000
00310000
10000000
00020000
00000000
,
10030000
00100000
02000000
03001000
,
00010000
00001000
00010000
00000000
00001000
00010000
00000100
00000000
,
00002100
00000001
00000010
00000001
,
00003002
00000010
00001000
00000100
,
00002003
00000000
00000000
00003100
00000100
00000000
00010000
00000000
,
00010100
00011000
00101000
00011000
,
00002002
00000000
00003003
00000000
00000001
00000100
00000020
00000000
,
00020030
00000000
00030000
00000000
00001000
00010000
00001000
00000000
,
00200000
00000000
00300000
00000000
00010000
01000000
00100000
00000000
,
20020000
00000000
00000000
00000000
,
00000000
00000000
00000000
00000000
00000000
00000000
00000000
30030000
;
