#VERSION:0.83;
#TITLE:FANTASTIC THREE;
#SUBTITLE:;
#ARTIST:ジャカルタファンクブラザーズ;
#TITLETRANSLIT:;
#SUBTITLETRANSLIT:;
#ARTISTTRANSLIT:Jakarta Funk Brothers;
#GENRE:Dub Comedy;
#ORIGIN:;
#CREDIT:;
#BANNER:FANTASTIC THREE.png;
#BACKGROUND:FANTASTIC THREE-bg.png;
#PREVIEWVID:;
#JACKET:FANTASTIC THREE-jacket.png;
#CDIMAGE:;
#DISCIMAGE:;
#LYRICSPATH:;
#CDTITLE:cdtitle.png;
#MUSIC:FANTASTIC THREE.ogg;
#OFFSET:-0.204975;
#SAMPLESTART:32.637409;
#SAMPLELENGTH:10.054054;
#SELECTABLE:YES;
#BPMS:0.000=185.000;
#STOPS:;
#DELAYS:;
#WARPS:;
#TIMESIGNATURES:0.000=4=4;
#TICKCOUNTS:0.000=4;
#COMBOS:0.000=1;
#SPEEDS:0.000=1.000=0.000=0;
#SCROLLS:0.000=0.500,
68.000=0.750,
92.000=0.500,
99.000=2.000,
99.250=1.000,
99.500=0.500,
100.000=1.000,
131.000=2.000,
131.250=1.000,
131.500=0.500,
132.000=1.000,
195.000=2.000,
195.250=1.000,
195.500=0.500,
199.000=1.000,
264.000=0.000,
266.000=0.250,
266.500=0.500,
267.000=0.750,
267.500=1.000;
#FAKES:;
#LABELS:0.000=Song Start;
#BGCHANGES:-4.875=FANTASTIC THREE.mp4=1.000=1=0=1===CrossFade==,
99999=-nosongbg-=1.000=0=0=0 // don't automatically add -songbackground-
;
#KEYSOUNDS:;
#ATTACKS:
;

//---------------dance-single - ----------------
#NOTEDATA:;
#CHARTNAME:;
#STEPSTYPE:dance-single;
#DESCRIPTION:;
#CHARTSTYLE:;
#DIFFICULTY:Challenge;
#METER:16;
#RADARVALUES:0.825812,1.234588,0.181679,0.346841,0.673036,700.000000,678.000000,22.000000,42.000000,18.000000,0.000000,12.000000,0.000000,121.000000,0.825812,1.234588,0.181679,0.346841,0.673036,700.000000,678.000000,22.000000,42.000000,18.000000,0.000000,12.000000,0.000000,121.000000;
#CREDIT:;
#OFFSET:-0.204975;
#BPMS:0.000000=185.000000
;
#STOPS:;
#DELAYS:;
#WARPS:99.000000=16.000000
,147.000000=16.000000
,195.000000=16.000000
,243.000000=16.000000
,362.000000=16.000000
,379.000000=16.000000
;
#TIMESIGNATURES:0.000000=4=4
;
#TICKCOUNTS:0.000000=4
;
#COMBOS:0.000000=1
;
#SPEEDS:0.000000=1.000000=0.000000=0
;
#SCROLLS:0.000000=0.500000
,68.000000=0.529000
,69.000000=0.558000
,70.000000=0.588000
,71.000000=0.617000
,72.000000=0.647000
,73.000000=0.676000
,74.000000=0.705000
,75.000000=0.735000
,76.000000=0.764000
,77.000000=0.794000
,78.000000=0.823000
,79.000000=0.852000
,80.000000=0.882000
,81.000000=0.911000
,82.000000=0.941000
,83.000000=0.970000
,84.000000=1.000000
,92.000000=0.500000
,99.000000=1.000000
,115.000000=2.000000
,115.250000=1.000000
,115.500000=0.500000
,116.000000=1.000000
,163.000000=2.000000
,163.250000=1.000000
,163.500000=0.500000
,164.000000=1.000000
,211.000000=2.000000
,211.250000=1.000000
,211.500000=0.500000
,212.000000=1.000000
,244.000000=0.500000
,245.500000=1.000000
,259.000000=2.000000
,259.250000=1.000000
,259.500000=0.500000
,261.500000=1.000000
,327.000000=2.000000
,327.250000=1.000000
,327.500000=0.500000
,328.000000=0.000000
,330.000000=0.200000
,330.250000=0.400000
,330.500000=0.600000
,330.750000=0.800000
,331.000000=1.000000
,378.000000=2.000000
,378.250000=1.000000
,378.500000=0.500000
,379.000000=1.000000
,395.000000=2.000000
,395.250000=1.000000
,395.500000=0.500000
,396.000000=1.000000
;
#FAKES:;
#LABELS:0.000000=Song Start
;
#NOTES:
0000
0000
0000
0000
,
0000
0000
0000
0000
,
0000
0000
0000
0000
,
0000
0000
0000
0000
,
0000
0000
0000
0000
,
0000
0000
0000
0000
,
0000
0000
0000
0000
,
0004
0003
0000
0000
0040
0030
0000
0000
4000
3000
0000
0000
0400
0300
0000
0000
,
0004
0003
0000
0000
0000
0000
0000
0000
4000
3000
0000
0000
1001
0000
0000
0000
,
0002
0010
0000
0010
,
0003
0000
0010
0001
1000
0001
0100
0010
,
2000
0010
0000
0010
,
3000
0010
1000
0001
,
2000
0100
0000
0100
,
3000
0000
0100
1000
0001
1000
0010
0100
,
0004
0003
0000
0000
0400
0300
0000
0000
4000
3000
0000
0000
0040
0030
0000
0000
,
0004
0003
0000
0000
0000
0000
0000
0000
4000
3000
0000
0000
1001
0000
0000
0000
,
0001
0000
0010
0001
0100
0000
0001
0000
,
0100
0001
0010
0001
0010
0000
0011
0000
,
1000
0000
0010
1000
0100
0000
1000
0000
,
0100
1000
0010
1000
1010
0000
1010
0000
,
0001
0010
1000
0010
0001
1000
0010
0001
,
0010
1000
0001
0010
0110
0000
1001
0000
,
1000
0010
1000
0000
0001
0010
0001
0000
1000
0010
1000
0000
0200
0000
0000
0000
,
0310
0000
0100
0000
0010
0000
0001
1000
0001
1000
0001
1000
0002
0000
0000
0000
,
1003
0010
0100
0010
0001
0010
0100
0010
,
2000
0000
0010
0000
3001
0000
0000
0000
0002
0000
0010
0000
2003
0000
3010
0100
,
0010
0000
0000
0000
,
0000
0000
0000
0001
,
1000
0010
0100
0010
0001
0010
0100
0010
,
2000
0000
0010
0000
3001
0000
0000
0000
0002
0000
0010
0000
2003
0000
3010
0100
,
0010
0000
0100
0000
0001
0000
1000
0000
0100
0010
0100
0000
1000
0000
0001
0000
,
0100
0000
0010
1000
0001
0000
1000
0000
0100
0000
0010
0000
0110
0000
0000
0000
,
0001
0010
0100
0010
1000
0010
0100
0010
,
0002
0000
0010
0000
1003
0000
0000
0000
2000
0000
0010
0000
3001
0000
0010
0100
,
0010
0100
0001
0100
1000
0010
0001
0010
,
1000
0000
0000
0000
1010
0000
0001
0010
0001
0000
0010
0000
0200
0000
0000
0000
,
1300
0100
0001
0100
1000
0010
0001
0010
,
2000
0000
0010
0000
3001
0000
0000
0000
2000
0000
0010
0000
3100
0000
0010
0100
,
0010
0000
0000
0000
,
0000
0000
0000
0100
,
1000
0100
0001
0100
1000
0010
0001
0010
,
2000
0000
0010
0000
3001
0000
0000
0000
2000
0000
0010
0000
3100
0000
0010
0100
,
0010
0000
0100
0000
1000
0000
0001
0000
0100
0010
0100
0000
0001
0000
1000
0000
,
0100
0000
0010
0001
1000
0000
0001
0000
0100
0000
0010
0000
0110
0000
0000
0000
,
0001
0100
1000
0100
0001
0010
1000
0010
,
0002
0000
0010
0000
1003
0000
0000
0000
0002
0000
0010
0000
0103
0000
0010
0100
,
0010
0100
1000
0100
0001
0010
1000
0010
,
0001
0000
0000
0000
0011
0000
1000
0010
0100
0000
0001
0000
2000
0000
0000
0000
,
3001
0000
1000
0100
1000
0000
0100
1000
0200
0000
0010
0000
0010
0000
0010
0000
,
0000
0000
1300
0100
1000
0000
0001
1000
0001
0000
1000
0010
1000
0010
1000
0000
,
0000
0000
0000
0000
,
0000
0000
0000
1000
,
0001
0000
1000
0100
1000
0000
0100
1000
0200
0000
0010
0000
0010
0000
0010
0000
,
0000
0000
1300
0100
1000
0000
0001
1000
0001
0000
1000
0010
1000
0010
1000
0000
,
0000
0000
0001
0100
0001
0000
0100
0001
0200
0000
0010
0000
0010
0000
0010
0000
,
0000
0000
0301
0000
0100
0000
0001
1000
0001
0000
0010
0001
0010
0000
0001
0000
,
0000
0000
1000
0100
1000
0000
0001
0100
0001
0000
1000
0100
2000
0000
0001
0000
,
0000
0000
3010
1000
0010
1000
0001
0000
0000
0000
0010
0000
0001
0000
1000
0000
,
0001
0000
0100
0010
1000
0000
0100
0010
0001
0000
0100
0010
1000
0000
0001
0000
,
0000
0000
1000
0100
2000
0000
3200
0000
0320
0000
0031
1000
0002
0000
0000
0000
,
1003
0000
0000
0000
0000
0000
0001
0100
0010
0100
0010
1000
0001
0000
0010
0100
,
0020
0000
0000
0000
0031
0000
0010
0100
0020
0000
0000
0000
0031
0000
0000
0000
,
0000
0000
0000
0000
,
0000
0000
0000
0001
,
1000
0000
0000
0000
0000
0000
0001
0100
0010
0100
0010
1000
0001
0000
0010
0100
,
0020
0000
0000
0000
0031
0000
0010
0100
0020
0000
0000
0000
0031
0000
0010
0100
,
0010
0000
0001
0000
0001
0000
0010
0001
1000
0001
0100
0000
0010
0000
1000
0000
,
0002
0000
0000
0000
0103
0000
0001
1000
0002
0000
0000
0000
0013
0000
0001
1000
,
0010
0000
0100
0001
1000
0000
1000
0000
0001
0000
0001
0010
0100
0000
1000
0000
,
0020
0000
0000
0000
1030
0000
0010
0100
0020
0000
0000
0000
1030
0000
0010
0100
,
0010
0000
1000
0000
1000
0000
0010
1000
0001
1000
0100
0000
0010
0000
0001
0000
,
2000
0000
0000
0000
3100
0000
1000
0001
2000
0000
0000
0000
3010
0000
0100
0010
,
0100
1000
0100
0001
0010
1000
0010
0001
,
0011
0000
1000
2002
0000
0000
3000
0000
,
0100
0000
0100
0000
0000
0000
1003
0000
0100
0000
0010
0001
0010
0001
1000
0010
,
1000
0000
0001
2002
0000
0000
0003
0000
,
0100
0000
0100
0000
0000
0000
3001
0100
0001
0000
1000
0100
1000
0000
0001
0000
,
1001
0000
0100
2002
0000
0000
3000
0000
,
0010
0000
0010
0000
0000
0000
1003
0000
0001
0100
0001
0100
0010
1000
0010
1000
,
0100
0000
0110
2002
0000
0000
3003
0000
,
0001
0000
0010
0000
0100
0000
1000
0000
0001
0010
0100
1000
0001
0000
0000
0000
,
2002
0000
0000
0000
0000
0000
3003
1000
,
0001
0000
0100
0001
0100
0000
0001
1000
0001
0000
0010
0001
0010
0000
0001
1000
,
0001
0000
0100
0001
0100
0000
0001
0000
1000
0001
1000
0001
0010
0001
1000
0001
,
0010
MM0M
0010
1000
0001
1000
0010
MM0M
,
0010
0001
0010
0001
1000
0001
0010
0001
1000
0000
0001
0100
0001
0000
1000
0000
,
0001
0000
0010
0100
0010
0000
0100
1000
0100
0000
1000
0001
0010
0000
0001
1000
,
0010
0000
0100
0001
1000
0000
0100
1000
0001
0000
0100
0010
1000
0000
0001
0010
,
0100
0000
0000
0000
0010
0001
1000
0001
0100
0000
0001
0000
0100
0000
M0MM
0000
,
0100
0000
0000
0000
1000
0000
0000
0000
0001
0000
0000
0000
1000
0000
0000
0000
0010
0000
0000
0000
0000
0000
0000
0000
1000
0000
0000
0000
0000
0000
0000
0000
2020
0000
0000
0000
0000
0000
0000
0000
0000
0000
0000
0000
0000
0000
0000
3030
0022
0000
0000
0000
0000
0000
0000
0000
0000
0000
0000
0000
0000
0000
0000
0000
,
1033
0000
0100
1000
0100
0000
1000
0001
1000
0000
0010
1000
0010
0000
1000
0001
,
1000
0000
0100
1000
0100
0000
1000
0000
0001
0000
0000
0000
0000
0000
0000
0000
,
0000
0000
0000
0000
,
0000
0000
1010
0022
,
1033
0000
0100
1000
0100
0000
1000
0001
1000
0000
0010
1000
0010
0000
1000
0001
,
1000
0000
0100
1000
0100
0000
1000
0000
0001
1000
0001
1000
0010
0000
0000
0000
,
0000
0000
0000
0000
,
0000
0000
0000
0011
,
1000
0000
0100
1000
0100
0000
1000
0001
1000
0000
0010
1000
0010
0000
1000
0001
,
1000
0000
0100
1000
0100
0000
1000
0000
0001
1000
0001
1000
0010
1000
0001
1000
,
0010
MM0M
0010
0001
1000
0001
0010
MM0M
,
0010
1000
0010
1000
0001
1000
0010
1000
0001
0000
1000
0100
1000
0000
0001
0000
,
1000
0000
0010
0100
0010
0000
0100
0001
0100
0000
0001
1000
0010
0000
1000
0001
,
0010
0000
0100
1000
0001
0000
0100
0001
1000
0000
0100
0010
0001
0000
1000
0010
,
0100
0000
0000
0000
0010
1000
0001
1000
0100
0000
1000
0000
0100
0000
M0MM
0000
,
0100
0001
1000
0001
0010
0000
0001
0000
0010
0000
0100
0010
0100
0000
1000
0000
,
0001
0000
1000
0010
0100
0000
0010
0100
0020
0000
0100
0000
0100
0000
1000
0000
,
0000
0000
1030
0001
0100
0000
0001
1000
0100
0000
0010
0100
0010
0100
0010
0000
,
0000
0000
0001
0010
0100
0000
0010
0100
0020
0000
0100
0000
0100
0000
0001
0000
,
0000
0000
0031
0000
1000
0000
0001
1000
0010
0000
1000
0001
0010
0000
0001
0000
,
0000
0000
1000
0010
1000
0000
0010
0100
0010
0000
0100
0001
2000
0000
0001
0000
,
0000
0000
3100
0010
0100
0010
0001
0000
0000
0000
0100
0000
0010
0000
1000
0000
,
0001
0000
0100
0001
0010
0000
0100
1000
0010
0000
0100
0001
0010
0000
0100
0000
,
1000
0000
0001
0100
0010
0000
0100
0010
0100
0000
0000
0000
2002
0000
0000
0000
,
3003
0000
0000
0000
;

//---------------dance-single - ----------------
#NOTEDATA:;
#CHARTNAME:;
#STEPSTYPE:dance-single;
#DESCRIPTION:;
#CHARTSTYLE:;
#DIFFICULTY:Hard;
#METER:13;
#RADARVALUES:0.622898,0.854715,0.222969,0.363357,0.222969,528.000000,501.000000,27.000000,44.000000,18.000000,0.000000,12.000000,0.000000,87.000000,0.622898,0.854715,0.222969,0.363357,0.222969,528.000000,501.000000,27.000000,44.000000,18.000000,0.000000,12.000000,0.000000,87.000000;
#CREDIT:;
#OFFSET:-0.204975;
#BPMS:0.000000=185.000000
;
#STOPS:;
#DELAYS:;
#WARPS:99.000000=16.000000
,147.000000=16.000000
,195.000000=16.000000
,243.000000=16.000000
,362.000000=16.000000
,379.000000=16.000000
;
#TIMESIGNATURES:0.000000=4=4
;
#TICKCOUNTS:0.000000=4
;
#COMBOS:0.000000=1
;
#SPEEDS:0.000000=1.000000=0.000000=0
;
#SCROLLS:0.000000=0.500000
,68.000000=0.529000
,69.000000=0.558000
,70.000000=0.588000
,71.000000=0.617000
,72.000000=0.647000
,73.000000=0.676000
,74.000000=0.705000
,75.000000=0.735000
,76.000000=0.764000
,77.000000=0.794000
,78.000000=0.823000
,79.000000=0.852000
,80.000000=0.882000
,81.000000=0.911000
,82.000000=0.941000
,83.000000=0.970000
,84.000000=1.000000
,92.000000=0.500000
,99.000000=1.000000
,115.000000=2.000000
,115.250000=1.000000
,115.500000=0.500000
,116.000000=1.000000
,163.000000=2.000000
,163.250000=1.000000
,163.500000=0.500000
,164.000000=1.000000
,211.000000=2.000000
,211.250000=1.000000
,211.500000=0.500000
,212.000000=1.000000
,244.000000=0.500000
,245.500000=1.000000
,259.000000=2.000000
,259.250000=1.000000
,259.500000=0.500000
,261.500000=1.000000
,327.000000=2.000000
,327.250000=1.000000
,327.500000=0.500000
,328.000000=0.000000
,330.000000=0.200000
,330.250000=0.400000
,330.500000=0.600000
,330.750000=0.800000
,331.000000=1.000000
,378.000000=2.000000
,378.250000=1.000000
,378.500000=0.500000
,379.000000=1.000000
,395.000000=2.000000
,395.250000=1.000000
,395.500000=0.500000
,396.000000=1.000000
;
#FAKES:;
#LABELS:0.000000=Song Start
;
#NOTES:
// measure 0
0000
0000
0000
0000
,  // measure 1
0000
0000
0000
0000
,  // measure 2
0000
0000
0000
0000
,  // measure 3
0000
0000
0000
0000
,  // measure 4
0000
0000
0000
0000
,  // measure 5
0000
0000
0000
0000
,  // measure 6
0000
0000
0000
0000
,  // measure 7
4000
3000
0000
0000
0040
0030
0000
0000
0400
0300
0000
0000
0004
0003
0000
0000
,  // measure 8
4000
3000
0000
0000
0000
0000
0000
0000
0004
0003
0000
0000
1001
0000
0000
0000
,  // measure 9
2000
0000
0000
0000
,  // measure 10
0000
0000
3000
0100
0010
0000
0001
1000
,  // measure 11
0020
0000
0000
0000
,  // measure 12
0000
0030
0100
0100
,  // measure 13
0002
0000
0000
0000
,  // measure 14
0000
0000
0103
0010
1000
0000
0001
1000
,  // measure 15
0004
0003
0000
0000
0040
0030
0000
0000
0400
0300
0000
0000
4000
3000
0000
0000
,  // measure 16
0004
0003
0000
0000
0000
0000
0000
0000
4000
3000
0000
0000
1001
0000
0000
0000
,  // measure 17
1000
0010
0100
0010
,  // measure 18
0000
1000
0010
0000
0100
0000
0110
0000
,  // measure 19
0001
0010
0100
0010
,  // measure 20
0000
0001
0010
0000
0110
0000
0110
0000
,  // measure 21
1000
0000
0100
0010
0001
0000
1001
0000
,  // measure 22
0001
0100
1000
0100
0001
0000
1001
0000
,  // measure 23
0002
0023
0230
1300
,  // measure 24
0001
0100
0001
0100
0001
0100
0020
0000
,  // measure 25
1030
0010
1000
0010
0100
0001
0100
0001
,  // measure 26
1000
0002
0010
0000
1003
0001
0100
0000
,  // measure 27
0000
0000
0000
0000
,  // measure 28
0000
0000
0000
0010
,  // measure 29
1000
0010
1000
0010
0100
0001
0100
0001
,  // measure 30
1000
0002
0010
0000
1003
0001
0100
0001
,  // measure 31
1000
0100
1000
0100
0010
0001
0010
0001
,  // measure 32
0100
0001
0010
0001
0100
0000
1001
0000
,  // measure 33
0001
0010
0001
0010
0100
1000
0100
1000
,  // measure 34
0001
2000
0010
0000
3001
1000
0100
1000
,  // measure 35
0001
0100
0010
0100
0010
1000
0100
0010
,  // measure 36
0001
0000
0010
0001
0100
0010
2000
0000
,  // measure 37
3001
0010
0001
0010
1000
0010
1000
0010
,  // measure 38
0001
0200
0010
0000
0301
0010
0100
0000
,  // measure 39
0000
0000
0000
0000
,  // measure 40
0000
0000
0000
1000
,  // measure 41
0001
0010
0001
0010
1000
0010
1000
0010
,  // measure 42
0001
0200
0010
0000
0301
0010
0100
0010
,  // measure 43
0001
0100
0001
0100
0010
1000
0010
1000
,  // measure 44
0100
1000
0010
1000
0100
0000
1001
0000
,  // measure 45
1000
0010
1000
0010
0001
0010
0001
0010
,  // measure 46
1000
0200
0010
0000
1300
0010
0100
0010
,  // measure 47
1000
0100
0010
0100
0010
0001
0100
0010
,  // measure 48
1000
0000
0010
1000
0100
0010
0002
0000
,  // measure 49
2003
0000
0010
0000
0010
0000
0001
0001
,  // measure 50
0000
3002
0010
0000
0010
0000
1003
0000
,  // measure 51
0000
0000
0000
0000
,  // measure 52
0000
0000
0000
0001
,  // measure 53
2000
0000
0010
0000
0010
0000
0001
0001
,  // measure 54
0000
3002
0010
0000
0010
0000
1000
1000
,  // measure 55
0000
2003
0100
0000
0100
0000
0001
0001
,  // measure 56
0000
3001
0002
0100
0000
1003
2000
0100
,  // measure 57
0000
3001
0002
0000
0010
0000
1000
1000
,  // measure 58
0000
0203
0010
0010
0000
0301
1000
1000
,  // measure 59
1001
0000
0001
0010
0100
1000
0010
0100
,  // measure 60
0001
0000
1000
0100
0010
0100
0002
0000
,  // measure 61
0103
0000
0000
0001
0100
1000
0001
1000
,  // measure 62
0020
0000
1030
0001
0020
0000
0031
0000
,  // measure 63
0000
0000
0000
0000
,  // measure 64
0000
0000
0000
0001
,  // measure 65
0100
0000
0000
0001
0100
1000
0001
1000
,  // measure 66
0020
0000
1030
0001
0020
0000
0031
1000
,  // measure 67
0010
0000
0100
0000
0010
0000
0100
0010
0100
0000
0001
0000
1000
0000
0100
0000
,  // measure 68
0002
0000
0103
1000
0002
0000
1003
0010
,  // measure 69
0100
0000
0001
0000
0101
0000
0000
0000
0001
0000
1000
0001
1000
0000
0100
0000
,  // measure 70
0020
0000
0031
1000
0020
0000
1030
0001
,  // measure 71
0010
0000
0100
0000
0010
0000
0100
0010
0100
0000
1000
0000
0001
0000
0100
0000
,  // measure 72
2000
0000
3100
0001
2000
0000
3001
0010
,  // measure 73
0100
1000
0001
0010
0100
1000
0001
0100
,  // measure 74
0110
0000
0000
2020
0000
0000
3000
0000
,  // measure 75
0130
0001
0000
0100
0001
1000
0100
0010
,  // measure 76
0110
0000
0000
0022
0000
0000
0003
0000
,  // measure 77
0130
1000
0000
1000
0001
0100
0010
1000
,  // measure 78
1010
0000
0000
2002
0000
0000
3000
0000
,  // measure 79
0013
1000
0000
1000
0010
0100
0010
0001
,  // measure 80
0011
0000
0000
2002
0000
0000
0003
0000
,  // measure 81
3010
0000
0001
0000
0010
0000
1000
0000
0100
0000
0010
0100
0010
0000
0000
0000
,  // measure 82
2002
0000
0000
0000
0000
0000
3003
1000
,  // measure 83
0001
0000
0000
0001
0100
0000
0000
0100
0010
0000
0000
0010
1000
0000
0000
1000
,  // measure 84
0100
0000
0000
0100
0010
0000
0000
0001
0100
0000
0010
1000
0010
0000
1000
0000
,  // measure 85
0010
MM0M
0010
0001
1000
0001
0010
MM0M
,  // measure 86
0010
0000
1000
0010
1000
0000
0100
0000
0010
0000
0100
0000
0110
0000
0000
0000
,  // measure 87
0001
0000
0000
0001
0010
0000
0000
0010
0100
0000
0000
1000
0010
0000
0000
0001
,  // measure 88
0010
0000
0000
1000
0100
0000
0000
0001
0100
0000
0000
1000
0010
0000
0000
0100
,  // measure 89
0001
0000
1000
0000
0100
0000
0010
0001
0010
0000
0001
0000
0100
0000
M0MM
0000
,  // measure 90
0100
0000
0000
0000
0000
0000
0000
0000
1000
0000
0000
0000
0010
0000
0000
0000
1000
0000
0000
0000
0000
0000
0000
0000
0010
0000
0000
0000
0000
0000
0000
0000
0202
0000
0000
0000
0000
0000
0000
0000
0000
0000
0000
0000
0000
0000
0000
0303
2200
0000
0000
0000
0000
0000
0000
0000
0000
0000
0000
0000
0000
0000
0000
3300
,  // measure 91
1000
0000
0000
1000
0100
0000
0000
0100
0010
0000
0000
0010
0001
0000
0000
0001
,  // measure 92
0100
0000
0000
0100
0010
0000
0000
1000
0100
0000
0000
0000
0000
0000
0000
0000
,  // measure 93
0000
0000
0000
0000
,  // measure 94
0000
0000
0000
0000
0000
0000
0000
0000
0000
0000
0000
0000
0000
0000
0000
0000
0000
0000
0000
0000
0000
0000
0000
0000
0000
0000
0000
0000
0000
0000
0000
0000
0101
0000
0000
0000
0000
0000
0000
0000
0000
0000
0000
0000
0000
0000
0000
0000
2200
0000
0000
0000
0000
0000
0000
0000
0000
0000
0000
0000
0000
0000
0000
3300
,  // measure 95
1000
0000
0000
1000
0100
0000
0000
0100
0010
0000
0000
0010
0001
0000
0000
0001
,  // measure 96
0100
0000
0000
0100
0010
0000
0000
1000
0100
0000
0010
0001
0010
0000
0000
0000
,  // measure 97
0000
0000
0000
0000
,  // measure 98
0000
0000
0000
1100
,  // measure 99
1000
0000
0000
1000
0100
0000
0000
0100
0010
0000
0000
0010
0001
0000
0000
0001
,  // measure 100
0100
0000
0000
0100
0010
0000
0000
1000
0100
0000
0010
0001
0010
0000
0001
0000
,  // measure 101
0010
MM0M
0010
1000
0001
1000
0010
MM0M
,  // measure 102
0010
0000
0001
0010
0001
0000
0100
0000
0010
0000
0100
0000
0110
0000
0000
0000
,  // measure 103
1000
0000
0000
1000
0010
0000
0000
0010
0100
0000
0000
0001
0010
0000
0000
1000
,  // measure 104
0010
0000
0000
0001
0100
0000
0000
1000
0100
0000
0000
0001
0010
0000
0000
0100
,  // measure 105
1000
0000
0001
0000
0100
0000
0010
1000
0010
0000
1000
0000
0100
0000
M0MM
0000
,  // measure 106
0100
0000
0001
1000
0001
0000
0000
0000
0010
0000
0100
0010
0100
0000
1000
0000
,  // measure 107
0002
0000
0010
0000
1000
0000
0100
0100
,  // measure 108
0000
2003
0010
0000
0001
0000
0100
0100
,  // measure 109
0000
3002
0100
0000
1000
0000
0010
0010
,  // measure 110
0000
1003
2000
0100
0000
3001
0002
0100
,  // measure 111
0000
1003
2000
0000
0010
0000
0001
0001
,  // measure 112
0000
3200
0010
0010
0000
1300
0001
0001
,  // measure 113
1001
0000
1000
0010
0100
0001
0010
0100
,  // measure 114
1000
0001
0100
0010
0110
0000
2002
0000
,  // measure 115
3003
0000
0000
0000
;

//---------------dance-single - ----------------
#NOTEDATA:;
#CHARTNAME:;
#STEPSTYPE:dance-single;
#DESCRIPTION:;
#CHARTSTYLE:;
#DIFFICULTY:Medium;
#METER:9;
#RADARVALUES:0.388131,0.712263,0.231227,0.594584,0.000000,329.000000,301.000000,28.000000,72.000000,0.000000,0.000000,12.000000,0.000000,55.000000,0.388131,0.712263,0.231227,0.594584,0.000000,329.000000,301.000000,28.000000,72.000000,0.000000,0.000000,12.000000,0.000000,55.000000;
#CREDIT:;
#OFFSET:-0.204975;
#BPMS:0.000000=185.000000
;
#STOPS:;
#DELAYS:;
#WARPS:99.000000=16.000000
,147.000000=16.000000
,195.000000=16.000000
,243.000000=16.000000
,362.000000=16.000000
,379.000000=16.000000
;
#TIMESIGNATURES:0.000000=4=4
;
#TICKCOUNTS:0.000000=4
;
#COMBOS:0.000000=1
;
#SPEEDS:0.000000=1.000000=0.000000=0
;
#SCROLLS:0.000000=0.500000
,68.000000=0.529000
,69.000000=0.558000
,70.000000=0.588000
,71.000000=0.617000
,72.000000=0.647000
,73.000000=0.676000
,74.000000=0.705000
,75.000000=0.735000
,76.000000=0.764000
,77.000000=0.794000
,78.000000=0.823000
,79.000000=0.852000
,80.000000=0.882000
,81.000000=0.911000
,82.000000=0.941000
,83.000000=0.970000
,84.000000=1.000000
,244.000000=0.000000
,245.000000=1.000000
,260.000000=0.000000
,261.000000=1.000000
,328.000000=0.000000
,331.000000=1.000000
;
#FAKES:;
#LABELS:0.000000=Song Start
;
#NOTES:
0000
0000
0000
0000
,
0000
0000
0000
0000
,
0000
0000
0000
0000
,
0000
0000
0000
0000
,
0000
0000
0000
0000
,
0000
0000
0000
0000
,
0000
0000
0000
0000
,
0004
0003
0000
0000
0040
0030
0000
0000
0400
0300
0000
0000
4000
3000
0000
0000
,
0004
0003
0000
0000
0000
0000
0000
0000
4000
3000
0000
0000
0000
0000
0000
0000
,
0020
0000
0000
0000
,
0000
0030
1000
0001
,
0020
0000
0000
0000
,
0000
0030
0100
0010
,
0200
0000
0000
0000
,
0000
0300
1000
0001
,
4000
3000
0000
0000
0040
0030
0000
0000
0400
0300
0000
0000
0004
0003
0000
0000
,
4000
3000
0000
0000
0000
0000
0000
0000
0004
0003
0000
0000
0000
0000
0000
0000
,
1000
0000
1100
0000
,
0001
1000
1100
0000
,
0001
0000
0101
0000
,
1000
0001
0101
0000
,
1000
1000
0001
0001
,
1000
0001
1000
0001
,
0020
0000
0000
0030
,
0010
0100
0010
0002
,
1003
0010
1000
0010
,
0100
0000
0100
0010
,
1000
0000
0000
0000
,
0000
0000
0000
0000
,
1000
0010
1000
0010
,
0100
0000
0100
0010
,
1000
0100
0010
0001
,
0010
0100
1000
0000
,
0001
0010
0001
0010
,
0100
0000
0100
0010
,
0001
0100
0010
1000
,
0100
0000
0110
2000
,
3001
0010
1000
0010
,
0001
0000
0001
1000
,
0001
0000
0000
0000
,
0000
0000
0000
1000
,
0001
0010
1000
0010
,
0001
0000
0001
1000
,
0001
0100
0010
1000
,
0010
0100
0001
0000
,
1000
0010
0001
0010
,
1000
0000
1000
0001
,
1000
0100
0010
0001
,
0100
0000
0110
0002
,
2003
0010
0010
0000
,
3002
0100
0100
0000
,
1003
0000
0000
0000
,
0000
0000
0000
0001
,
2000
0010
0010
0000
,
3002
0100
0100
0000
,
2003
0100
0100
0000
,
3002
0010
0010
0000
,
2003
0010
0001
0000
,
3002
0010
1000
0000
,
1003
0010
1000
0000
0001
0010
0001
0000
,
0010
0000
0100
1000
0001
0000
2000
0000
,
3001
0000
1000
0001
,
2020
3030
2020
3030
,
0000
0000
0000
0000
,
0000
0000
0000
1000
,
0001
0000
1000
0001
,
2020
3030
2020
3030
,
0010
0000
1000
0000
0100
0010
0100
0000
,
0022
0033
0022
0033
,
0001
0010
0100
0000
1000
0010
0100
0000
,
0202
0303
0202
0303
,
0100
0000
0001
0000
0010
0100
0010
0000
,
2200
3300
2200
3300
,
0001
0100
0010
0000
0100
0010
1000
0000
,
1010
0000
0000
2002
0000
0000
0003
0000
,
3100
0000
0000
0000
0100
0010
0001
0000
,
0011
0000
0000
2002
0000
0000
3000
0000
,
0103
0000
0000
0000
0100
0010
1000
0000
,
1010
0000
0000
0022
0000
0000
0003
0000
,
0130
0000
0000
0000
0100
0010
0100
0000
,
0011
0000
0000
2020
0000
0000
3000
0000
,
0130
0000
0010
0000
1000
0001
1000
0000
,
1001
0000
0000
0000
,
2000
3200
0302
0203
,
2300
0000
3020
0000
0130
0001
0100
0001
,
1000
0000
0100
1000
0100
1000
0001
0000
,
1000
0010
0100
0001
1000
0000
1001
0000
,
2000
3020
0032
2003
,
3200
0302
0023
2030
,
3020
0000
0031
0010
0001
0010
0100
0000
,
1000
0000
0000
0000
0000
0000
0000
0000
0010
0000
0000
0000
0000
0000
0000
0000
1000
0000
0000
0000
0000
0000
0000
0000
0010
0000
0000
0000
0000
0000
0000
0000
0200
0000
0000
0000
0000
0000
0000
0000
0000
0000
0000
0000
0000
0000
0000
0000
2302
0000
0000
0000
0000
0000
0000
0000
0000
0000
0000
0000
0000
0000
0000
3003
,
0002
0203
2300
3200
,
0302
0023
0130
0000
,
0000
0000
0000
0000
,
0000
0000
0000
0000
0000
0000
0000
0000
0000
0000
0000
0000
0000
0000
0000
0000
0000
0000
0000
0000
0000
0000
0000
0000
0000
0000
0000
0000
0000
0000
0000
0000
0100
0000
0000
0000
0000
0000
0000
0000
0000
0000
0000
0000
0000
0000
0000
0000
2002
0000
0000
0000
0000
0000
0000
0000
0000
0000
0000
0000
0000
0000
0000
3003
,
0002
0203
2300
3200
,
0302
0000
0023
0000
0130
1000
0100
0000
,
0000
0000
0000
0000
,
0000
0000
0000
1001
,
0002
0203
2300
3200
,
0302
0000
0023
0000
0130
1000
0100
1000
,
0001
0000
0100
0001
0100
0001
1000
0000
,
0001
0010
0100
1000
0001
0000
1001
0000
,
0002
0023
2030
3002
,
0203
2300
3020
0032
,
0023
0000
1030
0010
1000
0010
0100
0000
,
0001
0010
0100
0000
1000
0001
1000
0001
,
2000
0010
0001
0000
,
3002
0010
1000
0000
,
2003
0100
0001
0000
,
3002
0100
1000
0000
,
2003
0100
0010
0000
,
3002
0100
0010
0000
,
1003
0100
1000
0000
0001
0100
0001
0000
,
1000
0100
0010
0000
0110
0000
2002
0000
,
3003
0000
0000
0000
;

//---------------dance-single - ----------------
#NOTEDATA:;
#CHARTNAME:;
#STEPSTYPE:dance-single;
#DESCRIPTION:;
#CHARTSTYLE:;
#DIFFICULTY:Easy;
#METER:7;
#RADARVALUES:0.259541,0.338170,0.033032,0.379873,0.000000,220.000000,216.000000,4.000000,46.000000,0.000000,0.000000,0.000000,0.000000,0.000000,0.259541,0.338170,0.033032,0.379873,0.000000,220.000000,216.000000,4.000000,46.000000,0.000000,0.000000,0.000000,0.000000,0.000000;
#CREDIT:;
#OFFSET:-0.204975;
#BPMS:0.000000=185.000000
;
#STOPS:;
#DELAYS:;
#WARPS:;
#TIMESIGNATURES:0.000000=4=4
;
#TICKCOUNTS:0.000000=4
;
#COMBOS:0.000000=1
;
#SPEEDS:0.000000=1.000000=0.000000=0
;
#SCROLLS:0.000000=0.500000
,68.000000=0.529000
,69.000000=0.558000
,70.000000=0.588000
,71.000000=0.617000
,72.000000=0.647000
,73.000000=0.676000
,74.000000=0.705000
,75.000000=0.735000
,76.000000=0.764000
,77.000000=0.794000
,78.000000=0.823000
,79.000000=0.852000
,80.000000=0.882000
,81.000000=0.911000
,82.000000=0.941000
,83.000000=0.970000
,84.000000=1.000000
,196.000000=0.000000
,198.000000=1.000000
,264.000000=0.000000
,267.000000=1.000000
;
#FAKES:;
#LABELS:0.000000=Song Start
;
#NOTES:
0000
0000
0000
0000
,
0000
0000
0000
0000
,
0000
0000
0000
0000
,
0000
0000
0000
0000
,
0000
0000
0000
0000
,
0000
0000
0000
0000
,
0000
0000
0000
0000
,
0002
0003
2000
3000
,
0002
0003
0200
0300
,
0020
0000
0000
0000
,
0030
0000
0010
1000
,
0200
0000
0000
0000
,
0300
0000
0010
0100
,
0020
0000
0000
0000
,
0030
0000
0010
0001
,
2000
3000
0002
0003
,
2000
3000
0020
0030
,
0100
0000
0100
0000
,
0000
0100
0100
0000
,
0010
0000
0010
0000
,
0000
0010
0010
0000
,
1000
0000
0001
0000
,
1000
0001
1000
0001
,
0020
0000
0000
0030
,
0010
0000
0100
0010
,
0002
0000
0023
0000
,
0130
0010
0100
0000
,
1000
0001
1000
0000
,
0010
0100
0001
0000
,
2000
0000
3020
0000
,
0130
0010
0100
0000
,
0001
1000
0100
0010
,
0100
0000
0010
0001
,
0200
0000
0302
0000
,
0013
0001
0100
0000
,
0001
1000
0001
0000
,
0010
0100
1000
0000
,
0200
0000
2300
0000
,
3010
1000
0100
0000
,
1000
0001
0100
0010
,
0100
0000
0010
1000
,
0002
0000
0013
0000
,
0020
0000
0130
0000
,
0200
0000
1300
0000
,
2000
0000
3001
0000
,
0200
0000
0310
0000
,
2000
0000
3001
0000
,
1000
0100
1000
0000
,
0001
0100
0001
1000
,
0100
0000
0000
1001
,
2000
3000
2000
3000
,
1000
0010
0100
0010
,
2000
3000
2000
3000
,
0010
1000
0100
0010
,
0002
0003
0002
0003
,
0001
0010
0100
0010
,
0002
0003
0002
0003
,
0100
0100
0010
0010
,
1000
0000
0000
2000
0000
0000
0000
0000
,
0000
3000
0001
1000
,
0001
0000
0000
0002
0000
0000
0000
0000
,
0000
0003
1000
0001
,
0010
0000
0000
0020
0000
0000
0000
0000
,
0000
0030
0100
0010
,
1001
0000
0000
2002
0000
0000
3003
0000
,
0001
0001
0100
0010
,
1000
0000
0000
0000
,
0001
0001
0010
0010
,
0100
0100
1000
0001
,
1000
0000
0001
0000
,
1000
0001
1000
0000
,
0001
0001
0100
0010
,
1000
0010
0100
0001
,
1000
0000
0001
0000
,
1000
0001
1001
0000
,
1000
1000
0010
0010
,
0100
0100
0001
1000
,
0001
0000
1000
0000
,
0001
1000
0001
0000
,
1000
1000
0100
0010
,
0001
0010
0100
1000
,
0001
0000
1000
0000
,
0001
0000
0010
0100
,
0020
0000
0031
0000
,
0002
0000
1003
0000
,
2000
0000
3010
0000
,
0020
0000
0130
0000
,
0002
0000
1003
0000
,
0200
0000
0310
0000
,
0001
0010
0001
0000
,
1000
0010
1000
0002
,
0003
0000
0000
0000
;

//---------------dance-single - ----------------
#NOTEDATA:;
#CHARTNAME:;
#STEPSTYPE:dance-single;
#DESCRIPTION:;
#CHARTSTYLE:;
#DIFFICULTY:Beginner;
#METER:4;
#RADARVALUES:0.180499,0.262298,0.008258,0.173420,0.000000,153.000000,152.000000,1.000000,21.000000,0.000000,0.000000,0.000000,0.000000,0.000000,0.180499,0.262298,0.008258,0.173420,0.000000,153.000000,152.000000,1.000000,21.000000,0.000000,0.000000,0.000000,0.000000,0.000000;
#CREDIT:;
#OFFSET:-0.204975;
#BPMS:0.000000=185.000000
;
#STOPS:;
#DELAYS:;
#WARPS:;
#TIMESIGNATURES:0.000000=4=4
;
#TICKCOUNTS:0.000000=4
;
#COMBOS:0.000000=1
;
#SPEEDS:0.000000=1.000000=0.000000=0
;
#SCROLLS:0.000000=1.000000
;
#FAKES:;
#LABELS:0.000000=Song Start
;
#NOTES:
0000
0000
0000
0000
,
0000
0000
0000
0000
,
0000
0000
0000
0000
,
0000
0000
0000
0000
,
0000
0000
0000
0000
,
0000
0000
0000
0000
,
0000
0000
0000
0000
,
0001
0000
1000
0000
,
0001
0000
1000
0000
,
0002
0000
0000
0000
,
0003
0000
0000
0000
,
0020
0000
0000
0000
,
0030
0000
0000
0000
,
0200
0000
0000
0000
,
0300
0000
0000
0000
,
1000
0000
0001
0000
,
1000
0000
0001
0000
,
1000
0000
0000
0000
,
1000
0000
0000
0000
,
0001
0000
0000
0000
,
0001
0000
0000
0000
,
0100
0000
0100
0000
,
0010
0000
0010
0000
,
0200
0000
0000
0300
,
0000
0000
0000
0000
,
0001
0000
0001
0000
,
0010
0000
0100
0000
,
1000
0000
0001
0000
,
1000
1000
1000
0000
,
0001
0000
0001
0000
,
0100
0000
0010
0000
,
1000
0000
1000
0000
,
0001
0000
1000
1000
,
1000
0000
1000
0000
,
0010
0000
0100
0000
,
0001
0000
1000
0000
,
0001
0001
0001
0000
,
1000
0000
1000
0000
,
0100
0000
0010
0000
,
0001
0000
0001
0000
,
1000
0000
0001
0001
,
0002
0000
0003
0000
,
0020
0000
0030
0000
,
0200
0000
0300
0000
,
2000
0000
3000
0000
,
0002
0000
0003
0000
,
0200
0000
0300
0000
,
0010
0010
0010
0000
,
0100
0000
0001
0000
,
1000
0000
0000
0000
,
0001
0000
0001
0000
,
0010
0010
0010
0000
,
0001
0000
1000
0000
,
0001
1000
0001
0000
,
1000
0000
1000
0000
,
0010
0010
0010
0000
,
1000
0000
0001
0000
,
1000
0001
1000
0000
,
0200
0000
0000
0000
,
0300
0000
0000
0000
,
0020
0000
0000
0000
,
0030
0000
0000
0000
,
0002
0000
0000
0000
,
0003
0000
0000
0000
,
2002
0000
3003
0000
,
0001
0000
1000
0001
,
1000
0000
0000
0000
,
0001
0001
0001
0000
,
0100
0000
0010
0100
,
0010
0000
0100
0000
,
0010
0100
0010
0000
,
1000
1000
1000
0000
,
0001
0000
0010
0001
,
0010
0000
0001
0000
,
1000
0010
1000
0000
,
1000
1000
1000
0000
,
0100
0000
0010
0100
,
0010
0000
0100
0000
,
0010
0100
0010
0000
,
0001
0001
0001
0000
,
1000
0000
0010
1000
,
0010
0000
1000
0000
,
0001
0010
0001
0000
,
2000
0000
3000
0000
,
0020
0000
0030
0000
,
0200
0000
0300
0000
,
0002
0000
0003
0000
,
0020
0000
0030
0000
,
0200
0000
0300
0000
,
1000
1000
1000
0000
,
0001
0000
1000
0100
;
