#VERSION:0.83;
#TITLE:Everything;
#SUBTITLE:(feat. Rachel Florencia);
#ARTIST:Sihk & Tatsunoshin;
#TITLETRANSLIT:;
#SUBTITLETRANSLIT:;
#ARTISTTRANSLIT:;
#GENRE:Happy Hardcore x Hardstyle;
#ORIGIN:;
#TAGS:;
#CREDIT:darkanine x Gameoson;
#BANNER:Everything.png;
#BACKGROUND:Everything-bg.png;
#PREVIEWVID:;
#JACKET:Everything-jacket.png;
#CDIMAGE:;
#DISCIMAGE:;
#LYRICSPATH:;
#CDTITLE:;
#MUSIC:Everything.ogg;
#OFFSET:-0.375000;
#SAMPLESTART:87.375000;
#SAMPLELENGTH:12.000000;
#SELECTABLE:YES;
#BPMS:0.000000=160.000000
;
#STOPS:;
#DELAYS:;
#WARPS:;
#TIMESIGNATURES:0.000000=4=4
;
#TICKCOUNTS:0.000000=4
;
#COMBOS:0.000000=1
;
#SPEEDS:0.000000=1.000000=0.000000=0
;
#SCROLLS:0.000000=1.000000
;
#LABELS:0.000000=Song Start
;
#BGCHANGES:;
#KEYSOUNDS:;
#ATTACKS:
;

//---------------dance-single - darkanine----------------
#NOTEDATA:;
#CHARTNAME:;
#CHARTHASH:2970564656;
#STEPSTYPE:dance-single;
#BANNER:;
#DESCRIPTION:darkanine;
#CHARTSTYLE:;
#DIFFICULTY:Beginner;
#METER:6;
#METERF:6.000000;
#LASTSECONDHINT:111.375000;
#RADARVALUES:0.275979,0.420462,0.157345,0.017483,0.000000,221.000000,203.000000,18.000000,2.000000,0.000000,0.000000,0.000000,0.000000,0.000000,0.275979,0.420462,0.157345,0.017483,0.000000,221.000000,203.000000,18.000000,2.000000,0.000000,0.000000,0.000000,0.000000,0.000000;
#CREDIT:darkanine;
#NOTES:
0000
0000
0000
0000
,
0000
0000
0000
0000
,
0000
0000
0000
0000
,
0000
0000
0000
0000
,
0000
0000
0000
0000
,
0000
0000
0000
0000
,
0000
0000
0000
0000
,
0000
0000
0000
0000
,
0000
0001
0001
0000
,
1000
0100
0010
0010
,
0100
1000
0001
0000
,
0001
0100
0010
0010
,
0100
0001
1000
0000
,
1000
0100
0010
0100
,
1000
1000
0001
0000
,
0001
0010
1000
0010
,
0001
0000
0000
0000
,
1000
1000
0100
0010
,
0001
0001
0100
0000
,
0010
0010
1000
0100
,
0010
0010
0001
0000
,
0001
0100
1000
1000
,
0100
0010
1000
0000
,
0200
0000
0300
0000
,
0010
0010
0010
0000
,
1001
0001
0001
1000
,
1001
1000
0001
0000
,
0110
0010
0010
0100
,
0110
0000
1001
0000
,
1000
0100
1000
0010
,
0100
0001
0010
0000
,
0001
0001
1000
1000
,
0200
0000
0000
0000
,
0300
0000
0000
0000
,
1000
0000
0100
0000
,
0001
0000
0100
0000
,
0010
0000
0100
0000
,
1000
0000
1000
0000
,
0001
0000
0100
0000
,
1000
0000
0100
0000
,
0010
0000
0010
0000
,
1000
0000
0001
0000
,
1000
1000
0100
0000
,
0001
0001
0100
0000
,
0010
0010
0100
0000
,
1000
1000
0001
0000
,
0001
0001
0100
0000
,
1000
1000
0100
0000
,
0010
0010
0100
0000
,
0001
0000
0000
0000
,
1000
0100
1000
0100
,
0010
0001
0010
0001
,
0100
0001
0100
0001
,
1000
0010
1000
1000
,
1001
0000
0110
0000
,
1001
0000
0110
0000
,
1001
1001
1001
1001
,
0100
0000
0000
0000
,
1010
1000
0100
1000
,
0010
1000
0001
0001
,
0010
0001
0100
0001
,
0010
0001
0100
0100
,
0010
1000
0100
1000
,
0010
1000
0100
0100
,
0010
1000
0010
0001
,
0100
1000
0100
0000
,
0001
0010
1000
0010
,
0001
1000
0001
0001
,
1000
0010
0001
0010
,
1000
1000
1000
0000
,
0100
0010
1000
0010
,
0001
0010
0100
0100
,
0110
0010
1001
0001
,
1000
0001
0110
0000
,
1001
0000
0000
0000
;

//---------------dance-single - darkanine----------------
#NOTEDATA:;
#CHARTNAME:;
#CHARTHASH:544950282;
#STEPSTYPE:dance-single;
#BANNER:;
#DESCRIPTION:darkanine;
#CHARTSTYLE:;
#DIFFICULTY:Easy;
#METER:10;
#METERF:0.000000;
#LASTSECONDHINT:111.375000;
#RADARVALUES:0.387120,0.517492,0.262242,0.166087,0.065561,310.000000,280.000000,30.000000,19.000000,0.000000,0.000000,0.000000,0.000000,0.000000,0.387120,0.517492,0.262242,0.166087,0.065561,310.000000,280.000000,30.000000,19.000000,0.000000,0.000000,0.000000,0.000000,0.000000;
#CREDIT:darkanine;
#NOTES:
0000
0000
0000
0000
,
0000
0000
0000
0000
,
0000
0000
0000
0000
,
0000
0000
0000
0000
,
0000
0000
0000
0000
,
0000
0000
0000
0000
,
0000
0000
0000
0000
,
0000
0000
0000
0000
,
0000
0100
0100
0000
,
1001
0001
0010
0010
,
0100
1000
0001
0000
,
1001
1000
0010
0100
,
0001
1000
0001
1000
0001
0000
1000
0000
,
1001
0110
1001
0001
,
0100
0001
0020
0230
,
1300
1000
0001
0101
,
1001
0000
0000
0000
,
1000
0100
1000
0000
0001
0010
0001
0000
,
1000
0001
1000
1000
,
0001
0100
0001
0000
1000
0010
1000
0000
,
0100
0010
0100
0100
,
0010
0010
0010
0000
1001
0000
0001
0000
,
0100
1000
0100
0100
,
0020
0100
1000
0130
,
0001
0001
0001
0101
,
1000
0000
0010
0100
0001
0000
1000
0000
,
0001
0000
0010
0100
1000
0000
1000
0000
,
0001
0000
1000
0010
0100
0000
0001
0000
,
0010
0010
0010
0000
0110
0000
1000
0000
,
0001
0100
0001
0000
1000
0000
0001
0000
,
1000
0100
1000
0000
0001
0000
0001
0000
,
0110
0001
1001
0100
,
0020
0000
0000
0000
,
0030
0000
0000
0000
,
2000
3000
0200
0300
,
2000
3000
0100
1000
,
0002
0003
0200
0300
,
0002
0003
1000
0100
,
0020
0030
0002
0003
,
0200
0300
0010
1000
,
0002
0003
0020
0030
,
0200
0300
1000
1000
,
0001
0000
0000
0001
0000
0000
0000
0000
0100
0000
0000
0100
0000
0000
0000
0000
,
0001
0000
0000
0001
0000
0000
0000
0000
0100
0000
0000
0001
0000
0000
0000
0000
,
1000
0000
0000
1000
0000
0000
0000
0000
0100
0000
0000
0100
0000
0000
0000
0000
,
1000
0000
0000
1000
0000
0000
0000
0000
0001
0000
0000
0100
0000
0000
0000
0000
,
0010
0000
0000
0010
0000
0000
0000
0000
1000
0000
0000
1000
0000
0000
0000
0000
,
0010
0000
0000
0010
0000
0000
0000
0000
0100
0000
0000
0001
0000
0000
0000
0000
,
1000
0000
0000
1000
0000
0000
0000
0000
0100
0000
0000
0100
0000
0000
0000
0000
,
2000
0000
0000
0000
,
3001
0100
1000
1000
,
0001
0010
1000
1000
,
0001
0010
1000
1000
,
0001
0100
1000
1000
,
0001
0000
0001
0100
0010
0000
0010
1000
,
0001
0000
0001
1000
0100
0000
0100
0010
,
0001
0000
0001
0000
1000
0001
1000
0001
,
2000
0000
3000
0000
,
1001
0000
0011
0000
0010
0001
1000
0000
,
1001
0000
1010
0000
0010
1000
0001
0001
,
0100
0000
0110
0000
0010
1000
0100
0000
,
0110
0000
1100
0000
1000
0100
0010
0010
,
0001
0000
1001
0000
0001
0100
1000
0000
,
0110
0000
1001
0000
1000
0100
0001
0001
,
0100
0000
0110
0000
0001
1000
0001
0001
,
2000
0000
0010
0000
3001
0001
0000
0000
,
0001
0010
0100
0010
0001
0000
0001
0000
,
1000
0100
0010
0100
1000
0000
1000
1000
,
0010
0100
0001
0100
0010
0000
1000
0000
,
0110
0000
0001
0001
0001
1000
0100
0000
,
0110
0000
0001
1000
0001
0000
1001
0000
,
0110
0000
1000
0001
1000
0000
0100
0100
,
1000
0000
0001
0100
0010
0010
1000
1000
,
0001
0000
0000
0000
0101
0000
0000
0000
1001
0000
0000
0001
0000
0000
0010
0000
,
0110
0000
0000
0000
;

//---------------dance-single - Gameoson----------------
#NOTEDATA:;
#CHARTNAME:;
#CHARTHASH:3342636055;
#STEPSTYPE:dance-single;
#BANNER:;
#DESCRIPTION:Gameoson;
#CHARTSTYLE:;
#DIFFICULTY:Medium;
#METER:12;
#METERF:0.000000;
#LASTSECONDHINT:111.375000;
#RADARVALUES:0.475783,0.582178,0.122380,0.384622,0.218535,381.000000,367.000000,14.000000,44.000000,0.000000,0.000000,0.000000,0.000000,0.000000,0.475783,0.582178,0.122380,0.384622,0.218535,381.000000,367.000000,14.000000,44.000000,0.000000,0.000000,0.000000,0.000000,0.000000;
#CREDIT:Gameoson;
#NOTES:
0000
0000
0000
0000
,
0000
0000
0000
0000
,
0000
0000
0000
0000
,
0000
0000
0000
0000
,
0000
0000
0000
0000
,
0000
0000
0000
0000
,
0000
0000
0000
0000
,
0000
0000
0000
0000
,
2000
3002
2003
3001
,
1000
0100
1000
0100
0010
0000
0100
1000
,
0010
0100
0010
0100
0001
1000
2000
0000
,
3001
0010
0001
0010
0100
0000
0010
0001
,
1000
0000
0010
0000
1000
0000
0001
0000
0010
0000
0000
0020
0000
0000
0030
0000
,
0001
0100
0001
0100
0010
0000
0100
0001
,
0010
0100
0010
0100
1000
0001
0002
0000
,
1003
0010
1000
0010
0100
0000
0001
1000
,
0200
0300
0020
0030
0002
0003
1000
0000
,
1001
0000
0001
0100
2000
0000
3001
0010
,
1000
0000
0000
1000
0010
0000
1000
0000
0100
0000
0010
0000
0001
0000
0000
0000
,
1001
0000
1000
0100
0002
0000
1003
0010
,
0001
0000
0000
0001
0010
0000
0100
0000
1000
0000
0001
0000
1000
0000
0000
0000
,
0001
0001
1000
0010
0002
0000
0013
1000
,
0100
0000
0000
0001
0100
0000
1000
0000
0002
0000
0000
0000
0103
0000
0010
0000
,
1000
0000
1000
0000
0200
0000
0310
0001
,
2000
3000
0002
0003
2000
3000
0001
0001
,
1000
0010
0100
0010
1000
0100
0010
0100
,
1000
0010
0100
0010
1000
0001
0001
0000
,
0001
0010
0100
0010
0001
0100
0010
0100
,
0001
0000
0000
0010
0100
0000
0000
1000
0010
0000
0100
0000
0001
0000
0000
0000
,
0011
0000
1001
0000
1000
0001
0100
0010
,
1010
0000
1001
0000
1000
0100
0010
0001
,
0011
0000
0000
0000
1000
0000
0001
0000
0100
0000
0000
0100
0010
0000
0100
0000
,
0002
0000
0000
0000
,
0003
0000
0000
0000
,
0002
0003
0020
0030
,
0200
0000
0000
0000
0300
0000
0000
0000
0010
0000
0000
0010
0000
0000
0001
0000
,
2000
3000
0020
0030
,
0200
0000
0000
0000
0300
0000
0000
0000
0010
0000
0000
1000
0000
0000
0001
0000
,
0020
0030
0200
0300
,
2000
0000
0000
0000
3000
0000
0000
0000
0001
0000
0000
0001
0000
0000
1000
0000
,
0020
0030
0200
0300
,
0002
0000
0000
0000
0003
0000
0000
0000
1000
0000
0000
0100
0000
0000
0010
0000
,
0002
0013
0200
0310
,
0002
0000
0000
0000
0013
0000
0000
0000
0100
0000
0000
1000
0000
1000
0001
0000
,
2000
3010
0200
0310
,
2000
0000
0000
0000
3010
0000
0000
0000
0100
0000
0000
0001
0000
1000
0001
0000
,
0020
0130
2000
3001
,
0200
0000
0000
0000
0310
0000
0000
0000
1000
0000
0000
0001
0000
1000
0100
0000
,
0020
0031
2000
3010
,
0100
0000
0000
0000
,
1002
1000
0100
0100
,
1000
0000
1000
0000
0103
0001
1000
0000
,
2001
0001
0100
0100
,
0001
0000
0001
0000
3100
1000
0001
0000
,
1010
0001
0011
1000
,
1100
0000
0001
0000
0101
0000
1000
0010
,
0100
0001
1000
0100
0010
0100
0010
0001
,
2000
0000
3000
0000
,
1000
0000
0000
1000
0000
0000
0010
0000
0100
0000
0000
0100
0000
0000
0010
0000
,
1000
0000
0000
1000
0000
0000
0001
0000
1000
0000
0100
0010
0000
0100
0010
0000
,
0001
0000
0000
0001
0000
0000
0010
0000
0100
0000
0000
0100
0000
0000
0010
0000
,
0001
0000
0000
0001
0000
0000
1000
0000
0010
0000
0000
0100
0001
0000
0001
0000
,
1000
0000
0000
1000
0000
0000
0001
0000
0010
0000
0000
0010
0000
0000
0001
0000
,
0100
0000
0000
0100
0000
0000
0001
0000
0010
0000
0100
1000
0000
0100
1000
0000
,
0010
0000
0000
0010
0000
0000
1000
0000
0100
0000
0000
0100
0000
0000
1000
0000
,
0001
0000
0000
0100
0000
0000
0010
0000
1000
0000
0100
0000
0010
0000
0001
0000
,
1000
0000
0000
1000
0000
0000
0010
0000
0100
0000
0001
1000
0000
0100
0010
0000
,
0001
0000
0000
0001
0000
0000
0010
0000
0100
0000
1000
0001
0000
0100
0010
0000
,
0100
0000
0000
1000
0000
0000
0100
0000
0001
0000
1000
0100
0000
0100
0010
0000
,
0100
0000
0000
0001
0100
0000
0010
0000
0100
0000
1000
0000
0001
0000
0001
0000
,
1000
0000
0000
0010
0000
0000
0001
0000
0010
0000
0000
1000
0000
0000
0001
0000
,
0010
0000
0000
1000
0000
0000
0010
0000
0001
0000
0010
0001
0000
0100
0001
0000
,
0100
0010
1000
0100
0010
0010
0001
0001
,
1000
0000
0010
0000
0001
0000
0010
0000
1000
0000
0000
0100
0000
0000
0010
0000
,
0110
0000
0000
0000
;

//---------------dance-single - darkanine x Gameoson----------------
#NOTEDATA:;
#CHARTNAME:;
#CHARTHASH:4176916877;
#STEPSTYPE:dance-single;
#BANNER:;
#DESCRIPTION:darkanine x Gameoson;
#CHARTSTYLE:;
#DIFFICULTY:Hard;
#METER:15;
#METERF:0.000000;
#LASTSECONDHINT:111.375000;
#RADARVALUES:0.688074,0.873267,0.279725,0.393364,0.655606,551.000000,519.000000,32.000000,45.000000,0.000000,0.000000,0.000000,0.000000,0.000000,0.688074,0.873267,0.279725,0.393364,0.655606,551.000000,519.000000,32.000000,45.000000,0.000000,0.000000,0.000000,0.000000,0.000000;
#CREDIT:darkanine x Gameoson;
#NOTES:
0000
0000
0000
0000
,
0000
0000
0000
0000
,
0000
0000
0000
0000
,
0000
0000
0000
0000
,
0000
0000
0000
0000
,
0000
0000
0000
0000
,
0000
0000
0000
0000
,
0000
0000
0000
0000
,
0002
0100
1003
0001
,
1000
0010
1000
0010
0001
0010
0100
0001
,
1000
0100
1000
0100
0010
0100
0002
0000
,
0103
0010
0001
0100
1000
0100
0010
1000
,
0001
0000
0100
0010
0100
0000
0001
1000
0100
0000
0010
0001
0000
0000
0000
0000
,
0100
0010
1000
0000
1001
0000
0001
0000
0021
0000
0000
0000
0130
0000
1000
0000
,
0001
1000
0100
0001
1000
0010
0002
0000
,
1003
0000
0010
0000
0100
0000
0010
0000
1010
0000
0000
0000
0001
0100
0001
0000
,
1000
0000
0000
0000
0001
1000
0100
0010
0001
0000
0100
0000
1010
0000
0000
0000
,
1000
0010
0100
0001
0010
1000
0010
0001
,
0100
0000
0010
1000
0000
0010
0100
0000
0001
1000
0001
0000
2000
0000
0000
0000
,
3100
0010
0001
0010
1000
0010
0001
1000
,
0100
0000
1000
0001
0100
0000
0001
0000
1000
0000
0000
0000
1000
0100
0010
0001
,
1000
0010
1000
0000
0010
0000
0100
0000
0101
0000
0001
0000
0010
0000
1000
0000
,
0010
0000
0001
1000
0000
0100
1000
0000
0010
1000
0010
0000
0100
0001
0100
0000
,
0020
0000
0000
0000
0001
0000
0000
0000
0100
0000
0000
0000
1030
0010
1000
0000
,
0200
0320
0032
1003
,
1010
0010
0110
0100
0101
0001
1000
0001
,
0011
0010
0110
0100
1100
1000
0001
0000
,
0101
0001
1001
1000
1100
0100
0010
0010
,
0001
0000
0100
0010
0100
0000
0010
1000
0001
0000
0010
0000
0100
0000
0000
0000
,
1000
0100
0010
1000
0010
0001
0100
0010
,
1000
0010
0001
0010
0100
0001
0010
0100
,
1100
0000
0000
0000
0100
0000
0010
0000
0011
0000
0000
0001
0100
0000
0010
0000
,
2000
0000
0000
0000
,
3000
0000
0000
0000
,
2000
0000
0000
3010
0000
0000
0010
0000
0200
0000
0000
0310
0000
0000
1000
0000
,
0002
0000
0000
0013
0000
0000
0010
0000
0200
0000
0000
0310
0000
0010
0001
1000
,
0002
0000
0000
0103
0000
0000
0100
0000
0020
0000
0000
0130
0000
0000
0001
0000
,
2000
0000
0000
3100
0000
0000
0100
0000
0020
0000
0000
0031
0000
1000
0001
1000
,
0020
0000
0000
0130
0000
0000
0100
0000
0002
0000
0000
0013
0000
0000
0100
0000
,
0020
0000
0000
0130
0000
0000
0100
0000
2000
0000
0000
3010
0000
0010
0100
0001
,
2000
0000
0000
3100
0000
0000
0010
0000
0002
0000
0000
0103
0000
0000
0100
0000
,
0002
0000
0000
0013
0000
0000
0100
0000
2000
0000
0000
3010
0000
1000
0010
0100
,
0002
0000
0000
0013
0000
0000
0010
0000
2000
0000
0000
3010
0000
0000
0001
0000
,
0200
0000
0000
1300
0000
0000
0100
0000
0002
0000
0000
1003
0000
0001
0100
0010
,
2000
0000
0000
3010
0000
0000
0010
0000
0002
0000
0000
0013
0000
0000
1000
0000
,
0200
0000
0000
0301
0000
0000
0100
0000
2000
0000
0000
3001
0000
0001
0100
0001
,
0020
0000
0000
0130
0000
0000
0100
0000
0002
0000
0000
0103
0000
0000
1000
0000
,
0020
0000
0000
0130
0000
0000
0100
0000
2000
0000
0000
3100
0000
0010
0100
0010
,
0200
0000
0000
0301
0000
0000
1000
0000
0200
0000
0000
0310
0000
0000
0001
0000
,
1000
0000
0000
0000
,
1002
0000
0000
1000
0000
0000
0100
0000
0103
0000
0000
0001
0000
0000
1000
0000
,
0002
0000
0000
1000
0000
0000
0010
0000
0013
0000
0000
0001
0000
0000
1000
0000
,
2001
0000
0000
0001
0000
0000
0100
0000
3100
0000
0000
1000
0000
0000
0001
0000
,
2000
0000
0000
0001
0000
0000
0010
0000
3010
0000
0000
1000
0000
0001
1000
0001
,
1000
0000
0100
0010
0100
0000
0010
0000
0001
0100
0000
0100
0010
0000
1000
0000
,
0001
0000
0010
0100
0010
0000
0100
0000
1000
0001
0000
0001
0100
0000
0010
0000
,
1010
0000
0000
0000
0101
0000
0000
0000
1001
0000
0000
0000
1000
0100
0010
0001
,
2000
0000
0000
0000
0001
0000
0000
0000
0001
0000
0000
3000
0000
0000
0000
0000
,
1000
0000
0001
0010
0000
0001
0010
0000
0100
0000
1000
0001
0000
1000
0100
0000
,
0010
0000
0001
0100
0000
0001
0100
0000
0010
0000
0100
0001
0000
1000
0100
0010
,
0001
0000
1000
0010
0000
1000
0010
0000
0100
0000
0001
1000
0000
0001
0100
0000
,
0010
0000
1000
0100
0000
1000
0100
0000
0010
0000
0100
1000
0001
1000
0010
0100
,
0001
0000
0010
0100
0000
0010
0100
0000
0001
0000
0100
0010
0000
0100
1000
0000
,
0001
0000
0100
0010
0000
0100
0010
0000
0001
0000
0010
0100
0000
0010
0100
0010
,
1000
0000
0100
0010
0000
0100
0010
0000
1000
0000
0010
0100
0000
0010
0100
0000
,
1000
0000
0001
0100
0000
0100
0010
0000
1000
0000
1010
0000
0110
0000
0000
0000
,
1001
0000
0001
0100
0000
0001
0100
0010
1000
0000
0100
0010
0000
0100
0010
0001
,
1000
0000
0010
1000
0000
0100
1000
0010
1000
0000
0001
0010
0000
0001
0100
0001
,
0010
0000
1000
0010
0000
0010
0001
0000
1000
0000
0001
0100
0000
0100
1000
0000
,
0100
0000
0001
0100
0010
0000
1000
0100
0010
0000
0011
0000
0101
0000
0000
0000
,
1001
0000
1000
0001
0100
0010
1000
0000
0001
0000
0001
0010
0100
1000
0001
0000
,
1000
0000
0010
0100
0001
1000
0100
0000
0010
0000
0010
0001
1000
0010
0100
0010
,
0100
0000
0001
1000
0100
0010
0001
0000
1000
0000
1010
0000
0001
0000
0011
0000
,
1000
0000
1000
0001
1000
0000
0001
0100
0010
0000
0000
1010
0000
0000
1100
0000
,
0110
0000
0000
0000
;

//---------------dance-single - darkanine x Gameoson----------------
#NOTEDATA:;
#CHARTNAME:;
#CHARTHASH:2373925881;
#STEPSTYPE:dance-single;
#BANNER:;
#DESCRIPTION:darkanine x Gameoson;
#CHARTSTYLE:;
#DIFFICULTY:Challenge;
#METER:17;
#METERF:0.000000;
#LASTSECONDHINT:111.375000;
#RADARVALUES:0.770493,1.002640,0.166087,0.489519,0.952814,617.000000,598.000000,19.000000,56.000000,50.000000,0.000000,0.000000,0.000000,0.000000,0.770493,1.002640,0.166087,0.489519,0.952814,617.000000,598.000000,19.000000,56.000000,50.000000,0.000000,0.000000,0.000000,0.000000;
#CREDIT:darkanine x Gameoson;
#NOTES:
// measure 0
0000
0000
0000
0000
,  // measure 1
0000
0000
0000
0000
,  // measure 2
0000
0000
0000
0000
,  // measure 3
0000
0000
0000
0000
,  // measure 4
2000
0000
0000
0000
,  // measure 5
3020
0000
0000
0000
,  // measure 6
0230
0000
0000
0000
,  // measure 7
0302
0000
2000
0000
,  // measure 8
3003
0100
0100
1001
,  // measure 9
1000
0100
1000
0000
0100
0000
0010
0000
0100
1000
0010
0000
1000
0000
0010
0000
,  // measure 10
1000
0100
1000
0010
1000
0100
0020
0000
,  // measure 11
0031
0100
0001
0000
0100
0000
0010
0000
0100
0001
0010
0000
0001
0000
0010
0000
,  // measure 12
0100
0000
0100
0010
0001
0000
0001
0100
0010
0000
0100
0010
2000
0000
3002
0000
,  // measure 13
0013
0100
0010
0000
0110
0000
0110
0000
1000
0001
0100
0000
0010
0000
1000
0000
,  // measure 14
0001
0010
0200
1300
0002
0203
0320
0000
,  // measure 15
1030
0010
1000
0000
0100
0000
0010
0000
0001
0100
0010
0000
1000
0100
0010
0000
,  // measure 16
0022
0033
2200
3300
2002
3003
MMMM
0000
,  // measure 17
1000
0100
1000
0000
0001
0100
0001
0000
0010
0100
0010
0000
0001
1000
0001
0000
,  // measure 18
0100
0010
1000
0010
0100
0000
0100
0000
0001
0000
1000
0100
0010
0001
0010
0100
,  // measure 19
1000
0000
0001
0000
1000
0010
1000
0000
0001
0010
0001
0000
0100
0010
0100
0000
,  // measure 20
0001
0000
0001
0100
0010
0100
0001
0000
1000
0000
1000
0000
1000
0001
0010
0100
,  // measure 21
1000
0001
1001
0000
0010
0000
0110
0000
1000
0000
0010
0100
0001
0000
0001
0100
,  // measure 22
0010
0000
1000
0010
1000
0001
1000
0000
0100
0010
0100
0010
0001
0010
0100
1000
,  // measure 23
0002
0003
0100
0100
,  // measure 24
00M0
10M1
00M0
0110
,  // measure 25
1000
0000
0010
0000
0001
0010
1000
0000
0001
0010
1000
0000
0010
0000
0001
0000
,  // measure 26
1000
0000
0100
0000
0001
0100
1000
0000
0001
0100
1000
0000
0200
0000
0000
0000
,  // measure 27
0301
0000
0010
0000
1000
0010
0001
0000
1000
0010
0001
0000
0010
0000
0100
0000
,  // measure 28
0010
0000
0010
1000
0001
0000
0001
1000
0100
0000
0010
0000
0011
0000
0000
0000
,  // measure 29
1000
0000
0010
0000
0001
0010
1000
0000
0001
0100
1000
0000
0100
0010
1000
0000
,  // measure 30
0001
0000
0010
0000
1000
0010
0001
0000
1000
0100
0001
0000
0100
0010
0001
0000
,  // measure 31
0011
0000
0000
0000
0010
0001
0100
0010
1000
0000
0000
0010
1000
0000
0100
0000
,  // measure 32
0020
0000
0000
0130
,  // measure 33
0000
0000
0000
0000
,  // measure 34
2000
0000
0000
301M
0000
0000
0010
0000
0002
0000
0000
1003
0000
0000
0001
0000
,  // measure 35
0002
0000
0000
M013
0000
0000
0010
0000
2000
0000
0000
3001
0000
0001
0100
0010
,  // measure 36
2000
0000
0000
310M
0000
0000
0100
0000
0002
0000
0000
1003
0000
0000
0001
0000
,  // measure 37
0002
0000
0000
M103
0000
0000
0100
0000
2000
0000
0000
3001
0000
1000
0100
0010
,  // measure 38
0002
0000
0000
M013
0000
0000
0010
0000
2000
0000
0000
3001
0000
0000
1000
0000
,  // measure 39
2000
0000
0000
310M
0000
0000
0100
0000
0002
0000
0000
1003
0000
1000
0001
0100
,  // measure 40
0020
0000
0000
M130
0000
0000
0100
0000
2000
0000
0000
3001
0000
0000
0001
0000
,  // measure 41
0020
0000
0000
013M
0000
0000
0100
0000
0002
0000
0000
1003
0000
0001
1000
0100
,  // measure 42
0020
0000
0000
103M
0000
0000
1000
0000
0200
0000
0000
1300
0000
0000
1000
0000
,  // measure 43
0020
0000
0000
M031
0000
0000
0001
0000
0200
0000
0000
0310
0000
0010
1000
0010
,  // measure 44
0200
0000
0000
130M
0000
0000
1000
0000
0020
0000
0000
1030
0000
0000
1000
0000
,  // measure 45
0200
0000
0000
0301
0000
0000
M001
0000
0020
0000
0000
0031
0000
0001
1000
0100
,  // measure 46
0020
0000
0000
M031
0000
0000
0001
0000
0200
0000
0000
1300
0000
0000
1000
0000
,  // measure 47
0020
0000
0000
103M
0000
0000
1000
0000
0200
0000
0000
0301
0000
0001
0100
0010
,  // measure 48
2000
0000
0000
3100
0000
0000
01M0
0000
0001
0000
0000
M002
0000
0000
0013
0000
,  // measure 49
1000
0000
0000
0000
,  // measure 50
1002
0000
0000
0100
0000
0000
1000
0000
1000
0000
0000
0010
0000
0000
1000
0000
,  // measure 51
2003
0000
0000
0100
0000
0000
0001
0000
0001
0000
0000
0010
0000
0000
0001
0000
,  // measure 52
3002
0000
0000
0100
0000
0000
0010
0000
0010
0000
0000
0100
0000
0000
1000
0000
,  // measure 53
2003
0000
0000
0100
0000
0000
0010
0000
0010
0000
0000
3100
0000
0010
0001
1000
,  // measure 54
0010
0000
0100
0010
0100
0000
0001
0000
0001
0100
0000
0001
1000
0000
0001
0000
,  // measure 55
0010
0000
0100
0010
0100
0000
1000
0000
1000
0100
0000
1000
0010
0000
0100
0000
,  // measure 56
0001
0100
0001
1000
0100
0010
0100
0010
0001
0010
0100
1000
0001
0100
0010
0100
,  // measure 57
0002
0000
0000
0000
1000
0000
0000
0000
1000
0000
0000
1003
0000
1000
0100
0010
,  // measure 58
0001
0000
1000
0010
0M00
0010
0001
0100
0001
0000
1000
0100
00M0
0100
0001
0010
,  // measure 59
0001
0000
1000
0010
0M00
0010
0001
0100
0001
0000
0100
0001
0010
0001
0100
0010
,  // measure 60
1000
0000
0001
0010
0M00
0010
1000
0100
1000
0000
0001
0100
00M0
0100
1000
0010
,  // measure 61
1000
0000
0001
0010
0M00
0010
1000
0100
1000
0001
1000
0001
0100
0010
1000
0100
,  // measure 62
0010
0000
0001
0010
0M00
0010
0100
0001
1000
0000
0001
0100
00M0
0100
0010
0001
,  // measure 63
0100
0000
0001
0010
0M00
0010
0100
0001
0010
0000
0100
1000
0010
1000
0100
0010
,  // measure 64
0001
0000
1000
0010
0M00
0010
0100
1000
0001
0000
1000
0100
00M0
0100
0010
1000
,  // measure 65
0100
0000
1000
0010
0M00
0010
0100
1000
0010
0000
0110
0000
0000
0000
MMMM
0000
,  // measure 66
1001
0000
1000
0100
0010
0100
0001
M000
0001
0000
0010
0100
0010
0001
1000
0000
,  // measure 67
1000
0000
0001
0100
0010
0100
1000
000M
1000
0000
0010
0100
0001
1000
0100
0010
,  // measure 68
0001
0000
1000
0010
0100
0010
0001
M000
0001
0000
0100
0010
1000
0001
0010
0000
,  // measure 69
0100
0000
0000
0000
0000
0000
0001
0000
0000
0100
0000
0000
1000
0000
0000
0000
0000
0000
0001
0000
1000
0000
0001
0000
1000
0000
0000
0000
0000
0000
0010
0000
0000
0000
0000
0000
1001
0000
0000
0000
0000
0000
MMMM
0000
0000
0000
0000
0000
,  // measure 70
0001
0010
0001
0010
0M00
0010
1000
0100
1000
0010
1000
0010
0M00
0010
0001
1000
,  // measure 71
0010
1000
0100
0010
000M
0010
1000
0001
0010
0001
0100
0010
M000
0010
0001
1000
,  // measure 72
0010
0100
0010
0100
0001
1000
0001
1000
0100
0010
0001
1000
0001
0100
0010
0100
,  // measure 73
1000
0000
0000
0000
0000
0000
1000
0000
0000
0100
0000
0000
0001
0000
0000
0000
0000
0000
0010
0000
0100
0000
0010
0000
0100
0000
0000
0000
0000
0000
0000
0000
0000
0011
0000
0000
0000
0000
0000
0000
0000
0000
0101
0000
0000
0000
0000
0000
,  // measure 74
1001
0000
0000
0000
;
