#TITLE:Eve, Psyche & The Bluebeard's wife;
#ARTIST:LE SSERAFIM;
#BANNER:Eve Psyche & The Bluebeard's wife.png;
#BACKGROUND:Eve Psyche & The Bluebeard's wife-bg.png;
#JACKET:Eve Psyche & The Bluebeard's wife-jacket.png;
#CDTITLE:./CDTITLES/NONE.PNG;
#MUSIC:Eve Psyche & The Bluebeard's wife.ogg;
#SAMPLESTART:46.993;
#SAMPLELENGTH:15;
#BPMS:0=143;

//---------------dance-single - t7r----------------
#NOTES:
     dance-single:
     t7r:
     Beginner:
     4:
     :
0000
0000
0000
0000
,
0000
0000
0000
0000
,
0000
0000
0000
0000
,
0000
0000
0000
0000
,
1000
0000
0000
0000
,
1000
0000
0000
0000
,
0001
0000
0000
0000
,
0001
0000
0000
0000
,
0100
0000
0000
0000
,
0100
0000
0000
0000
,
0010
0000
0000
0000
,
0010
0000
0000
0000
,
1000
0000
1000
0000
,
1000
0000
0000
0000
,
0001
0000
0001
0000
,
0001
0000
0000
0000
,
0010
0000
0010
0000
,
0010
0000
0000
0000
,
0100
0000
0000
0100
,
0100
0000
0100
0000
,
0010
0000
0010
0000
,
0001
0000
0000
0000
,
1000
0000
1000
0000
,
0010
0000
0000
0000
,
0100
0000
0100
0000
,
0001
0000
0000
0000
,
1000
0000
0000
1000
,
1000
0000
1000
0000
,
0001
0000
0001
0000
,
0001
0001
0001
0000
,
0100
0000
0100
0000
,
0100
0100
0100
0000
,
0010
0000
0010
0000
,
0010
0010
0010
0000
,
1000
0000
1000
0000
,
1000
1000
1000
0000
,
0100
0000
0100
0000
,
0100
0000
0100
0000
,
0010
0010
0010
0000
,
0010
0010
0010
0000
,
0001
0000
0001
0000
,
0001
0000
0001
0000
,
1000
1000
1000
0000
,
1000
1000
1000
0000
,
0010
0000
0010
0000
,
0010
0000
0010
0000
,
0100
0000
0100
0000
,
0100
0000
0100
0000
,
0001
0000
0001
0000
,
1000
1000
1000
0000
,
0100
0000
0100
0000
,
0010
0010
0010
0000
,
0010
0000
0000
0000
,
0000
0000
0000
0000
,
0001
0000
0000
0000
,
0000
0000
0000
0000
,
1000
0000
0000
0000
,
0000
0000
0000
0000
,
0010
0000
0000
0000
,
0100
0000
0100
0000
,
0000
0000
0000
0000
,
0010
0000
0010
0000
,
0010
0010
0010
0000
,
1000
0000
1000
0000
,
1000
0000
1000
1000
,
1000
0000
0001
0000
,
0010
0000
0010
0000
,
0100
0100
0100
0000
,
0100
0100
0100
0000
,
0010
0000
0000
0000
,
0001
0000
0000
0000
,
1000
0000
1000
0000
,
1000
1000
1000
0000
,
0001
0000
0001
0000
,
0100
0000
0000
0000
,
0010
0000
0010
0010
,
0010
0000
0010
0000
;

//---------------dance-single - t7r----------------
#NOTES:
     dance-single:
     t7r:
     Easy:
     8:
     :
0000
0000
0000
0000
,
0000
0000
0000
0000
,
0000
0000
0000
0000
,
0000
0000
0000
0000
,
1000
1000
1000
1000
,
0001
0001
0001
0001
,
0100
0100
0100
0100
,
0010
0010
0010
0010
,
1000
0100
0010
10M0
,
0100
0010
0010
0002
,
1003
0002
0103
0002
,
0013
0002
2000
3003
,
1001
1100
1000
0010
,
1000
0001
2000
3200
,
0310
0001
1000
1000
,
0001
0100
0010
1000
,
1001
0011
0001
0100
,
0010
0000
0010
0000
1000
0000
0000
0200
,
0000
0000
0310
0000
0001
0000
0000
0200
,
0000
0310
1000
0001
,
1000
0000
0000
0000
0100
0000
0000
0000
1000
0000
0000
1000
0000
0000
0000
0000
,
0001
0100
0002
0023
,
0031
0000
0000
0000
1000
0000
0000
0000
0001
0000
0000
0001
0000
0000
0000
0000
,
1000
0010
0100
0001
,
1001
0000
0000
0000
1100
0000
0000
0000
1000
0000
0000
1000
0000
0000
0000
0000
,
0001
0000
0010
0000
0100
0000
0000
0020
,
0000
0000
0031
0000
0100
0000
0000
0020
,
0000
1030
0001
1001
,
1000
1100
1000
0001
,
0010
0011
0001
1000
,
0001
0000
0100
0100
0100
0000
1M00
0000
,
0010
0010
0010
0000
2002
0000
3003
0000
,
0001
0101
0001
1000
,
0010
1010
1000
0001
,
1000
0000
0100
0100
0100
0000
0M01
0000
,
0010
0010
0010
0000
0001
0000
2000
0000
,
3001
0000
0000
0000
0001
0000
0000
0001
,
0001
0000
0000
0001
0001
0001
0000
0000
,
1000
0000
0010
0010
0010
0000
00M1
0000
,
0100
0100
0100
0000
0001
0000
1002
0000
,
1003
0000
0000
0000
1000
0000
0000
1000
,
1000
0000
0000
1000
1000
1000
0000
0000
,
0001
0000
0010
0010
0010
0000
10M0
0000
,
0100
0100
0100
0000
1000
0000
0001
0000
,
1000
1100
1100
1100
,
1000
0000
1100
0000
1100
0000
1000
0001
,
0001
0101
0101
0101
,
0001
0101
0101
0001
,
0010
0100
0M01
0010
,
0100
0100
1000
0020
,
0130
2M00
3010
02M0
,
1300
0010
1001
0020
,
0130
0000
0000
0000
,
0110
0000
0000
0000
0000
0000
0000
0001
,
0001
0000
0000
0000
,
1000
0000
1000
0002
,
0013
0001
1000
0000
,
0010
1000
0001
1000
,
0100
0000
0000
0100
,
0020
0130
2000
0000
,
0000
0000
3000
1001
,
0001
0101
0001
1000
,
0010
1010
1000
0001
,
1000
0000
0100
0100
0100
0000
0M01
0000
,
0010
0010
0010
0000
0001
0001
0001
0000
,
1000
1100
1000
0001
,
0010
0011
0001
1000
,
0001
0000
0100
0100
0100
0000
1M00
0000
,
0010
0000
0010
0000
0010
0000
0000
0000
1000
0000
0000
1000
0000
0000
0000
0000
,
0100
0000
0000
0000
0021
0000
0000
0000
0031
0000
0000
0001
0000
0000
0000
0000
,
0100
0000
0000
0000
2010
0000
0000
0000
3001
0000
0000
0001
0000
0000
0000
0000
,
0100
0000
0001
0001
0001
0000
0M10
0000
,
1000
0000
1000
0000
1000
0000
0000
0000
0010
0000
0000
0010
0000
0000
0000
0000
,
0100
0000
0000
0000
2001
0000
0000
0000
3100
0000
0000
0100
0000
0000
0000
0000
,
0010
0000
0000
0000
1002
0000
0000
0000
1003
0000
0000
0001
0000
0000
0000
0000
,
0010
0000
10M0
1000
1000
0000
M100
0000
,
0001
0000
0001
0000
0001
0000
0000
0000
001M
0000
0000
0010
0000
0000
0000
0000
;

//---------------dance-single - t7r----------------
#NOTES:
     dance-single:
     t7r:
     Medium:
     11:
     :
0000
0000
0000
0000
,
0000
0000
0000
0000
,
0000
0000
0000
0000
,
0000
0000
0000
0000
,
1001
0000
0000
0000
1001
0000
0000
0000
1001
0000
0000
1000
0000
0000
1000
0000
,
0001
0000
1001
0000
1001
0000
0001
0100
,
0010
0000
0000
0000
0110
0000
0000
0000
0110
0000
0000
0110
0000
0000
0100
0000
,
0001
0000
1001
0000
1001
0000
1000
0100
,
0010
0000
10M0
0010
0100
0000
1M00
0100
,
0010
0001
1000
0000
1001
0000
0002
0000
,
0013
0000
02M0
0000
0301
0000
001M
0100
,
0001
0000
001M
1000
0002
0000
1003
0000
,
0002
0000
0000
0000
0023
0000
0000
0000
0130
0000
0000
0010
0000
0000
0010
0000
,
0001
0100
0020
0000
1030
0010
1000
0001
,
2000
0000
0000
0000
3200
0000
0000
0000
1300
0000
0000
0010
0000
0000
0010
0000
,
1000
0001
0020
0000
0031
0000
1000
0000
,
0002
0000
0000
0000
0203
0000
0000
0000
0310
0000
0000
1000
0000
0000
1000
0000
,
0001
0010
0002
0000
1003
0000
0100
0020
,
0000
0130
1000
1000
0001
0000
0100
0020
,
0000
0000
0130
0000
0001
0000
0000
0000
1001
0000
0000
1000
0000
0000
0001
0000
,
0010
0000
0000
0000
0011
0000
0000
0000
0001
0000
0000
1001
0000
0000
0001
0000
,
1000
0000
1010
0000
1000
0010
1000
0001
,
1000
0000
0000
0000
1100
0000
0000
0000
0100
0000
0000
1100
0000
0000
1000
0000
,
0001
0000
0100
0000
0010
0000
0000
0000
1000
0000
0000
0001
0000
0000
0001
0000
,
0100
0000
0000
0000
0101
0000
0000
0000
0001
0000
0000
1001
0000
0000
0001
0000
,
1000
0100
1000
0000
0010
1000
0001
2000
,
0000
3100
0010
0010
0001
0000
0100
0002
,
0000
0103
0010
0000
1000
0000
1001
0000
,
1000
0000
0000
0000
1100
0000
0000
0000
1000
0000
0000
0010
0000
0000
1000
0000
,
0001
0000
0000
0000
0101
0000
0000
0000
0001
0000
0000
0010
0000
0000
0000
0000
,
0001
1000
0100
0100
0100
0000
0M01
1000
,
0010
0010
0010
0000
00M1
1000
1000
0000
,
0001
0000
0010
0000
0010
0000
0000
0000
0001
0000
0000
0100
0000
0000
0001
0000
,
1000
0000
0000
0000
1010
0000
0000
0000
1000
0000
0000
0100
0000
0000
0000
0000
,
1000
0001
0010
0010
0010
0000
10M0
0001
,
0100
0100
0100
0000
1M00
0001
2000
0000
,
3002
0000
0103
0000
0002
0000
0013
0001
,
0002
0000
0103
0001
0001
0002
1003
0100
,
1000
0001
0100
0100
0100
0000
1M00
0001
,
0010
0010
0010
0000
10M0
0000
0020
0000
,
2030
0100
3100
0000
2000
0000
3010
1000
,
2000
0000
3100
1000
1000
2000
3001
0100
,
0001
1000
0100
0100
0100
0000
0M01
1000
,
0010
0010
0010
0000
00M1
0010
0001
1000
,
0001
0000
0000
0000
1100
0000
0000
0000
0101
0000
0000
0001
0000
0000
1000
0000
,
0001
0000
0011
0000
1010
0000
1000
0100
,
0010
0000
0000
0000
1100
0000
0000
0000
0101
0000
0000
0001
0000
0000
1000
0000
,
0010
0000
0110
0000
1001
0000
0001
0010
,
0100
0000
0M01
0100
0010
0000
00M1
0010
,
0100
1000
0001
0000
1001
0000
2000
0000
,
3010
0000
02M0
0000
1300
0000
M010
0100
,
1000
0000
M010
0001
2000
0000
3002
0000
,
1003
0001
0000
0001
,
0000
0000
0010
0000
0000
0000
0010
0100
,
0100
1000
0000
1000
,
0002
0010
2003
3002
,
0103
0000
0001
0000
1000
0100
1000
0000
,
0001
0000
1000
0010
1000
0000
0001
0010
,
0010
0001
0000
2000
,
3001
0200
0020
0000
,
0330
0000
0000
1001
,
1000
0000
0000
0000
1100
0000
0000
0000
0100
0000
0000
0001
0000
0000
0100
0000
,
1000
0000
0000
0000
1010
0000
0000
0000
0010
0000
0000
0001
0000
0000
0010
0000
,
1000
0001
0100
0100
0100
0000
1M00
0001
,
0010
0010
0010
0000
10M0
0001
0001
1000
,
0001
0000
0100
0000
0101
0000
0000
0000
0100
0000
0000
1000
0000
0000
0100
0000
,
0001
0000
0000
0000
0011
0000
0000
0000
0010
0000
0000
1000
0000
0000
0010
0000
,
0001
1000
0100
0100
0100
0000
0M01
1000
,
0010
0000
0010
0000
0010
0000
0000
0000
00M1
0000
0000
0100
0000
0000
0010
0000
,
1000
0000
0000
0000
1002
0000
0000
0000
1003
0000
0000
0100
0000
0000
0010
0000
,
0001
0000
0000
0000
2001
0000
0000
0000
3100
0000
0000
0010
0000
0000
1000
0000
,
0010
0001
0100
0100
0100
0000
0M10
0001
,
1000
0000
1000
0000
1000
0000
0000
0000
0001
0000
0000
0100
0000
0000
0010
0000
,
1000
0000
0100
0000
1200
0000
0000
0000
1300
0000
0000
0010
0000
0000
0100
0000
,
0001
0000
0000
0000
0012
0000
0000
0000
1003
0000
0000
0010
0000
0000
1000
0000
,
0100
1000
0010
0010
0010
0000
01M0
1000
,
0001
0000
0001
0000
0001
0000
0000
0000
010M
0000
0000
1000
0000
0000
0001
0000
;

//---------------dance-single - t7r----------------
#NOTES:
     dance-single:
     t7r:
     Hard:
     14:
     :
0000
0000
0000
0000
,
0000
0000
0000
0000
,
0000
0000
0000
0000
,
0000
0000
0000
0000
,
0011
0000
0000
0000
0101
0000
0000
0000
0101
0000
0000
0101
0000
0000
0001
0000
,
1000
0000
0000
0000
1100
0000
0000
0000
1100
0000
0000
1100
0000
0000
1000
0000
,
0001
0000
0000
0000
0101
0000
0000
0000
0101
0000
0000
0101
0000
0000
0001
0000
,
1000
0000
0000
0000
1010
0000
0000
0000
1010
0000
0000
1000
0001
0000
0010
0000
,
0100
0000
0M01
0100
0010
0000
00M1
0010
,
0100
1000
0010
0000
0110
0000
2000
3200
,
0310
0000
20M0
3020
0130
0000
2M00
3200
,
0310
0000
0000
10M0
0001
0000
0100
0000
0010
1000
0000
0001
1000
0000
0100
0000
,
2000
0000
0000
0000
3020
0000
0000
0000
1030
0000
0000
0001
1000
0000
1000
0000
,
0001
0100
0010
0000
00M2
0023
0230
2300
,
3002
0000
0000
0000
0203
0000
0000
0000
0301
0000
0000
0010
0001
0000
0001
0000
,
1000
0000
0010
0000
0100
0000
0000
0000
1M00
0100
0000
0010
0000
0000
0001
0000
,
2001
0000
0000
0000
3200
0000
0000
0000
1300
0000
0000
0001
0010
0000
0010
0000
,
0001
0000
0100
0000
0010
0000
0000
0000
00M1
1000
0000
0100
1000
0000
0020
0000
,
0000
0000
0031
0000
0010
0000
0010
0000
0100
0000
0000
1M00
0001
0000
0020
0000
,
0000
0000
1030
0000
0010
0100
0000
0000
0010
0001
0000
1000
0000
0000
0001
0010
,
0001
0000
0000
0000
0011
0000
0000
0000
1001
0000
0000
0001
0010
0000
001M
0000
,
1000
0100
0010
0000
20M0
3020
0230
0302
,
1003
0000
0000
0000
1010
0000
0000
0000
1001
0000
0000
1000
0010
0000
M010
0000
,
0001
0000
0100
0000
0010
0000
0000
0000
00M1
0010
0000
0100
0000
1000
0001
0000
,
1001
0000
0000
0000
0101
0000
0000
0000
1001
0000
0000
0001
0100
0000
010M
0000
,
1000
0010
0100
0000
1M00
0100
1000
0020
,
0000
0000
0031
0000
0010
0000
0010
0000
0100
0000
0000
1M00
0001
0000
0020
0000
,
0000
0000
1030
0000
0010
0000
0000
0000
0110
0000
0000
1000
0001
0000
1000
0001
,
1000
0000
0000
0000
1100
0000
0000
0000
1001
0000
0000
1000
0100
0000
M100
0000
,
0001
0000
0000
0000
0101
0000
0000
0000
1001
0000
0000
0001
0100
0000
010M
0000
,
1000
0010
1000
0000
0100
0000
0100
0000
0100
0000
0000
0000
0M01
0010
0001
0000
,
0100
0100
0100
0000
1M00
0001
1001
1000
,
0001
0000
0010
0000
0100
0000
0001
0000
0100
0010
0000
0001
1000
0000
0001
0000
,
1000
0000
0010
0000
0100
0000
1000
0000
0100
0010
0000
1000
0001
0000
1000
0000
,
0001
0100
0001
0000
0010
0000
0010
0000
0010
0000
0000
0000
10M0
0100
1000
0000
,
0010
0000
0010
0000
0010
0000
0000
0000
00M1
1000
0000
0100
2000
0000
0010
0000
,
3002
0000
0000
0103
0010
0000
1000
0000
0002
0000
0000
0013
0100
0000
0002
0003
,
0002
0000
0000
0103
0010
0000
0002
0003
0002
0003
0002
0000
0103
0000
010M
0000
,
1000
0010
1000
0000
0100
0000
0100
0000
0100
0000
0000
0000
0M01
0010
0001
0000
,
0100
0000
0100
0000
0100
0000
0000
0000
1M00
0001
0000
0100
0002
0000
0010
0000
,
2003
0000
3100
0000
0010
0000
0100
0000
2000
0010
0000
3010
0100
0000
2000
3000
,
2000
0000
3100
0000
0010
0000
2000
3001
2000
3000
2000
3001
0010
0000
001M
0000
,
1000
0100
1000
0000
0010
0000
0010
0000
0010
0000
0000
0000
00M1
0100
0001
0000
,
0010
0000
0010
0000
0010
0000
0000
0000
10M0
0100
0000
1000
0001
0000
1000
0001
,
2000
0000
3010
0000
0002
0000
0013
0000
2000
0000
3001
1000
0100
0000
M100
0000
,
0002
0000
0013
0000
2000
0000
3010
0000
0002
0000
1003
0001
0010
0000
001M
0000
,
0200
0000
1300
0000
0200
0000
0310
0000
0200
0000
1300
0100
0010
0000
0M10
0000
,
0200
0000
0301
0000
0200
0000
0310
0000
0200
0000
0301
0100
0010
0000
0M10
0000
,
2000
0000
0000
3001
0100
0000
0010
0000
1000
0000
0000
M100
0001
0000
1000
0000
,
0100
0010
0002
0100
2003
0100
3002
0023
,
0130
0000
0000
0M01
2000
0000
3020
0000
0130
0000
0000
1M00
0002
0000
0203
0000
,
0310
0000
0000
00M1
2000
0000
3200
0000
0310
0000
0001
1000
0020
0000
0000
0000
,
0130
0001
0000
0001
,
0000
0000
1000
0000
0000
0000
1000
0100
,
0100
1000
0000
1000
,
0002
0000
0100
0000
2003
0000
3200
0010
,
0310
0000
0001
0100
0010
0100
0001
0000
,
1000
0100
0010
0100
1000
0001
0100
0010
,
0020
1000
0000
0230
,
0302
0010
2000
0000
,
3003
0000
0000
0000
0000
0000
0000
0000
0000
0000
0000
0001
1000
0000
0001
1000
,
0001
0000
0000
0000
0101
0000
0000
0000
1001
0000
0000
0001
0100
0000
010M
0000
,
1000
0000
0000
0000
1100
0000
0000
0000
1001
0000
0000
1000
0100
0000
M100
0000
,
0001
1000
0100
0000
0010
0000
0010
0000
0010
0000
0000
0000
10M0
0001
0100
0000
,
0010
0000
0010
0000
0010
0000
0000
0000
00M1
0000
1001
0000
1001
0000
1000
0001
,
1000
0000
0100
0000
1100
0000
0000
0000
1001
0000
0000
1000
0010
0000
M010
0000
,
0001
0000
0000
0000
0011
0000
0000
0000
1001
0000
0000
0001
0010
0000
001M
0000
,
1000
0001
0010
0000
0100
0000
0100
0000
0100
0000
0000
0000
0M01
1000
0010
0000
,
0100
0000
0100
0000
0100
0000
0000
0000
10M0
0100
0000
M100
0001
0000
1000
0001
,
0100
0000
0000
0000
2010
0000
0000
0000
3001
0100
0000
010M
1000
0000
0001
1000
,
0100
0000
0000
0000
0012
0000
0000
0000
1003
0100
0000
0010
0001
0000
1000
0000
,
0001
0100
0010
0000
00M1
0000
0001
0000
0001
0000
0000
0000
1000
0100
0010
0000
,
10M0
0000
1000
0000
1000
0000
0000
0000
0001
0010
0000
001M
1000
0000
0100
1000
,
0001
0000
0100
0000
0120
0000
0000
0000
1030
0010
0000
M010
0001
0000
0100
0010
,
1000
0000
0010
0000
0120
0000
0000
0000
0130
0001
0000
1000
0100
0000
1000
0000
,
0001
0100
100M
0000
0001
0000
0001
0000
0001
0000
0000
0000
1000
0100
0001
0000
,
100M
0000
1000
0000
1000
0000
0000
0000
0010
0000
0100
0001
1000
0000
0100
0100
;

//---------------dance-double - t7r----------------
#NOTES:
     dance-double:
     t7r:
     Easy:
     8:
     :
00000000
00000000
00000000
00000000
,
00000000
00000000
00000000
00000000
,
00000000
00000000
00000000
00000000
,
00000000
00000000
00000000
00000000
,
00010000
00010000
00010000
00010000
,
00001000
00001000
00001000
00010000
,
00000100
00000100
00000100
00000100
,
00001000
00001000
00001000
00000001
,
00000100
00000010
00001000
00010000
,
00100000
01000000
01000000
0M020000
,
00130000
00020000
10030000
00200000
,
00310000
00002000
00003200
00000300
,
00000110
00000110
00000001
00000010
,
00000001
00001000
00000200
00020300
,
00031000
00010000
00100000
00100000
,
01000000
00010000
10000000
10000000
,
10010000
10010000
10000000
01000000
,
00100000
00000000
00100000
00000000
00001000
00000000
00000000
00020000
,
00000000
00000000
00031000
00000000
00000100
00000000
00000000
00000002
,
00000000
00000013
00000100
00000000
,
00000110
00000110
00000001
00000100
,
00000001
00001000
00000020
00020030
,
00031000
00010000
01000000
01000000
,
00100000
00010000
10000000
00010000
,
00110000
00110000
10000000
00100000
,
01000000
00000000
01000000
00000000
00001000
00000000
00000000
00020000
,
00000000
00000000
00031000
00000000
00000010
00000000
00000000
00000002
,
00000000
00000103
00000010
00000000
,
00010000
00011000
00001000
00000000
,
00010000
00011000
00100000
00000000
,
10M00000
00000000
01000000
01000000
01000000
00000000
0M010000
00000000
,
00100000
00100000
00100000
00000000
00022000
00000000
00033000
00000000
,
00001000
00011000
00010000
00000000
,
00001000
00011000
00000010
00000000
,
000000M1
00000000
00000100
00000100
00000100
00000000
00001M00
00000000
,
00000010
00000010
00000010
00000000
00010000
00000000
00002000
00000000
,
00013000
00000000
00000000
00000000
00010000
00000000
00000000
01000000
,
01000000
00000000
00000000
10000000
00010000
01000000
00000000
00000000
,
1M000000
00000000
00100000
00100000
00100000
00000000
00M10000
00000000
,
01000000
01000000
01000000
00000000
00000000
00000000
00001000
00010000
,
00001000
00000000
00000000
00000000
00001000
00000000
00000000
00000100
,
00000100
00000000
00000000
00000001
00001000
00000100
00000000
00000000
,
00000M01
00000000
00000010
00000010
00000010
00000000
000010M0
00000000
,
00000100
00000100
00000100
00000000
00000000
00000000
00010000
00000000
,
00011000
00011000
00011000
00010000
,
00011000
00011000
00011000
00000000
,
01010000
01010000
01010000
00010000
,
01010000
01010000
01010000
00000000
,
10000000
01000000
00100000
00010000
,
00001000
00000010
00000010
00002000
,
00003100
00000M20
00001030
0002M000
,
00031000
0000M200
00001300
00000002
,
00000103
00000000
00000000
00000000
,
00001000
00000000
00000000
00000000
00000000
00000000
00000000
00010000
,
00010000
00000000
00000000
00000000
,
01000000
00000000
10000000
00200000
,
01300000
00010000
00000000
00010000
,
00000000
00100000
00000000
00001000
,
00010000
00000000
00000000
00001000
,
00000100
00000001
00000020
00000000
,
00000000
00000000
00000030
00001000
,
00010000
00011000
00001000
00000000
,
00010000
00011000
01000000
00000000
,
1M000000
00000000
00100000
00100000
00100000
00000000
00M10000
00000000
,
01000000
01000000
01000000
00000000
00022000
00000000
00033000
00000000
,
00001000
00011000
00010000
00000000
,
00001000
00011000
00000100
00000000
,
00000M01
00000000
00000010
00000010
00000010
00000000
000010M0
00000000
,
00000100
00000100
00000100
00000000
00010000
00000000
00000000
00000000
,
00000100
00000012
00000103
00000000
,
00001000
00012000
01003000
00000000
,
00010000
00000000
00100000
00100000
00100000
00000000
10M00000
00000000
,
01000000
01000000
01000000
00000000
10000000
00000000
00010000
00000000
,
01000000
20100000
31000000
00000000
,
00010000
00012000
00003010
00000000
,
00000001
00000000
00000100
00000100
00000100
00000000
00001M00
00000000
,
00000010
00000000
00000010
00000000
00000010
00000000
00000000
00000000
00010000
00000000
00000000
00010000
00000000
00000000
00000000
00000000
;

//---------------dance-double - t7r----------------
#NOTES:
     dance-double:
     t7r:
     Medium:
     11:
     :
00000000
00000000
00000000
00000000
,
00000000
00000000
00000000
00000000
,
00000000
00000000
00000000
00000000
,
00000000
00000000
00000000
00000000
,
00010000
00000000
00000000
00000000
00011000
00000000
00000000
00000000
00011000
00000000
00000000
00001000
00000000
00000000
00001000
00000000
,
00010000
00000000
00011000
00000000
00011000
00000000
00010000
00000100
,
00001000
00000000
00000000
00000000
00001001
00000000
00000000
00000000
00001001
00000000
00000000
00000001
00000000
00000000
00000100
00000000
,
00000010
00000000
00001000
00000000
00010000
00000000
10000000
01000000
,
00100000
00000000
00010000
00000000
00001000
00000000
00000010
00000100
,
00000001
00000100
00001000
00020000
,
00030100
00000000
00002M00
00000000
00013000
00000000
010M0000
00100000
,
10000000
00000000
M1000000
00010000
20000000
00000000
30000000
00000000
,
20010000
00000000
00000000
00000000
32000000
00000000
00000000
00000000
03100000
00000000
00000000
00100000
00000000
00000000
00001000
00000000
,
00010000
00001000
00000200
00000302
,
00002003
00000000
00000000
00000000
00003200
00000000
00000000
00000000
00010300
00000000
00000000
00010000
00000000
00000000
00001000
00000000
,
00010000
02000000
13000000
00100000
,
20000000
00000000
00000000
00000000
30020000
00000000
00000000
00000000
00130000
00000000
00000000
00001000
00000000
00000000
00001000
00000000
,
00010000
00000100
00002000
00000000
00003100
00000000
00001000
00000002
,
00000000
00000103
00001000
00000000
00010000
00000000
01000000
00200000
,
00000000
00000000
00310000
00000000
10000000
00000000
00000000
00000000
00100000
00000000
00000000
00100000
00000000
00000000
10000000
00000000
,
00010000
00000000
00000000
00000000
10010000
00000000
00000000
00000000
00010000
00000000
00000000
00100000
00000000
00000000
00001000
00000000
,
00010000
00000010
00002000
00003200
,
00010300
00000000
00000000
00000000
00011000
00000000
00000000
00000000
00001000
00000000
00000000
00010000
00000000
00000000
01000000
00000000
,
10000000
00000000
00000000
00000000
00100000
00000000
00000000
00000000
10000000
00000000
00000000
01000000
00000000
00000000
01000000
00000000
,
00100000
00000000
00110000
00000000
00100000
00001000
00010000
00000000
,
00001000
00000000
00000020
00000000
00000031
00000000
00000100
00000020
,
00000000
00000000
00001030
00000000
00000100
00000000
00000000
00000000
00010000
00000000
00000000
00010000
00000000
00000000
00001000
00000000
,
00010000
01000000
10000000
10100000
,
10000000
00000000
00000000
00000000
11000000
00000000
00000000
00000000
10000000
00000000
00000000
01000000
00000000
00000000
00100000
00000000
,
00001000
00000000
00000000
00000000
00010000
00000000
00000000
00000000
00000010
00000000
00000000
00001000
00000000
00000000
00000000
00000000
,
00000001
00001000
00000100
00000100
00000100
00000000
00000M01
00001000
,
00000010
00000010
00000010
00000000
00001000
00000100
00010000
00000000
,
00001000
00000000
00000100
00000000
00000100
00000000
00000000
00000000
00000001
00000000
00000000
00000010
00000000
00000000
00000100
00000000
,
00010000
00000000
00000000
00000000
00011000
00000000
00000000
00000000
00001000
00000000
00000000
01000000
00000000
00000000
00000000
00000000
,
00010000
10000000
00100000
00100000
00100000
00000000
00M10000
10000000
,
01000000
01000000
01000000
00000000
00100000
00000000
00002000
00000000
,
00023000
00000000
00030100
00000000
00020000
00000000
00031000
00010000
,
00020000
00000000
00030100
00001000
00001000
00001000
00000001
00000000
,
00001000
00000001
00000010
00000010
00000010
00000000
000010M0
00000001
,
00000100
00000100
00000100
00000000
00000001
00000000
00000200
00000000
,
00002300
00010000
00013000
00000000
00002000
00000000
00103000
00001000
,
00002000
00000000
00103000
00010000
00010000
00010000
10000000
01000000
,
10000000
00010000
01000000
01000000
01000000
00000000
1M000000
00010000
,
00100000
00100000
00100000
00000000
00001000
00000000
00010000
00001000
,
00010000
00000000
00000000
00000000
00010100
00000000
00000000
00000000
00001100
00000000
00000000
00001000
00000000
00000000
00000001
00000000
,
00000100
00000000
00001000
00000000
00011000
00000000
00001000
00010000
,
00001000
00000000
00000000
00000000
01001000
00000000
00000000
00000000
01010000
00000000
00000000
00010000
00000000
00000000
10000000
00000000
,
01000000
00000000
00010000
00000000
00001000
00000000
00000010
00000001
,
00000100
00000000
00001000
00010000
00001000
00000000
00100000
00000000
,
01000000
10000000
00010000
00000000
01000000
00000000
00002000
00000000
,
01003000
00000000
0M020000
00000000
00031000
00000000
0000M100
00000010
,
00000001
00000000
0000010M
00001000
00000002
00000000
00000203
00000000
,
00001300
00010000
00000000
00010000
,
00000000
00000000
00000100
00000000
00000000
00000000
00000100
00001000
,
00001000
00000001
00000000
00000001
,
00000020
00000030
00002000
00023000
,
00031000
00000000
00010000
00000000
00100000
01000000
00010000
00000000
,
10000000
00000000
00100000
00000000
01000000
00000000
00010000
10000000
,
10000000
01000000
00000000
00020000
,
00031000
02000000
00020000
00000000
,
03030000
00000000
00000000
10010000
,
10000000
00000000
00000000
00000000
11000000
00000000
00000000
00000000
10000000
00000000
00000000
01000000
00000000
00000000
00010000
00000000
,
00001000
00000000
00000000
00000000
00011000
00000000
00000000
00000000
00001000
00000000
00000000
00000100
00000000
00000000
00000000
00000000
,
00000001
00001000
00000010
00000010
00000010
00000000
000000M1
00001000
,
00000100
00000100
00000100
00000000
00010000
00001000
00000100
00000000
,
00000001
00000000
00000010
00000000
00000011
00000000
00000000
00000000
00000001
00000000
00000000
00000100
00000000
00000000
00001000
00000000
,
00010000
00000000
00000000
00000000
00011000
00000000
00000000
00000000
00010000
00000000
00000000
01000000
00000000
00000000
00000000
00000000
,
10000000
00010000
00100000
00100000
00100000
00000000
10M00000
00010000
,
01000000
00000000
01000000
00000000
01000000
00000000
00000000
00000000
00010000
00000000
00000000
01000000
00000000
00000000
00001000
00000000
,
00010000
00000000
00000000
00000000
00011000
00000000
00000000
00000000
00010000
00000000
00000000
00000100
00000000
00000000
00010000
00000000
,
00001000
00000000
00000000
00000000
00011000
00000000
00000000
00000000
00001000
00000000
00000000
00000010
00000000
00000000
00000000
00000000
,
00000100
00001000
00000010
00000010
00000010
00000000
000001M0
00001000
,
00000001
00000000
00000001
00000000
00000001
00000000
00000000
00000000
00000100
00000000
00000000
00000010
00000000
00000000
00001000
00000000
,
00000100
00000000
00000000
00000000
00011000
00000000
00000000
00000000
01000000
00000000
00000000
00010000
00000000
00000000
00100000
00000000
,
00010000
00000000
00000000
00000000
10010000
00000000
00000000
00000000
10000000
00000000
00000000
00100000
00000000
00000000
00000000
00000000
,
00010000
00000100
00001000
00001000
00001000
00000000
0001M000
00000010
,
00001000
00000000
00001000
00000000
00001000
00000000
00000000
00000000
00000001
00000000
00000000
00001000
00000000
00000000
00010000
00000000
;

//---------------dance-double - t7r----------------
#NOTES:
     dance-double:
     t7r:
     Hard:
     14:
     :
00000000
00000000
00000000
00000000
,
00000000
00000000
00000000
00000000
,
00000000
00000000
00000000
00000000
,
00000000
00000000
00000000
00000000
,
00011000
00000000
00000000
00000000
00010100
00000000
00000000
00000000
00011000
00000000
00000000
00011000
00000000
00000000
00010000
00000000
,
01000000
00000000
00000000
00000000
10000000
00000000
00000000
00000000
00100000
00000000
00000000
00010000
00001000
00000000
00010000
00000000
,
00011000
00000000
00000000
00000000
01001000
00000000
00000000
00000000
00011000
00000000
00000000
00011000
00000000
00000000
00001000
00000000
,
00000100
00000000
00000000
00000000
00000001
00000000
00000000
00000000
00000010
00000000
00000000
00001000
00010000
00000000
00001000
00000000
,
00000100
00000000
00000001
00000010
00001000
00000000
00010000
00100000
,
10000000
01000000
00100000
00000000
01100000
00000000
20000000
30020000
,
00031000
00000000
00000002
00002003
00013000
00000000
20000000
32000000
,
03010000
00000000
00000000
00000000
00002000
00000000
00003200
00000000
00000301
00001000
00000000
00000100
00010000
00000000
00001000
00000000
,
00012000
00000000
00000000
00000000
02003000
00000000
00000000
00000000
03010000
00000000
00000000
00100000
01000000
00000000
01000000
00000000
,
10000000
00010000
00100000
00000000
00002000
00023000
00030020
00002030
,
00003002
00000000
00000000
00000000
00000203
00000000
00000000
00000000
00000301
00000000
00000000
00000010
00000001
00000000
00000001
00000000
,
00000100
00000000
00001000
00000000
00010000
00000000
00000000
00000000
00100000
10000000
00000000
10000000
00000000
00000000
00010000
00000000
,
20010000
00000000
00000000
00000000
32000000
00000000
00000000
00000000
13000000
00000000
00000000
00010000
00100000
00000000
00100000
00000000
,
00001000
00000000
00010000
00000000
00000020
00000000
00000000
00000000
00000130
00000001
00000000
00001000
00000001
00000000
00000020
00000000
,
00000000
00000000
00001030
00000000
00000010
00000000
00000010
00000000
00000100
00000000
00000000
00010000
00001000
00000000
00020000
00000000
,
00000000
00000000
00130000
00000000
01000000
00010000
00000000
00000000
10000000
01000000
00000000
10000000
00000000
00000000
00010000
10000000
,
00010000
00000000
00000000
00000000
01010000
00000000
00000000
00000000
10010000
00000000
00000000
10000000
01000000
00000000
01000000
00000000
,
00010000
00001000
00000100
00000000
00000002
00000023
00000230
00002300
,
00003001
00000000
00000000
00000000
00000011
00000000
00000000
00000000
00001001
00000000
00000000
00000001
00000100
00000000
00000100
00000000
,
00001000
00000000
00010000
00000000
01000000
00000000
00000000
00000000
00100000
00010000
00000000
10000000
00010000
00000000
10000000
00000000
,
10010000
00000000
00000000
00000000
11000000
00000000
00000000
00000000
10010000
00000000
00000000
10000000
00100000
00000000
00100000
00000000
,
00010000
00000000
00001000
00000000
00000010
00000000
00000000
00000000
00000100
00001000
00000000
00000001
00001000
00000000
00000020
00000000
,
00000000
00000000
00000031
00000000
00000010
00000000
00000010
00000000
00000100
00000000
00000000
00000001
00000010
00000000
00001000
00000000
,
00010000
00000000
00000000
00000000
01100000
00000000
00000000
00000000
10010000
00000000
00000000
10000000
01000000
00000000
10000000
00010000
,
10000000
00000000
00000000
00000000
11000000
00000000
00000000
00000000
10010000
00000000
00000000
10000000
01000000
00000000
01000000
00000000
,
00010000
00000000
00000000
00000000
00011000
00000000
00000000
00000000
00010100
00000000
00000000
00000100
00001000
00000000
00001000
00000000
,
00000001
00000010
00000001
00000000
00000100
00000000
00000100
00000000
00000100
00000000
00000000
00000000
00001M00
00000010
00001000
00000000
,
00000100
00000100
00000100
00000000
00010000
00001000
00011000
00001000
,
00000100
00000000
00000001
00000000
00001000
00000000
00000100
00000000
00000010
00000001
00000000
00001000
00000010
00000000
00010000
00000000
,
00001000
00000000
00010000
00000000
01000000
00000000
10000000
00000000
00100000
10000000
00000000
00010000
10000000
00000000
01000000
00000000
,
10000000
00100000
10000000
00000000
01000000
00000000
01000000
00000000
01000000
00000000
00000000
00000000
0M010000
00100000
00010000
00000000
,
01000000
00000000
01000000
00000000
01000000
00000000
00000000
00000000
00001000
00010000
00000000
00001000
00000200
00000000
00000000
00000000
,
00000302
00000000
00000000
00000103
00000010
00000000
00001000
00000000
00020000
00000000
00000000
01030000
00100000
00000000
20000000
00000000
,
30020000
00000000
00000000
00130000
01000000
00000000
00020000
00000000
00032000
00000000
00003100
00000001
00001000
00000000
00000100
00000000
,
00001000
00000010
00001000
00000000
00000100
00000000
00000100
00000000
00000100
00000000
00000000
00000000
00000M01
00000010
00000001
00000000
,
00000100
00000000
00000100
00000000
00000100
00000000
00000000
00000000
00001000
00010000
00000000
01000000
10000000
00000000
00010000
00000000
,
10010000
00000000
10000000
00000000
00100000
00000000
01000000
00000000
10000000
01000000
00000000
00100000
01000000
00000000
00001000
00000000
,
00010000
00000000
00001000
00000000
00000010
00000000
00000100
00000000
00001000
00000010
00000000
00010000
00001000
00000000
01000000
00000000
,
00010000
00100000
00010000
00000000
01000000
00000000
01000000
00000000
01000000
00000000
00000000
00000000
1M000000
00100000
10000000
00000000
,
01000000
00000000
01000000
00000000
01000000
00000000
00000000
00000000
00010000
00001000
00000000
00000100
00000010
00000000
00001000
00000001
,
00002000
00000000
00003100
00000000
00000002
00000000
00000103
00000000
00002000
00000000
00003100
00010000
00000000
00001000
00010000
00000000
,
02000000
00000000
13000000
00000000
02000000
00000000
03010000
00000000
02000000
00000000
03100000
00010000
00000000
10000000
00010000
00000000
,
20000000
00000000
30100000
00000000
00020000
00000000
00130000
00000000
20000000
00000000
31000000
00010000
00000000
00001000
00010000
00000000
,
00002000
00000000
00003010
00000000
00000002
00000000
00000013
00000000
00000200
00000000
00000310
00000001
00001000
00000000
00000001
00000000
,
00000200
00000000
00000000
00001300
00010000
00000000
00000100
00000000
00002000
00000000
00000000
00003001
00000100
00000000
00001000
00000000
,
00010000
00100000
20000000
01000000
30020000
01000000
20030000
30020000
,
00130000
00000000
00000000
00001000
00020000
00000000
00030020
00000000
00001030
00000000
00000000
00000001
00000020
00000000
00000230
00000000
,
00001300
00000000
00000000
00010000
00200000
00000000
02300000
00000000
13000000
00000000
00010000
01000000
00002000
00000000
00000000
00000000
,
00013000
00001000
00000000
00001000
,
00000000
00000000
01000000
00000000
00000000
00000000
01000000
00010000
,
00010000
10000000
00000000
10000000
,
00020000
00000000
00030000
00000000
00002000
00000000
00003002
00000010
,
00000013
00000000
00000001
00000100
00000010
00000100
00000001
00000000
,
00001000
00000100
00000010
00000100
00010000
00000000
00001000
00010000
,
00020000
01030000
00000000
02000000
,
03100000
00002000
00020000
00000000
,
00033000
00000000
00000000
00000000
00000000
00000000
00000000
00000000
00000000
00000000
00000000
00001000
00010000
00000000
00001000
00010000
,
00001000
00000000
00000000
00000000
00011000
00000000
00000000
00000000
00010100
00000000
00000000
00010000
00001000
00000000
00000100
00000000
,
00000001
00000000
00000000
00000000
00001001
00000000
00000000
00000000
00000011
00000000
00000000
00000001
00000010
00000000
00001000
00000000
,
00010000
00001000
00010000
00000000
01000000
00000000
01000000
00000000
01000000
00000000
00000000
00000000
0M001000
00010000
00001000
00000000
,
00000100
00000100
00000100
00000000
00000001
00001001
00001001
00000001
,
00001000
00000000
00000100
00000000
00010100
00000000
00000000
00000000
00011000
00000000
00000000
00010000
01000000
00000000
10000000
00000000
,
00100000
00000000
00000000
00000000
10100000
00000000
00000000
00000000
10010000
00000000
00000000
10000000
00100000
00000000
00010000
00000000
,
00001000
00010000
00001000
00000000
00000010
00000000
00000010
00000000
00000010
00000000
00000000
00000000
000100M0
00001000
00010000
00000000
,
00100000
00000000
00100000
00000000
00100000
00000000
00000000
00000000
10000000
01000000
00000000
00100000
00010000
00000000
00001000
00000000
,
00000100
00000000
00000000
00000000
00002010
00000000
00000000
00000000
00003001
00000100
00000000
00000010
00001000
00000000
00010000
00000000
,
01000000
00000000
00000000
00000000
20100000
00000000
00000000
00000000
30010000
00100000
00000000
00001000
00010000
00000000
00000010
00000000
,
00001000
00000001
00000100
00000000
00001000
00000000
00001000
00000000
00001000
00000000
00000000
00000000
0000M100
00010000
00001000
00000000
,
01000000
00000000
01000000
00000000
01000000
00000000
00000000
00000000
1M000000
00100000
00000000
00100000
00010000
00000000
00001000
00000000
,
00000100
00000000
00000001
00000000
00000021
00000000
00000000
00000000
00000031
00000010
00000000
00000010
00001000
00000000
00010000
00000000
,
01000000
00000000
10000000
00000000
10200000
00000000
00000000
00000000
10300000
01000000
00000000
00100000
00001000
00000000
00010000
00000000
,
00000001
00000100
00001000
00000000
00010000
00000000
00010000
00000000
00010000
00000000
00000000
00000000
100M0000
01000000
00010000
00000000
,
00001000
00000000
00001000
00000000
00001000
00000000
00000000
00000000
0000M001
00000010
00000000
00001000
00010000
00000000
00001000
00001000
;
