#VERSION:0.83;
#TITLE:En FIRE-G SOUL;
#SUBTITLE:;
#ARTIST:Yooh;
#TITLETRANSLIT:;
#SUBTITLETRANSLIT:;
#ARTISTTRANSLIT:;
#GENRE:;
#CREDIT:;
#MUSIC:En FIRE-G SOUL.ogg;
#BANNER:En FIRE-G SOUL.png;
#BACKGROUND:En FIRE-G SOUL-bg.png;
#JACKET:En FIRE-G SOUL-jacket.png;
#CDTITLE:cdtitle.png;
#SAMPLESTART:85.333;
#SAMPLELENGTH:10.667;
#SELECTABLE:YES;
#OFFSET:0.000;
#BPMS:0.000=180.000;
#STOPS:;
#BGCHANGES:;
#FGCHANGES:;

//--------------- dance-single - Cremie ----------------
#NOTEDATA:;
#STEPSTYPE:dance-single;
#DESCRIPTION:Cremie;
#CREDIT:Cremie;
#DIFFICULTY:Beginner;
#METER:4;
#RADARVALUES:0,0,0,0,0;
#NOTES:
0000
0000
0000
0000
,
0000
0000
0000
0000
,
0000
0000
0000
0000
,
0000
0000
0000
0000
,
0000
0000
0000
0000
,
1000
0000
0000
0000
,
0000
0000
0000
0000
,
1000
0000
0000
0000
,
0001
0000
0000
0000
,
0100
0000
0000
0000
,
0001
0000
0000
0000
,
0010
0000
0000
0000
,
0001
0000
0000
0000
,
0100
0000
0000
0000
,
0010
0000
0000
0000
,
1000
0000
0000
0000
,
1001
0000
0000
0000
,
0001
0000
0001
0000
,
0001
0000
0000
0000
,
0010
0000
0010
0000
,
0010
0000
0000
0000
,
0100
0000
0100
0000
,
0100
0000
0000
0000
,
1000
0000
0001
0000
,
1001
0000
0000
0000
,
0001
0000
0001
0000
,
0001
0000
0000
0000
,
1000
0000
1000
0000
,
1000
0000
0000
0000
,
0010
0000
0100
0000
,
0220
0000
0330
0000
,
0001
1000
0001
0000
,
1000
0000
0000
0000
,
0100
0000
0000
0000
,
1000
0000
1000
0000
,
0010
0010
0010
0000
,
0100
0000
0000
0000
,
0001
0000
0000
0000
,
0010
0000
0000
0000
,
0000
0000
0000
0000
,
0100
0100
0100
0000
,
1000
1000
1000
0000
,
0010
0010
0010
0000
,
0100
0100
0100
0000
,
0010
1000
0010
0000
,
1000
0100
1000
0000
,
0010
0100
0010
0000
,
1000
0001
1000
0000
,
0002
0000
0103
0000
,
0100
0010
0010
0000
,
0020
0000
1030
0000
,
1000
0100
0100
0000
,
0200
0000
0310
0000
,
0010
0001
0001
0000
,
0002
0000
0103
0000
,
0001
0001
0001
0000
,
1001
0000
0000
0000
,
0000
0000
0000
0000
,
0000
0000
0000
0000
,
0000
0000
0000
0000
,
0020
0000
0000
0000
,
0230
0000
0000
0000
,
0301
0001
0010
0010
,
0100
0100
1000
1000
,
0010
0000
1000
0000
,
0001
0001
0100
0100
,
0001
0000
1000
0000
,
0100
0100
0010
0010
,
0001
0000
0100
0000
,
0001
0001
0010
0010
,
0200
0000
0000
0000
,
1300
1000
0010
0010
,
1000
0000
0001
0000
,
0100
0100
0010
0010
,
0100
0000
0001
0000
,
0010
0010
0100
0100
,
1000
0000
0000
0000
,
0001
0000
0000
0000
,
1000
0000
0010
0000
,
0200
0000
0000
0000
,
0301
0001
1000
1000
,
2002
0000
0000
0000
,
0000
0000
3003
0000
;

//--------------- dance-single - MEGAtive ----------------
#NOTEDATA:;
#STEPSTYPE:dance-single;
#DESCRIPTION:MEGAtive;
#CREDIT:MEGAtive;
#DIFFICULTY:Easy;
#METER:6;
#RADARVALUES:0,0,0,0,0;
#NOTES:
0000
0000
0000
0000
,
0000
0000
0000
0000
,
0000
0000
0000
0000
,
0000
0000
0000
0000
,
0000
0000
0000
0000
,
1002
0000
0000
0000
,
0023
0000
0000
0000
,
0130
0000
0000
0000
,
1000
0010
0000
0001
,
0010
0100
0000
0001
,
0010
0100
0000
0001
,
0100
1000
0000
0001
,
0100
0010
0000
0001
,
0010
1000
0000
0001
,
0010
0100
0000
0001
,
0200
0000
2300
0000
,
3001
0010
0000
1000
,
0010
0001
0000
1000
,
0010
0100
0000
1000
,
0100
0001
0000
1000
,
0100
0010
0000
1000
,
0010
0001
0000
1000
,
1001
0000
1001
0000
,
0001
0100
0010
1000
,
0001
0001
0001
0000
,
1000
0100
0001
0100
,
1000
0000
0010
0000
,
0100
0000
0001
0000
,
1000
1000
1000
0000
,
0001
0100
1000
0100
,
0001
0000
1001
0000
,
2000
3200
0320
0032
,
1003
0000
0000
0000
,
1001
0000
0000
0000
,
1001
0000
0110
0000
,
1001
0001
0100
0010
,
1000
1000
0001
0000
,
0010
0010
0100
0000
,
1001
0000
0000
0000
,
0000
0000
0000
0000
,
1000
0100
0010
0001
,
0100
0000
0100
0000
,
0010
0100
0001
0010
,
0100
0000
0200
0000
,
1300
0001
0100
0010
,
1000
0000
1000
0000
,
0010
1000
0001
0010
,
0100
0000
0100
0000
,
1000
1000
0001
0010
,
1000
0000
0010
0000
,
0001
0001
1000
0010
,
0001
0000
0010
0000
,
1000
1000
0001
0100
,
1000
0000
0100
0000
,
0001
0001
1000
0100
,
0001
0000
0200
0300
,
2001
0000
0000
0000
,
0000
0000
0000
0000
,
0000
0000
0000
0000
,
0000
0000
0000
0000
,
0002
0000
0000
0000
,
0000
0000
3003
0000
,
0001
0001
0001
0001
,
1000
0100
0010
0001
,
1000
0010
0100
0001
,
0100
0000
0100
0000
,
0001
0010
0100
1000
,
0100
0000
0100
0000
,
0010
0001
1000
0001
,
0100
0000
0100
0000
,
0200
0000
0010
0000
,
0302
0000
1000
0000
,
1003
0100
1000
0001
,
0010
0000
0010
0000
,
0100
1000
0001
0100
,
0010
0000
0010
0000
,
2002
3003
0000
0000
,
2002
3003
0000
0000
,
1001
0000
1001
0000
,
0001
0010
0001
0010
,
0100
1000
0100
1000
,
0002
0000
0000
0000
,
0003
0000
1001
0000
;

//--------------- dance-single - Cremie ----------------
#NOTEDATA:;
#STEPSTYPE:dance-single;
#DESCRIPTION:Cremie;
#CREDIT:Cremie;
#DIFFICULTY:Medium;
#METER:10;
#RADARVALUES:0,0,0,0,0;
#NOTES:
0000
0000
0000
0000
,
0000
0000
0000
0000
,
0000
0000
0000
0000
,
0000
0000
0000
0000
,
0000
0000
0000
0000
,
2000
0100
0100
3100
,
0002
0100
0100
0103
,
1001
0000
0000
0000
,
0001
0000
0100
0010
0000
1000
0000
0010
,
0100
0000
0001
0010
0000
0100
0000
0010
,
0001
0000
1000
0010
0000
0100
0000
0010
,
1000
0000
0100
0010
0000
0001
0000
1000
,
0001
0000
0100
0010
0000
0001
0000
0010
,
1000
0000
0100
0010
0000
1000
0000
0010
,
0001
0000
1000
0100
0000
0010
0100
0000
,
0010
0000
0001
0100
0000
0010
1000
0000
,
0010
0000
0100
0000
0001
1000
0100
0000
,
0010
0000
0100
0000
1000
0001
0100
0000
,
0001
0000
0010
0000
0100
1000
0001
0000
,
1000
0001
0100
0001
1000
0000
1001
0000
,
0001
0000
0010
0000
1000
0100
0001
0000
,
1000
0000
0100
0000
0001
0010
1000
0000
,
1010
0000
0011
0000
,
0001
0100
0001
1000
0001
0000
1001
0000
,
2000
0100
0001
3010
,
0100
0001
0100
0010
1000
0000
1001
0000
,
0002
0010
1000
0103
,
0110
0000
0010
1000
0001
0000
1001
0000
,
2000
0100
0001
3010
,
0002
0100
1000
0013
,
0011
0000
1010
0000
,
2000
3200
0302
0023
,
1030
0000
0000
0000
,
1100
0000
0000
0000
,
1010
0000
0011
0000
,
0002
0203
2300
3020
,
0031
0000
0100
0001
0010
0000
1100
0000
,
1000
0000
0100
1000
0010
0000
0101
0000
,
2002
0000
0000
0000
,
3003
0000
0000
0000
,
0001
0000
0100
0001
0010
0000
0001
0100
,
0010
0000
1000
0100
0010
0000
0110
0000
,
0010
0000
0001
1000
0010
0000
1000
0001
,
0010
0000
0100
1000
0001
0000
1001
0000
,
1000
0000
0001
0100
0010
0000
1000
0100
,
0010
0000
0001
1000
0010
0000
0110
0000
,
0010
0000
1000
0001
0010
0000
0100
1000
,
0100
0000
0010
0001
0100
0000
0110
0000
,
0020
0000
2030
0000
3100
0010
0100
0000
,
0010
0001
0010
0000
0001
0000
1001
0000
,
2000
0000
3020
0000
0130
0001
0010
0000
,
1100
1010
0101
0011
,
0002
0000
2003
0000
3100
0010
0001
0000
,
0010
0100
1000
0000
1010
0000
1100
0000
,
0200
0000
0320
0000
0031
1000
0001
0000
,
0100
0010
0100
0010
1000
0001
1000
0000
,
1001
0000
0000
0000
,
0000
0000
0000
0000
,
0000
0000
0000
0000
,
0000
0000
0000
0000
,
0002
0000
0000
0000
,
2000
0000
0000
3003
,
0001
0011
1000
1010
,
2000
3020
0032
0203
,
0310
0000
0001
1000
0100
0000
0110
0000
,
0020
0032
2003
3020
,
0130
0000
0001
1000
0100
0000
0110
0000
,
0200
2300
3020
0230
,
1300
0000
0100
0001
0010
0000
0011
0000
,
0002
0000
2003
0000
3100
0010
0100
0000
,
0020
1000
0100
0031
,
0100
0010
0100
0010
0100
0000
1001
0000
,
0001
0000
0010
0100
1000
0000
1010
0000
,
0020
2030
3002
0023
,
0031
0000
0100
0001
0010
0000
0110
0000
,
0200
0320
0032
2003
,
3010
0000
0000
0000
,
0101
0000
0000
0000
,
1001
0000
1010
1100
,
2002
0000
0000
3003
,
0001
0100
0001
0100
0010
1000
0010
0000
,
1001
0000
0000
0000
,
0000
0000
0011
0000
;

//--------------- dance-single - MEGAmiru ----------------
#NOTEDATA:;
#STEPSTYPE:dance-single;
#DESCRIPTION:MEGAmiru;
#CREDIT:MEGAmiru;
#DIFFICULTY:Hard;
#METER:13;
#RADARVALUES:0,0,0,0,0;
#NOTES:
0000
0000
0000
0000
,
0000
0000
0000
0000
,
0000
0000
0000
0000
,
0000
0000
0000
0000
,
0000
0000
0000
0000
,
2001
0100
0001
3010
,
1002
0100
1000
0013
,
2001
0000
0000
3100
,
1001
0000
1000
0100
0000
0110
0000
0100
,
0010
0000
1000
0010
0000
0011
0000
0010
,
0001
0000
0100
0010
0000
1010
0000
0010
,
0001
0000
0020
1000
0000
0001
0000
0130
,
0001
0000
1000
0100
0000
0110
0000
0010
,
0001
0000
0010
1000
0000
1010
0000
0010
,
0100
0000
1000
0010
0000
0100
0010
0000
,
0101
0000
0001
0010
0000
0100
1000
0000
,
1010
0000
1000
0100
0001
0000
0110
0000
,
1100
0000
0001
0100
1000
0000
0110
0000
,
0101
0000
0001
0010
1000
0000
0110
0000
,
0100
0100
1000
0010
0100
0000
1001
0000
,
0001
0000
1000
0010
0001
0000
1010
0000
,
1001
0000
1000
0100
0001
0000
1100
0000
,
0220
0330
0000
0000
2002
3003
0000
0000
,
0001
0010
1000
0010
0001
0000
1001
0000
,
1100
0000
0001
0100
1000
0000
0110
0000
,
0100
0001
0010
1000
0010
0000
0110
0000
,
0100
1000
0001
0100
1000
0000
0110
0000
,
0102
0000
1000
1000
1000
0000
0010
0000
,
1003
0000
0001
0010
1000
0000
0110
0000
,
0100
0010
0001
0100
1000
0000
0110
0000
,
2020
3030
0022
0033
,
0001
0000
0001
0100
0000
0100
0010
0000
0010
2000
0000
0000
,
3001
0000
0000
0000
,
0022
0033
0000
0000
0000
0000
0000
0000
,
2200
3300
0000
0000
2002
3003
0000
0000
,
0101
0110
1010
1001
,
0001
1000
0010
0100
1000
0000
0101
0000
,
0100
0001
1000
0100
0001
0000
1100
0000
,
2002
0000
0000
0000
,
3003
0000
0000
0000
,
1001
0000
0000
0001
1000
0000
0100
0000
0010
0000
0000
0010
0100
0000
1000
0000
,
0010
0000
0000
0010
1000
0000
0100
0000
0010
0000
0000
0000
1002
0000
0000
0000
,
0013
0000
0000
0010
0001
0000
0100
0000
0010
0000
0000
0010
0100
0000
0001
0000
,
0010
0000
0000
0010
0001
0000
0100
0000
0020
0000
1000
0000
0230
0000
0000
0000
,
0301
0000
0000
0001
1000
0000
0100
0000
0010
0000
0000
0010
0001
0000
0100
0000
,
0010
0000
0000
0010
1000
0000
0100
0000
0010
0000
0000
0000
1200
0000
0000
0000
,
0310
0000
0000
0010
0100
0000
1000
0000
0001
0000
0000
0001
0100
0000
0010
0000
,
1000
0100
0001
1000
0010
0001
1000
0000
,
1010
0000
0101
0000
0001
0100
0010
0001
,
1000
0100
0010
1000
0100
0010
0110
0000
,
0011
0000
1100
0000
1000
0001
0100
1000
,
1100
0000
0102
0000
0010
0010
0013
0000
,
1100
0000
1001
0000
0001
0010
1000
0100
,
1000
0010
0001
0100
0010
1000
1100
0000
,
1001
0000
0011
0000
0010
0001
1000
0010
,
0200
1000
0320
0001
0130
0001
1000
0000
,
1001
0000
0000
0000
,
0000
0000
0000
0000
,
0000
0000
0000
0000
,
0000
0000
0000
0000
,
0002
0000
0000
0000
,
0200
0000
0000
0303
,
1001
0110
1001
0110
,
1000
0000
1000
0010
0000
0010
0100
0000
0100
0001
0000
0000
,
1001
0000
0001
0010
0001
0000
0010
0000
0200
0000
0000
0000
0001
0000
0000
0000
,
0320
1000
0032
0100
,
1003
0000
0010
1000
0010
0000
0100
0000
0002
0000
0000
0000
1000
0000
0000
0000
,
0023
0100
0032
1000
,
0103
0000
0010
1000
0010
0000
0100
0000
0002
0000
0000
0000
1000
0000
0000
0000
,
0023
0000
1000
0000
0130
1000
0100
0010
,
0200
0001
0010
1300
,
0001
0100
1000
0100
0010
1000
0001
0000
,
0010
0000
0001
1000
0001
0000
0010
0000
0200
0000
0000
0000
0001
0000
0000
0000
,
0320
0001
0230
1000
,
0310
0000
0001
1000
0001
0000
0100
0000
0020
0000
0000
0000
0001
0000
0000
0000
,
0230
0000
1000
0000
0302
0000
1000
0003
,
2200
3300
0000
0000
0000
0000
0000
0000
,
2002
3003
0000
0000
0000
0000
0000
0000
,
2020
3030
0000
0000
0101
0000
1001
0000
,
0001
0010
1000
0010
0100
0001
0100
1000
,
0001
0100
1000
0100
0010
0001
1000
0100
,
0002
0000
0000
0000
,
0003
0000
1100
0000
;

//--------------- dance-single - MEGAmiru ----------------
#NOTEDATA:;
#STEPSTYPE:dance-single;
#DESCRIPTION:MEGAmiru;
#CREDIT:MEGAmiru;
#DIFFICULTY:Challenge;
#METER:16;
#RADARVALUES:0,0,0,0,0;
#NOTES:
0000
0000
0000
0000
,
0000
0000
0000
0000
,
0000
0000
0000
0000
,
0000
0000
0000
0000
,
0000
0000
0000
0000
,
1000
0000
0100
0010
0100
0000
1000
0000
1010
0000
0000
0000
0101
0000
0000
0000
,
0001
0000
0010
0100
0010
0000
0001
0000
0101
0000
0000
0000
1010
0000
0000
0000
,
1001
0000
0000
0000
0000
0000
0000
0000
0000
0000
1000
0001
0100
0000
0100
0000
,
0010
1000
0010
0002
0000
0013
0100
1000
,
0100
0000
0001
0000
0010
0000
2000
0000
0000
0000
3010
0000
0100
0000
1000
0001
,
0100
0010
0100
2000
0000
3100
0010
0001
,
0010
1000
0100
0001
0100
0010
0100
1000
,
1000
0010
0100
2000
0000
3100
0010
0001
,
0010
0000
1000
0000
0100
0000
0002
0000
0000
0000
0103
0000
0010
0000
0001
1000
,
0010
0100
0010
0002
0000
0013
0100
1000
,
0100
0000
0100
0000
0001
0000
0001
0000
0010
0100
0000
0010
0001
0000
1000
0100
,
0010
0000
0001
0000
1000
0100
1000
0000
0020
0000
0100
0000
2030
0000
0001
0000
,
3100
0000
0010
0000
0001
0100
0010
0000
0001
0000
0010
0000
1000
0000
0000
0000
,
0100
0000
0010
0000
0001
0010
0001
0000
0200
0000
0010
0000
0302
0000
1000
0000
,
0013
0000
0100
0000
1000
0010
0100
0000
1000
0000
0100
0000
0001
0000
0000
0000
,
0010
0000
0100
0000
1000
0001
0100
0000
0020
0000
0001
0000
2030
0000
0100
0000
,
3001
0000
1000
0000
0010
1000
0001
1000
0100
0000
0010
0000
1001
0000
0000
0000
,
0011
0000
0001
1000
0010
0000
0000
0000
1000
0001
1000
0001
0010
0000
0000
0000
,
0100
1000
0001
1000
0010
0000
0001
0010
1000
0000
0000
0000
1001
0000
0000
0000
,
0001
0000
1000
0100
1000
0000
0100
0000
0001
0000
0000
0000
0110
0000
0000
0000
,
0100
0000
0010
0001
1000
0000
0010
0000
0001
0000
0000
0000
0110
0000
0000
0000
,
0010
1000
0001
1000
0100
0000
0010
0000
1000
0000
0010
0000
0001
0000
0010
0000
,
0200
0000
0301
0100
1000
0010
0200
0000
,
1300
0000
0100
0001
0100
0000
0010
0000
2000
0000
0001
0000
3200
0000
0010
0000
,
1300
0001
1000
0100
0010
0000
1000
0000
0010
0000
0000
0000
0110
0000
0000
0000
,
2002
3003
0202
0303
,
0001
0000
0100
0000
0010
0000
0001
0000
0010
0000
1000
0000
0001
0000
0010
0000
1000
0000
0020
0000
0000
0030
0000
0000
,
2002
3003
0000
0000
,
0220
0330
0000
0000
,
2002
3003
0022
0033
,
1010
0110
1010
1001
,
0001
0000
0010
0100
1000
0000
0001
0000
1010
0000
0000
0000
0101
0000
0000
0000
,
1000
0000
0001
0100
0010
0000
1000
0000
0011
0000
0000
0000
1100
0000
0000
0000
,
2002
0000
3003
0000
0000
0000
1000
0100
2000
0000
0000
0000
3200
0000
0000
0000
,
0302
0000
0000
1003
0020
0000
0230
0000
,
1300
0000
0000
0001
0200
0000
1000
0000
0310
0000
0000
1000
0200
0000
0001
0000
,
0310
0000
0000
0001
0200
0000
1000
0000
0310
0000
0000
1000
0100
0000
0000
0000
,
1000
0000
0000
0001
0020
0000
1000
0000
0130
0000
0000
1000
0020
0000
0001
0000
,
0130
0000
0000
0001
0020
0000
1000
0000
0130
1000
0000
0000
0001
0100
0000
0000
,
0010
0000
0000
0100
0020
0000
0001
0000
1030
0000
0000
0100
0020
0000
1000
0000
,
0031
0000
0000
0100
0020
0000
0001
0000
1030
0000
0000
0100
0010
0000
0000
0000
,
0001
0000
0000
0010
0200
0000
0001
0000
1300
0000
0000
0010
0200
0000
1000
0000
,
0301
0000
0001
0010
0001
0000
1000
0000
0001
0100
0001
1000
0100
0000
0010
0001
,
2000
0000
0010
0000
3002
0000
0000
0000
0013
0M00
0010
0000
0100
0001
0100
0000
,
0010
0M00
0010
0000
0100
1000
0100
0000
0010
0001
1000
0001
0200
0000
0300
0000
,
0020
0000
0100
0000
2030
0000
0000
0000
3010
M000
0010
0000
0100
1000
0100
0000
,
0012
0000
1003
0000
0201
0000
0000
0000
0310
1000
0001
1000
0010
0000
0100
0000
,
0002
0000
0010
0000
2003
0000
0000
0000
3100
M000
0100
0000
0010
1000
0010
0000
,
0100
0000
1000
0000
0100
0000
0001
0000
0010
0000
0100
1000
0200
0000
0300
0000
,
0020
0001
0230
0000
0310
0001
1001
0000
,
1000
0010
1000
0000
0001
0010
0001
0000
1000
0010
0100
0010
0001
0000
0000
0000
,
0110
0000
0000
0000
,
0000
0000
0000
0000
,
0000
0000
0000
0000
,
0000
0000
0000
0000
,
2000
0000
0000
0000
,
0002
0000
0000
3003
,
1001
0011
1001
1010
,
1000
0010
0001
0010
0100
0001
0010
1000
0010
0001
0000
0000
,
1100
0000
0001
0010
0001
0000
1000
0000
0101
0000
0010
0000
0101
0000
0000
0000
,
1100
0010
1100
0000
0101
0010
1001
0000
,
1000
0000
0010
0100
0001
0000
1000
0000
0011
0000
0100
0000
0011
0000
0000
0000
,
1010
0100
1010
0000
0011
0100
1001
0001
,
0101
0000
0100
0010
0100
0000
0001
0000
1100
0000
0010
0000
1100
0000
0000
0000
,
0101
0010
0101
0000
1001
0010
1001
0000
,
0011
0100
1000
0010
0001
0010
0100
0001
,
1000
0000
1000
0000
0100
0000
0100
0000
0010
0001
0100
0000
0010
0000
0010
0000
,
0101
0000
1000
0010
1000
0000
0001
0000
1100
0000
0010
0000
1100
0000
0000
0000
,
0101
0010
0101
0000
1100
0010
1001
0000
,
0001
0000
1000
0100
0010
0000
0001
0000
1010
0000
0100
0000
1010
0000
0000
0000
,
0011
0100
0011
0000
1010
0100
1001
1000
,
2200
3300
0000
0000
0000
0000
0000
0000
,
2002
3003
0000
0000
0000
0000
0000
0000
,
0202
0303
0000
0000
0220
0330
2002
3003
,
0001
0010
0100
0000
0010
0001
1000
0000
0001
0100
0010
0000
0100
0001
1000
0000
,
0100
0010
0001
1000
0010
1000
0001
1000
0100
0010
0100
0010
0001
1000
0010
0100
,
2000
0000
0000
0000
,
3000
0000
0101
0000
;
