#TITLE:EXiSTENCE;
#SUBTITLE:;
#ARTIST:SiM;
#TITLETRANSLIT:;
#SUBTITLETRANSLIT:;
#ARTISTTRANSLIT:;
#GENRE:;
#CREDIT:;
#BANNER:EXiSTENCE.png;
#BACKGROUND:EXiSTENCE-bg.png;
#LYRICSPATH:EXiSTENCE.lrc;
#CDTITLE:;
#MUSIC:EXiSTENCE.ogg;
#OFFSET:-0.029000;
#SAMPLESTART:63.847984;
#SAMPLELENGTH:12.000000;
#SELECTABLE:YES;
#BPMS:0.000000=188.000000
,104.000000=94.000000
,108.000000=188.000000
,116.000000=94.000000
,120.000000=188.000000
;
#STOPS:254.000000=0.319000
;
#BGCHANGES:0.000=EXiSTENCE.mp4=1.000=0=0=0=StretchNoLoop====,
99999=-nosongbg-=1.000=0=0=0 // don't automatically add -songbackground-
;
#KEYSOUNDS:;
#ATTACKS:;

//---------------dance-single - ----------------
#NOTES:
     dance-single:
     :
     Medium:
     9:
     0.483917,0.554115,0.376380,0.752760,0.015683,324.000000,288.000000,36.000000,72.000000,0.000000,0.000000,0.483917,0.554115,0.376380,0.752760,0.015683,324.000000,288.000000,36.000000,72.000000,0.000000,0.000000:
0000
0000
0000
0000
,
0000
0000
0000
0000
,
0000
0000
0000
0000
,
0000
0000
0000
0000
,
1100
0000
0000
1100
0000
0000
0001
0000
,
0101
0000
0000
0101
0000
0000
1000
0000
,
2001
0000
3010
0100
0010
0100
0010
0100
,
0002
2003
3001
0000
,
1000
0100
2000
0000
3002
0000
1003
0100
,
2000
3002
1003
1001
,
0001
0100
0002
0000
2003
0000
3001
0100
,
0002
0000
0013
0100
0010
0100
0010
0000
,
0100
1000
0200
0000
0320
0000
0130
1000
,
0200
2300
3031
1001
,
0301
0100
0020
0000
0230
0000
0301
1000
,
0100
0000
0000
0000
1000
0002
0000
0000
,
0013
0000
0110
0000
,
0100
0000
0000
0000
1000
0001
0000
1000
,
0000
0001
0100
0000
0010
0000
1000
0000
,
0001
0010
0100
0000
1000
3002
0000
0000
,
1003
0000
1001
0000
,
0001
0000
0000
0000
1000
0100
0000
0100
,
0000
1000
0010
0000
0100
0000
0001
0000
,
0101
0000
0000
0110
0000
0000
2020
0000
,
0000
0000
0000
3030
,
0001
0000
1000
0000
0001
0010
0100
0000
,
1001
0000
0000
0000
,
2000
0000
3100
0010
0002
0000
2003
0000
,
3020
0000
0130
0001
2000
0000
3002
0000
,
0013
0100
0000
0100
0000
1000
0000
0001
,
0200
0000
0301
0010
0200
0000
2300
0000
,
3002
0000
1003
0010
0200
0000
0302
0000
,
1003
0100
1000
0000
0001
0100
0001
0000
,
1000
1010
0001
0011
,
0001
0100
0001
0000
1000
0100
1300
0000
,
0001
0101
1000
1010
,
0002
0000
0013
0100
2000
0000
3001
0000
,
1010
0110
0101
1001
,
2000
0000
3100
0010
0002
0000
1003
0000
,
0101
0110
1010
1001
,
2000
0000
3100
0000
,
1000
0010
0100
0000
,
0001
0100
0001
0000
1000
0100
1000
0000
,
0001
0010
0100
1000
,
0002
0000
0103
0000
,
0001
0100
0010
0000
,
1000
0001
1000
0001
0020
0000
0230
0000
,
1300
0000
0001
0000
1000
0000
0001
0000
0000
0000
0000
0000
,
2001
0001
0010
3010
,
1000
0000
0010
0100
0001
0000
0000
0000
,
1002
1000
0100
0103
,
0001
0000
0100
0010
2000
0000
3002
0000
,
0003
1100
0001
1000
,
0010
0100
0000
0100
0002
0000
1003
0000
,
0001
0000
1000
0100
0000
0100
0020
0000
,
0031
0100
0000
0100
0020
0000
0130
0000
,
1001
0000
0000
1001
0000
0000
0001
0010
,
0200
2300
3002
1003
,
1001
0000
0000
1001
0000
0000
1000
0100
,
0020
0032
2003
3001
,
1001
0000
0000
1001
0000
0000
0002
0000
,
0013
0100
0020
0000
0230
0000
2300
0000
,
3020
0000
0000
0000
1033
0001
1000
0001
,
0200
0000
0000
0000
0310
0000
1000
0001
,
2000
0000
3020
0000
1033
0001
2000
0000
,
3020
0000
1033
0000
1001
0000
0001
1000
,
0002
0000
0203
0000
3301
1000
0002
0000
,
0013
0100
0010
0100
0010
0000
0001
0010
,
0002
0000
2003
0000
3001
0010
0002
0000
,
2003
0000
3020
0000
0230
0000
0301
1000
,
0001
0000
0000
1001
0000
0000
0010
0000
0310
0000
0000
0000
;

//---------------dance-single - ----------------
#NOTES:
     dance-single:
     :
     Challenge:
     14:
     0.722889,0.738820,0.386835,0.470475,0.261375,484.000000,447.000000,37.000000,45.000000,0.000000,0.000000,0.722889,0.738820,0.386835,0.470475,0.261375,484.000000,447.000000,37.000000,45.000000,0.000000,0.000000:
// measure 0
0000
0000
0000
0000
,  // measure 1
0000
0000
0000
0000
,  // measure 2
0000
0000
0000
0000
,  // measure 3
0000
0000
0000
0000
,  // measure 4
0001
0100
0100
0001
1000
1000
0020
0000
,  // measure 5
1330
0000
0100
0000
0100
0000
1000
0000
0001
0000
0001
0000
0010
0000
0100
1000
,  // measure 6
0001
0000
1000
0100
0001
0100
1000
0010
,  // measure 7
0100
0010
0100
0000
0001
1000
0001
1000
0002
0000
0000
0000
1003
0000
0000
0000
,  // measure 8
1000
0100
0001
0000
0201
0000
0301
0100
,  // measure 9
1000
1010
0010
1001
,  // measure 10
0001
0100
1000
0000
1200
0000
1300
0100
,  // measure 11
0002
0000
1003
0100
0010
0100
0001
0100
,  // measure 12
1000
0010
0001
0000
0021
0000
0031
0010
,  // measure 13
1000
1100
0100
1001
,  // measure 14
0001
0000
0010
0000
1000
0000
0000
0000
1020
0000
0000
0000
0130
0000
1000
0001
,  // measure 15
1000
0000
0000
0000
0000
0000
1000
0010
0100
0000
0002
0000
0000
0000
1003
0000
,  // measure 16
0100
0001
0200
0000
2300
0000
3010
0100
,  // measure 17
0002
0000
0000
0000
1003
0000
0100
0010
0100
0000
1000
0000
0000
0000
2010
0000
,  // measure 18
0000
3001
0100
1000
0001
0010
1000
0001
,  // measure 19
0000
1000
0100
0000
1001
1000
0000
3001
,  // measure 20
0010
1000
0020
0000
0032
0000
0103
0010
,  // measure 21
2000
0000
0000
0000
3001
0000
0010
0100
0010
0000
0001
0000
0000
0000
0102
0000
,  // measure 22
0000
1003
0010
0001
1000
0100
0001
1000
,  // measure 23
0100
0010
0010
1000
0010
0010
0002
0000
,  // measure 24
1003
1010
0110
0101
,  // measure 25
1001
0000
0000
0000
0000
0000
0000
0000
0000
0000
0000
0000
1000
0000
0000
0000
0000
0000
0100
0000
0000
0010
0000
0000
0100
0000
0000
0000
0000
0000
0000
0000
1000
0000
0000
0000
0000
0000
0000
0000
0001
0000
0000
0000
0000
0000
0000
0000
,  // measure 26
1001
0000
0000
0000
0000
0000
0000
0110
,  // measure 27
1000
0000
0001
0100
0000
0001
0100
0000
0010
0000
0001
0000
0010
0000
1000
0000
,  // measure 28
0001
0000
1000
0100
0000
1000
0100
0000
0010
0000
1000
0000
0010
0000
0001
0000
,  // measure 29
0200
0010
0000
1000
0000
0001
0000
0310
,  // measure 30
1000
0000
0001
0010
0000
0001
0010
0000
0100
0000
0001
0000
0100
0000
1000
0000
,  // measure 31
0001
0000
1000
0010
0000
1000
0010
0000
0100
0000
1000
0000
0100
0000
0001
0000
,  // measure 32
1000
0000
0001
0010
0000
0010
0100
0000
1000
0000
0010
0000
0001
0000
0010
0000
,  // measure 33
1000
0000
0100
0010
0000
0100
0010
0000
0001
0000
0001
0000
1000
0000
1000
0000
,  // measure 34
0001
0000
1000
0100
0000
0100
0010
0000
0001
0000
0100
0000
1000
0000
0100
0000
,  // measure 35
0001
0000
0010
0100
0000
0010
0100
0000
1000
0000
0010
0000
0100
0000
0001
0000
,  // measure 36
1000
0000
0000
1000
0100
0000
0010
0000
0001
1000
0000
0001
1000
0000
0010
0000
,  // measure 37
0200
0000
1300
0100
0002
0000
2003
0000
,  // measure 38
3001
0000
0000
0001
0010
0000
0100
0000
1000
0001
0000
1000
0001
0000
0100
0000
,  // measure 39
0010
0000
1000
0000
0002
0000
0000
0000
1003
0000
0000
1000
0100
0000
0010
0000
,  // measure 40
0001
0000
1000
0001
1000
0000
0001
0000
0100
0000
0000
0010
0000
0000
0010
0000
,  // measure 41
2000
0000
0000
3100
0010
0001
0000
0000
,  // measure 42
1000
0100
1000
0000
0001
0100
0001
0000
1000
0000
0000
0010
0000
0000
0010
0000
,  // measure 43
0200
0000
0000
0000
0000
0000
0301
0010
0100
0000
1000
0000
0001
0000
0000
0000
,  // measure 44
1000
0000
0010
0100
0010
0000
0100
0000
0001
0000
0000
0013
0000
0000
3130
0000
,  // measure 45
2000
3002
0203
0320
,  // measure 46
1033
0001
1000
0000
0001
0000
0010
0000
0200
0000
0000
0000
1300
0000
0010
0000
,  // measure 47
0100
0000
0010
0000
0110
0000
2002
0000
0000
3003
0000
0000
,  // measure 48
0001
0010
1000
0010
0100
1000
0010
0100
,  // measure 49
0001
0001
0100
1000
0100
0010
1000
0001
,  // measure 50
1000
0100
0001
0100
0010
0001
0100
0010
,  // measure 51
1000
1000
0010
0001
0010
1000
0001
0001
,  // measure 52
0000
1000
0100
0000
2001
0000
3001
0100
,  // measure 53
1000
0100
0001
0010
0100
1000
0301
0000
,  // measure 54
2001
0000
3031
0100
0102
0000
1003
0010
,  // measure 55
0001
0000
0010
0000
1000
0000
0100
0000
1000
0001
1000
0001
1030
0000
0000
0000
,  // measure 56
0001
0001
0100
1000
1000
0100
0001
0010
,  // measure 57
0200
1300
2001
3010
,  // measure 58
1000
1000
0010
0001
0001
0010
1000
0100
,  // measure 59
0020
0000
0031
0000
1000
0001
0203
0000
,  // measure 60
0310
0010
0001
0010
0010
1000
0100
0010
,  // measure 61
0011
1100
1010
0101
,  // measure 62
2001
0000
0000
0000
3010
0000
0000
1000
0100
0000
0010
0000
0001
0000
1000
0000
,  // measure 63
0002
0000
0000
0000
1033
0000
0001
0010
,  // measure 64
1000
0000
1020
0000
1030
0010
0001
0000
,  // measure 65
0101
0000
0110
0000
1001
0000
1000
0010
,  // measure 66
0001
0000
0021
0000
0031
0010
2000
0000
,  // measure 67
3001
0001
1000
1000
0100
0010
0001
0100
,  // measure 68
1000
0000
1200
0000
1300
0100
0001
0000
,  // measure 69
0011
0000
0110
0000
1001
0000
1000
0010
,  // measure 70
0010
0000
0000
0000
0000
0000
1000
0000
0000
0001
0000
0000
2000
0000
0000
0000
0000
0000
0000
0000
0000
0000
0000
0000
3100
0000
0000
0000
0000
0000
0000
0000
0100
0000
0000
0000
0000
0000
0000
0000
0000
0000
0000
0000
0000
0000
0000
0000
;

//---------------dance-single - ----------------
#NOTES:
     dance-single:
     :
     Hard:
     12:
     0.603403,0.591056,0.460020,0.627300,0.057503,404.000000,360.000000,44.000000,60.000000,0.000000,0.000000,0.603403,0.591056,0.460020,0.627300,0.057503,404.000000,360.000000,44.000000,60.000000,0.000000,0.000000:
0000
0000
0000
0000
,
0000
0000
0000
0000
,
0000
0000
0000
0000
,
0000
0000
0000
0000
,
0101
0000
0001
0010
0000
0100
1000
0000
,
1010
0000
1000
0100
0000
0010
0001
0000
,
2001
0000
3010
0100
0010
0100
0010
0100
,
0001
0010
0100
1000
0002
0000
1003
0000
,
0001
0010
0100
0000
2100
0000
3001
0100
,
0010
2010
3001
1001
,
1000
0100
0010
0000
0012
0000
1003
0010
,
0200
0000
0301
1000
0001
1000
0001
1000
,
0001
0010
0100
0000
1002
0000
1003
0010
,
0100
1001
0110
1001
,
1000
0100
0010
0000
2001
0000
3001
0100
,
0010
0000
0000
1000
0001
2000
0000
3100
,
0010
0000
0001
0000
0101
0000
0100
0010
,
1000
0000
0100
0000
1100
0000
0000
1001
,
0000
0001
0100
0001
0000
1000
0100
1000
,
0000
0010
0010
0000
0100
0100
0000
0001
,
1000
0001
1000
0000
1010
0000
0010
0100
,
0001
0000
0010
0000
0011
0000
0000
1001
,
0000
1000
0010
1000
0000
0001
0010
0001
,
0200
0000
0000
0310
0000
0000
2001
0000
,
0001
0001
0001
0001
,
3001
0000
1000
0100
0010
0001
0200
0000
,
0310
0000
0000
0000
0000
0000
0000
0110
,
1000
0000
0000
1000
0000
0000
0010
0000
0200
0000
0000
0000
0302
0000
0000
0000
,
0013
0000
0000
0010
0000
0000
0100
0000
2000
0000
0000
0000
3002
0000
0000
0000
,
0203
0010
0000
0010
0000
0010
0000
0310
,
1000
0000
0000
0001
0000
0000
1000
0000
0200
0000
0000
0000
0320
0000
0000
0000
,
0031
0000
0000
1000
0000
0000
0001
0000
0200
0000
0000
0000
0320
0000
0000
0000
,
1030
0000
0101
0000
1000
0100
0010
0001
,
0100
0000
0000
0100
0000
0000
0100
0000
0010
0000
1000
0000
0001
0000
1000
0000
,
0301
0000
1010
0000
0001
0010
0100
1000
,
0010
0000
0000
0010
0000
0000
0010
0000
0100
0000
0001
0000
1000
0000
0001
0000
,
2000
0000
3001
0100
1000
0100
0031
0000
,
0021
0000
0130
1000
0010
0000
2001
0000
,
3002
0000
1003
0010
0001
0010
1300
0000
,
1200
0000
0310
0001
0100
0000
1002
0000
,
0103
0000
0000
0000
0001
0000
0010
0000
0100
0000
0000
1000
0000
0000
0001
0000
,
0200
0000
0000
0320
0000
0000
1030
0000
,
0001
0010
0100
0010
0001
0000
1000
0010
,
0100
0000
0000
0100
0000
0000
0001
0000
2000
0000
0000
0000
3002
0000
0000
0000
,
0013
0000
0011
0000
1100
0000
0001
0100
,
0020
2030
3002
1003
,
1000
0100
0010
0001
0100
0010
1000
0001
,
1000
0000
0001
0000
0100
0000
0100
0000
0000
0000
0000
0000
,
2001
0000
3001
0010
3100
1000
0010
0100
,
0002
0100
2003
0010
,
3002
0000
1003
0100
1000
0001
0010
0001
,
1000
0010
0100
0001
1000
0100
0010
0010
,
0000
0001
0100
0000
0201
0000
0320
0000
,
1030
0001
0010
0100
2000
0000
3010
0000
,
1002
0000
0013
0100
0000
0100
2000
0000
,
3001
0100
0010
1000
0100
0010
0001
0000
,
1000
0200
0000
0301
0200
0000
1300
0010
,
0200
0301
0101
1001
,
0001
0020
0000
1030
0020
0000
0031
0100
,
0020
2030
3001
1001
,
1000
0200
0000
0301
0200
0000
1303
0000
,
0001
0100
0020
0000
2030
0000
3001
0003
,
1001
0000
1000
0100
0010
0001
0100
0010
,
2000
0000
0000
0000
3001
0000
1000
0100
,
0010
0000
0012
0000
1003
0010
0100
0000
,
0101
0000
0113
0000
1001
0000
0001
0010
,
0100
0000
2100
0000
3001
0100
0020
0000
,
1030
0100
0001
0100
1000
0001
1000
0010
,
0100
0000
2001
0000
3001
0100
0010
0000
,
1001
0000
0110
0000
1001
0000
0001
0010
,
0100
0000
0000
1000
0000
0000
0020
0000
0000
0000
0000
0000
0130
0000
0000
0000
0100
0000
0000
0000
0000
0000
0000
0000
;

//---------------dance-single - ----------------
#NOTES:
     dance-single:
     :
     Easy:
     6:
     0.279298,0.295528,0.052275,0.125460,0.005228,187.000000,182.000000,5.000000,12.000000,0.000000,0.000000,0.279298,0.295528,0.052275,0.125460,0.005228,187.000000,182.000000,5.000000,12.000000,0.000000,0.000000:
0000
0000
0000
0000
,
0000
0000
0000
0000
,
0000
0000
0000
0000
,
0000
0000
0000
0000
,
1000
0000
0000
1000
0000
0000
0000
0000
,
0001
0000
0000
0001
0000
0000
0000
0000
,
2002
0000
0000
3003
,
0001
1000
0010
0000
,
1000
0100
0100
1000
,
0100
0100
0010
0000
,
0001
0100
0100
0001
,
0100
0100
0010
0000
,
1000
0010
0010
1000
,
0010
0010
0100
0000
,
0001
0010
0010
0001
,
1000
0000
0010
0000
,
2000
0000
3001
0000
,
0002
0000
1003
0000
,
0001
0100
0010
0000
,
1000
0100
0010
0000
,
0002
0000
1003
0000
,
2000
0000
3001
0000
,
1000
0010
0100
0000
,
0001
0000
0000
1000
0000
0000
2002
0000
,
0000
0000
0000
0000
,
3003
0001
1000
0010
,
0100
0000
0000
0000
,
0010
0000
0010
1000
,
0100
0000
0100
0010
,
0001
0000
0000
0000
,
1000
0000
1000
0001
,
0100
0000
0100
0000
,
0001
0010
0100
0000
,
0010
0010
0010
0000
,
0100
1000
0010
0000
,
0100
0100
0100
0000
,
0010
0000
1000
0000
,
0001
0010
0100
0000
,
1000
0000
0001
0000
,
1000
0010
0100
0000
,
0001
0000
0001
0000
,
1000
0000
1000
0000
,
0001
0010
0100
0000
,
1000
0010
0100
0000
,
0010
0000
0010
0000
,
0100
0000
0100
0000
,
0001
0010
0100
0000
,
1000
0001
1000
0000
,
2001
0000
3001
0000
,
0001
1000
0010
0000
,
1002
0000
1003
0000
,
1000
0001
0010
0000
,
0001
0100
0010
0000
,
1000
0100
0010
0000
,
0001
0100
0010
0000
,
1000
0100
0010
0000
,
0001
0000
0000
0001
0000
0000
0001
0000
,
0010
0100
0100
0000
,
1000
0000
0000
1000
0000
0000
1000
0000
,
0010
0100
0100
0000
,
0010
0000
0000
0010
0000
0000
0010
0000
,
1000
0001
0010
0100
,
2000
0000
0000
3000
,
0002
0000
1003
0001
,
0100
0100
0001
0100
,
0100
0010
0000
1000
,
0100
0100
1000
0100
,
0100
0010
0000
0001
,
0010
0010
0001
0010
,
0010
0100
0000
1000
,
0001
0000
0000
0100
0000
0000
0000
0000
1001
0000
0000
0000
;

//---------------dance-single - ----------------
#NOTES:
     dance-single:
     :
     Beginner:
     3:
     0.156825,0.183616,0.020910,0.000000,0.000000,105.000000,103.000000,2.000000,0.000000,0.000000,0.000000,0.156825,0.183616,0.020910,0.000000,0.000000,105.000000,103.000000,2.000000,0.000000,0.000000,0.000000:
0000
0000
0000
0000
,
0000
0000
0000
0000
,
0000
0000
0000
0000
,
0000
0000
0000
0000
,
0001
0000
0000
0000
,
1000
0000
0000
0000
,
0010
0000
0000
0000
,
0010
0000
0000
0000
,
1000
1000
0000
1000
,
1000
0000
0000
0000
,
0001
0001
0000
0001
,
0001
0000
0000
0000
,
0100
0100
0000
0100
,
0100
0000
0000
0000
,
0010
0010
0000
0010
,
0010
0000
0000
0000
,
1000
0000
1000
0000
,
1000
0000
0000
0000
,
0001
0000
0001
0000
,
0001
0000
0000
0000
,
0010
0000
0010
0000
,
0010
0000
0000
0000
,
0100
0000
0100
0000
,
0100
0000
0000
0000
,
1000
0000
0000
0000
,
0001
0000
0000
0000
,
1001
0000
0000
0000
,
0100
0000
0000
0000
,
0100
0000
0000
0000
,
1001
0000
0000
0000
,
0010
0000
0000
0000
,
0010
0000
0000
0000
,
1000
0000
1000
0000
,
1000
0000
0000
0000
,
0001
0000
0001
0000
,
0001
0000
0000
0000
,
0010
0000
0010
0000
,
0010
0000
0000
0000
,
0100
0000
0100
0000
,
0100
0000
0000
0000
,
1000
0000
0000
0000
,
0001
0000
0000
0000
,
0100
0000
0000
0000
,
0010
0000
0000
0000
,
0100
0000
0100
0000
,
0100
0000
0000
0000
,
0010
0000
0010
0000
,
0010
0000
0000
0000
,
1000
1000
0000
0000
,
1000
0000
0000
0000
,
0001
0001
0000
0000
,
0001
0000
0000
0000
,
0000
0010
0010
0000
,
0010
0000
0010
0000
,
0000
0100
0100
0000
,
0100
0000
0100
0000
,
1000
0000
0000
0000
,
0001
0001
0001
0000
,
0001
0000
0000
0000
,
0100
0100
0100
0000
,
0100
0000
0000
0000
,
0010
0010
0010
0000
,
0010
0000
0000
0000
,
1000
0000
0000
0000
,
0001
0000
0001
0000
,
0001
0000
0000
0000
,
1000
0000
1000
0000
,
1000
0000
0000
0010
,
0010
0000
0010
0010
,
0000
0000
0000
0100
,
0100
0100
0000
0000
;

//---------------dance-double - ----------------
#NOTES:
     dance-double:
     :
     Challenge:
     14:
     0.718408,0.738820,0.324105,0.512295,0.256148,481.000000,450.000000,31.000000,49.000000,0.000000,0.000000,0.718408,0.738820,0.324105,0.512295,0.256148,481.000000,450.000000,31.000000,49.000000,0.000000,0.000000:
00000000
00000000
00000000
00000000
,
00000000
00000000
00000000
00000000
,
00000000
00000000
00000000
00000000
,
00000000
00000000
00000000
00000000
,
00001000
00100000
00100000
00001000
00010000
00010000
00200000
00000000
,
00310000
00000000
00000010
00000000
00000010
00000000
00010000
00000000
00001000
00000000
00001000
00000000
00000010
00000000
00000001
00001000
,
00000002
00000000
00000103
00000010
00000001
00000010
00001000
00000010
,
00000100
00000000
00001000
00000000
00010000
00001000
00010000
00001000
00020000
00000000
00000000
00000000
00030100
00000000
00000000
00000000
,
00010000
00100000
10000000
00000000
10200000
00000000
10300000
00100000
,
00010000
00110000
00100000
10010000
,
10000000
01000000
00010000
00000000
02010000
00000000
03010000
01000000
,
20000000
00000000
30100000
00010000
00001000
00000100
00000010
00001000
,
00000001
00000010
00001000
00000000
00001020
00000000
00001030
00000010
,
00000001
00000101
00000100
00001001
,
00001000
00000000
00000100
00000000
00000001
00000000
00000000
00000000
00000201
00000000
00000000
00000000
00000310
00000000
00000001
00001000
,
00000001
00000000
00000000
00000000
00000000
00000000
00001000
00000100
00001000
00000000
00000200
00000000
00000000
00000000
00010300
00000000
,
00001000
01000000
00100000
00000000
01200000
00000000
10300000
01000000
,
00200000
00000000
00000000
00000000
00310000
00000000
10000000
00010000
10000000
00000000
00200000
00000000
00000000
00000000
00320000
00000000
,
00000000
00000000
00031000
00003000
00000100
00000000
00000010
00000000
00010000
00000000
00000100
00000000
00000010
00000000
00002000
00000000
,
00000030
00013000
00010000
00000000
00101000
00100000
00000000
00301000
,
00010000
00000010
00000100
00000000
00000210
00000000
00000301
00000010
,
00000200
00000000
00000000
00000000
00001300
00000000
00000001
00001000
00000001
00000000
00000200
00000000
00000000
00000000
00002300
00000000
,
00030000
00000000
00013000
00030000
00100000
00000000
01000000
00000000
00001000
00000000
00100000
00000000
01000000
00000000
00010000
00000000
,
03001000
00130000
00100000
00010000
01000000
01000000
00200000
00000000
,
10300000
01010000
01100000
10100000
,
10010000
00000000
00000000
00000000
00000000
00000000
00000000
00000000
00000000
00000000
00000000
00000000
10000000
00000000
00000000
00000000
00000000
00000000
01000000
00000000
00000000
00100000
00000000
00000000
01000000
00000000
00000000
00000000
00000000
00000000
00000000
00000000
00100000
00000000
00000000
00000000
00000000
00000000
00000000
00000000
00001000
00000000
00000000
00000000
00000000
00000000
00000000
00000000
,
00011000
00000000
00000000
00000000
00000000
00000000
00000000
01000100
,
00010000
00000000
00001000
00100000
00000000
00001000
00100000
00000000
01000000
00000000
00010000
00000000
01000000
00000000
00100000
00000000
,
00001000
00000000
00010000
00000010
00000000
00010000
00000010
00000000
00000100
00000000
00001000
00000000
00000100
00000000
00000010
00000000
,
00020000
00001000
00000000
01000000
00000000
00000100
00000000
00031000
,
00010000
00000000
00001000
01000000
00000000
00001000
01000000
00000000
00100000
00000000
00010000
00000000
00100000
00000000
01000000
00000000
,
00001000
00000000
00010000
00000100
00000000
00010000
00000100
00000000
00000010
00000000
00001000
00000000
00000010
00000000
00000100
00000000
,
00010000
00000000
00001000
00100000
00000000
00100000
00010000
00000000
10000000
00000000
00100000
00000000
01000000
00000000
00100000
00000000
,
10000000
00000000
00010000
01000000
00000000
00010000
01000000
00000000
00100000
00000000
10000000
00000000
01000000
00000000
00100000
00000000
,
00001000
00000000
00010000
00000100
00000000
00000100
00001000
00000000
00000001
00000000
00000100
00000000
00000010
00000000
00000100
00000000
,
00000001
00000000
00001000
00000010
00000000
00001000
00000010
00000000
00000100
00000000
00000001
00000000
00000010
00000000
00000100
00000000
,
00010000
00000000
00000000
00010000
00031000
00000000
00100000
00000000
00010000
01000000
00000000
10000000
01000000
00000000
00010000
00000000
,
00200000
00000000
01300000
00010000
00002000
00000000
00203000
00000000
,
00331000
00000000
00000000
00001000
00013000
00000000
00000100
00000000
00001000
00000010
00000000
00000001
00000010
00000000
00001000
00000000
,
00000200
00000000
00000000
00000000
00000310
00000000
00001000
00000000
00010000
00000000
00000000
00001000
00030100
00000000
00000010
00000000
,
00001000
00000000
00000100
00010000
00000100
00000000
00010000
00000000
00001000
00000000
00000000
00001000
00000000
00000000
01000000
00000000
,
00200000
00000000
00000000
10300000
00010000
10000000
00000000
00000000
,
00010000
01000000
00010000
00000000
10000000
00100000
10000000
00000000
00100000
00000000
01000000
00000000
00010000
00000000
00100000
00000000
,
00002000
00000000
00000000
00000000
00003000
00000000
00010000
00001000
00010000
00000000
00001000
00000000
00100000
00000000
00000000
00000000
,
00001000
00000000
01000000
00010000
01000000
00000000
00010000
00000000
10000000
00000000
01000000
00000000
00100000
00000000
00010000
00000000
,
02000000
03002000
00023000
00030200
,
00001300
00000000
00000001
00000100
00000001
00000000
00001000
00000000
00000100
00000000
00000001
00000000
00000100
00000000
00010000
00000000
,
00001000
00000000
00100000
00000000
00001000
00000000
00022000
00000000
00000000
00033000
00000000
00000000
,
00001000
01000000
00100000
01000000
00010000
00100000
01000000
10000000
,
00100000
00010000
00100000
10000000
00010000
00010000
00100000
00001000
,
00010000
00000010
00000100
00000010
00001000
00000100
00000010
00000001
,
00000100
00001000
00000100
00000001
00000010
00000100
00000010
00000010
,
00000000
00000001
00000100
00000000
00000201
00000000
00000301
00000010
,
00001000
00010000
01000000
10000000
00200000
00000000
01300000
00000000
,
20010000
00000000
30130000
01000000
01020000
00000000
10030000
01000000
,
00010000
00000000
00001000
00000000
00000010
00000000
00000001
00000000
00001000
00000001
00001000
00000001
00001000
00000000
00000000
00000000
,
00000001
00000100
00000100
00001000
00000100
00000100
00000010
00010000
,
00002000
00000000
00203000
00000000
00310000
10000000
00010000
00000000
,
10000000
00100000
00100000
00010000
00100000
00100000
01000000
00010000
,
00200000
00000000
00302000
00000000
00013000
00000100
00000010
00000000
,
00000001
00000100
00000100
00001000
00000100
00000100
00000001
00000010
,
00000100
00010000
00002000
00000000
02003000
00000000
03100000
00000000
,
20010000
00000000
00000000
00000000
30100000
00000000
00000000
10000000
01000000
00000000
00100000
00000000
00001000
00000000
00010000
00000000
,
00002000
00000000
00000000
00000000
00013000
00000000
00001000
00000100
,
00000001
00000000
00000201
00000000
00000301
00000100
00001000
00000000
,
00001100
00000000
00000110
00000000
00001001
00000000
00000001
00000010
,
00001000
00000000
00001020
00000000
00001030
00000010
00000002
00000000
,
00000103
00001000
00010000
00100000
01000000
00010000
10000000
01000000
,
00010000
00000000
02010000
00000000
03010000
01000000
10000000
00000000
,
10100000
00000000
01100000
00000000
10010000
00000000
00010000
01000000
,
01000000
00000000
00000000
00000000
00000000
00000000
00001000
00000000
00000000
00010000
00000000
00000000
00002000
00000000
00000000
00000000
00000000
00000000
00000000
00000000
00000000
00000000
00000000
00000000
00013000
00000000
00000000
00000000
00000000
00000000
00000000
00000000
00010000
00000000
00000000
00000000
00000000
00000000
00000000
00000000
00000000
00000000
00000000
00000000
00000000
00000000
00000000
00000000
;

//---------------dance-double - ----------------
#NOTES:
     dance-double:
     :
     Hard:
     12:
     0.612364,0.591056,0.439110,0.690030,0.083640,410.000000,368.000000,42.000000,66.000000,0.000000,0.000000,0.612364,0.591056,0.439110,0.690030,0.083640,410.000000,368.000000,42.000000,66.000000,0.000000,0.000000:
00000000
00000000
00000000
00000000
,
00000000
00000000
00000000
00000000
,
00000000
00000000
00000000
00000000
,
00000000
00000000
00000000
00000000
,
00001001
00000000
00000001
00000010
00000000
00000010
00001000
00000000
,
00011000
00000000
00010000
00100000
00000000
00100000
10000000
00000000
,
20010000
00000000
30100000
01000000
00100000
01000000
00100000
01000000
,
10000000
01000000
00010000
00100000
00002000
00000000
00013000
00000000
,
00001000
00010000
00000010
00000000
00010020
00000000
00031330
00000100
,
00000010
00000011
00001000
00001001
,
00000001
00000100
00000010
00000000
00002010
00000000
00003001
00000010
,
00000200
00000000
00010300
00001000
00000100
00001000
00010000
00001000
,
00100000
00001000
01000000
00000000
02001000
00000000
03313000
00100000
,
01000000
11000000
00010000
10010000
,
10000000
00100000
01000000
00000000
01020000
00000000
10030000
01000000
,
00100000
00000000
00000000
00010000
10000000
00200000
00000000
01300000
,
00010000
00000000
00100000
00000000
00101000
00000000
00001000
00010000
,
00000020
00000000
00001030
00000001
00001000
00000200
00000000
00000320
,
00000000
00000031
00000100
00001000
00000000
00010000
00001000
00000100
,
00000000
00000001
00000010
00000000
00000100
00000100
00000000
00001000
,
00000001
00001000
00000100
00000000
00010100
00000000
00010000
00001000
,
02000000
00000000
03010000
10000000
00010000
00200000
00000000
02300000
,
00000000
13000000
00100000
00010000
00000000
00001000
00010000
00100000
,
10000000
00000000
00000000
01100000
00000000
00000000
20010000
00000000
,
00010000
00010000
00010000
00010000
,
30010000
00000000
00000000
00000000
00000000
00000000
10000000
00000000
00000000
01000000
00000000
00000000
00010000
00000000
00000000
00000000
00001000
00000000
00000000
00000000
00010000
00000000
00000000
00000000
,
00011000
00000000
00000000
00000000
00000000
00000000
00000000
00100010
,
00010000
00000000
00000000
00010000
00000000
00000000
00001000
00000000
00010000
00000000
00100000
00000000
00020000
00000000
00000000
00000000
,
03331000
00000000
00000000
00001000
00000000
00000000
00010000
00000000
00001000
00000000
00000010
00000000
00002000
00000000
00000000
00000000
,
00023330
00000100
00000000
00000100
00000000
00001000
00000000
00031000
,
00001000
00000000
00000000
00001000
00000000
00000000
00010000
00000000
00000100
00000000
00000010
00000000
00002000
00000000
00000000
00000000
,
00013000
00000000
00000000
00010000
00000000
00000000
00001000
00000000
01000000
00000000
00100000
00000000
00020000
00000000
00000000
00000000
,
00031000
00000000
00201000
00000000
00310000
01000000
10000000
01000000
,
00100000
00000000
00000000
00100000
00000000
00000000
00100000
00000000
10000000
00000000
01000000
00000000
00100000
00000000
00001000
00000000
,
00013000
00000000
00010200
00000000
00001300
00000010
00000001
00000010
,
00000100
00000000
00000000
00000100
00000000
00000000
00000100
00000000
00000001
00000000
00000010
00000000
00000100
00000000
00010000
00000000
,
00001000
00000000
00100000
00010000
00100000
00001000
00010000
00000000
,
00020100
00000300
00000000
00000000
00030010
00000000
00000100
00000000
00002000
00000000
00000000
00000000
00013000
00000000
00000000
00000000
,
00011000
00000000
00000100
00001000
00000100
00010000
00001000
00000000
,
00102000
00300000
00000000
00000000
01003000
00000000
00100000
00000000
00020000
00000000
00000000
00000000
00031000
00000000
00000000
00000000
,
00100000
00000000
00000000
00010000
00000000
00000000
00010000
00000000
10000000
00000000
00000000
00100000
00000000
00000000
00100000
00000000
,
02000000
00000000
00000000
03010000
00100000
00001000
00000000
00000000
,
00021000
00000000
00031000
00100000
00001000
00010000
00000100
00000010
,
00000001
00000000
00000000
00001000
00000000
00000000
00000010
00000000
00000200
00000000
00000000
00000000
00000301
00000000
00000000
00000000
,
00001000
00000000
00001100
00000000
00020100
00000000
00031000
01000000
,
00200000
00000000
20300000
00000000
30010000
00100000
00002000
00000000
,
00013000
00000010
00010000
00000010
00002000
00000000
00003001
00000010
,
00000100
00000000
00010000
00000000
00001000
00000000
00010000
00000000
00000000
00000000
00000000
00000000
,
00021000
00000000
00230000
00000000
10300000
00010000
10000000
01000000
,
00200000
00000000
00310000
01000000
00002000
00000000
00013000
00000000
,
00012000
00000000
00003200
00000000
00000301
00001000
00000001
00000010
,
00000200
00000000
00001300
00000010
00020000
00000000
00031000
00001000
,
00000000
00100000
00010000
00000000
00210000
00000000
00331000
00010000
,
00100000
01000000
00010000
00100000
00002000
00000000
00103000
00000000
,
00012000
00000000
00013000
00000100
00001200
00000000
00013300
00001000
,
00000100
00000010
00001000
00000100
00000010
00000001
00031000
00000000
,
00000001
00000200
00000000
00001300
00020000
00000000
00130000
10000000
,
02000000
03100000
01100000
10010000
,
10000000
02000000
00000000
03010000
00002000
00000000
00003010
00000001
,
00000200
00000000
00000320
00000000
00001330
00000001
00001000
00000000
,
00000001
00000020
00000000
00001030
00020000
00000000
02030000
00000000
,
13000000
00100000
02000000
00000000
03020000
00000000
00130000
00000000
,
00102000
00000000
00013000
00000010
00000100
00000001
00000010
00000100
,
00020000
00000000
00000000
00000000
00031000
00000000
00010000
00001000
,
01000000
00000000
02001000
00000000
03313000
00100000
01000000
00000000
,
11000000
00000000
01010000
00000000
10010000
00000000
10000000
00100000
,
01000000
00000000
01020000
00000000
10030000
01000000
00200000
00000000
,
00301000
00010000
00100000
00010000
00001000
00010000
00000100
00010000
,
00000010
00000000
00010020
00000000
00031330
00000100
00000010
00000000
,
00000011
00000000
00001010
00000000
00001001
00000000
00000001
00000100
,
00000020
00000000
00000000
00020030
00000000
00000000
00031000
00000000
00001000
00000000
00000000
00000000
;

//---------------dance-double - ----------------
#NOTES:
     dance-double:
     :
     Medium:
     9:
     0.476449,0.554115,0.271830,0.407745,0.005228,319.000000,293.000000,26.000000,39.000000,0.000000,0.000000,0.476449,0.554115,0.271830,0.407745,0.005228,319.000000,293.000000,26.000000,39.000000,0.000000,0.000000:
00000000
00000000
00000000
00000000
,
00000000
00000000
00000000
00000000
,
00000000
00000000
00000000
00000000
,
00000000
00000000
00000000
00000000
,
00011000
00000000
00000000
00011000
00000000
00000000
00101000
00000000
,
00011000
00000000
00000000
00011000
00000000
00000000
00010010
00000000
,
00012000
00000000
00103000
00010000
00100000
00010000
00100000
00010000
,
20000000
30200000
01300000
00000000
,
00010000
01000000
00010000
00000000
10000000
00000000
00010000
01000000
,
00010000
10000000
01000000
00100000
,
00001000
00010000
00001000
00000000
00100000
00000000
00001000
00010000
,
00001000
00010000
00000100
00000010
,
00000001
00000100
00000001
00000000
00001000
00000000
00000001
00000100
,
00000001
00000100
00000010
00001000
,
00000001
00000010
00000001
00000000
00001000
00000000
00000001
00000010
,
00000100
00000000
00002002
00003003
,
00001000
00000010
00010010
00000000
,
00010000
00000000
00001000
00000000
00101000
00000000
00000000
00110000
,
00000000
00010000
10000000
00010000
,
01000000
00100000
01000000
00000000
00100000
00100000
00000000
00000000
,
10000000
00010000
00110000
00000000
,
00001000
00000000
00010000
00000000
00011000
00000000
00000000
00010100
,
00000000
00000000
00010000
00000000
00000100
00000000
00000010
00000001
,
00001000
00000000
00000001
00000100
00000000
00000100
00000020
00000000
,
00000100
00000100
00000100
00000100
,
00000130
00000000
00000010
00000000
00001000
00000100
00010000
00000000
,
00011000
00000000
00000000
00000000
,
00201000
00000000
00310000
01000000
00020000
00000000
00230000
00000000
,
00302000
00000000
00013000
00000010
00020000
00000000
00030100
00000000
,
00011000
00000000
00000000
00000000
,
00010200
00000000
00001300
00000010
00002000
00000000
00003200
00000000
,
00020300
00000000
00031000
01000000
00002000
00000000
00103000
00000000
,
00001000
00000000
00010000
00000000
00000100
00001000
00000100
00000000
,
00001000
00000010
00001000
00000000
00000001
00000100
00000001
00000000
,
00001000
00000000
00000001
00000000
00001000
00000100
00001000
00000000
,
00000100
00010000
00000100
00000000
00010000
00001000
00010000
00000000
,
00001000
00100000
00010000
10000000
,
00100000
00000000
01000000
00100000
02000000
00000000
03020000
00000000
,
10030000
01000000
00100000
00010000
,
01000000
00001000
02000000
00000000
03002000
00000000
00023000
00000000
,
00030100
00000000
00001100
00000000
,
00010000
00000000
00011000
00000000
,
00001000
01000000
00001000
00000000
01000000
00000000
00010000
00100000
,
01000000
00000000
10000000
00100000
01000000
00000000
00000000
00000000
,
00010000
00000000
00200000
00000000
00302000
00000000
00013000
00000100
,
00002000
00003020
00000230
00000300
,
00000001
00001000
00000001
00000000
00001000
00000000
00000100
00010000
,
00000000
00010000
00001000
00000000
00011000
00000000
00000000
00000000
,
02002000
03000000
01003000
00010000
,
10000000
01000000
00100000
00000000
00010000
00000000
01000000
00000000
,
00001000
00010000
00001000
00000000
00010000
00000000
00000100
00000010
,
00000001
00000000
00001000
00000010
00000100
00000000
00000001
00000000
,
00000000
00001000
00000100
00000000
00001100
00000000
00000001
00000000
,
00000100
00000010
00000000
00000010
00020000
00000000
00000000
00000000
,
00031000
00000000
00100000
00010000
00000000
00010000
10000000
00000000
,
00010000
01000000
00000000
01000000
00100000
10000000
00010000
00000000
,
20010000
00000000
00000000
30200000
00000000
00000000
00310000
00001000
,
00010000
00001000
00000010
00000001
,
00001002
00000000
00000000
00000023
00000000
00000000
00001030
00010000
,
00001000
00010000
00100000
10000000
,
20010000
00000000
00000000
30200000
00000000
00000000
00310000
00000000
,
00001000
00010000
00002000
00000000
00003020
00000000
00300032
00000000
,
03001003
00000000
00000010
00000000
00000100
00000010
00000100
00000010
,
00002000
00000000
00000000
00000000
00003001
00000000
00000001
00000100
,
00000001
00000000
00001000
00000000
00000001
00000100
00000001
00000000
,
00000100
00000000
00000010
00000000
00010000
00000000
00001000
00010000
,
00001000
00000000
00100000
00000000
00001000
00010000
00001000
00000000
,
00100000
00000000
00010000
00000000
10000000
00000000
00010000
01000000
,
00010000
00000000
10000000
00000000
00010000
01000000
00010000
00000000
,
10000000
00000000
00100000
00000000
01000000
00000000
00010000
00100000
,
00010000
00000000
00000000
00100000
00000000
00000000
00001000
00000000
00010000
00000000
00000000
00000000
;

//---------------dance-double - ----------------
#NOTES:
     dance-double:
     :
     Easy:
     6:
     0.291246,0.332469,0.125460,0.303195,0.005228,195.000000,183.000000,12.000000,29.000000,0.000000,0.000000,0.291246,0.332469,0.125460,0.303195,0.005228,195.000000,183.000000,12.000000,29.000000,0.000000,0.000000:
00000000
00000000
00000000
00000000
,
00000000
00000000
00000000
00000000
,
00000000
00000000
00000000
00000000
,
00000000
00000000
00000000
00000000
,
00010000
00000000
00000000
00010000
00000000
00000000
00000000
00000000
,
00001000
00000000
00000000
00001000
00000000
00000000
00000000
00000000
,
00022000
00000000
00000000
00033000
,
00001000
00010000
00001000
00000000
,
00010000
00000010
00000010
00010000
,
00000010
00000010
00010000
00000000
,
00001000
00100000
00100000
00001000
,
00100000
00100000
00001000
00000000
,
00010000
00000100
00000100
00010000
,
00000100
00000100
00010000
00000000
,
00001000
01000000
01000000
00001000
,
01000000
00000000
10010000
00000000
,
20000000
00000000
31000000
00000000
,
00200000
00000000
00301000
00000000
,
00002000
00000000
00013000
00000000
,
00020000
00000000
00030100
00000000
,
00000200
00000000
00000310
00000000
,
00000020
00000000
00000031
00000000
,
00000002
00000000
00001003
00000000
,
00001001
00000000
00000000
00000110
00000000
00000000
00002002
00000000
,
00000000
00000000
00000000
00003003
,
00001000
00000100
00010000
00001000
,
00010000
00000000
00000000
00000000
,
00002000
00003000
00100000
00100000
,
00002000
00003000
00010000
00010000
,
00011000
00000000
00000000
00000000
,
00020000
00030000
00000010
00000010
,
00020000
00030000
00001000
00001000
,
00200000
00300000
00010000
10000000
,
00100000
10000000
00010000
00000000
,
00200000
00300000
00001000
00010000
,
00001000
00010000
00000100
00000000
,
00002000
00003000
00000002
00000003
,
00001000
00000010
00000100
00000000
,
00000002
00000003
00002000
00003000
,
00000001
00000010
00000100
00000000
,
00010000
00000000
00011000
00000000
,
00001000
00000000
00011000
00000000
,
00001000
00100000
00010000
00000000
,
00100000
00010000
10000000
00000000
,
00010000
00000000
10000000
00000000
,
00100000
01000000
00100000
00000000
,
10000000
01000000
00100000
00000000
,
00001000
00010000
00001000
00000000
,
00022000
00033000
00010000
00000100
,
00000010
00000100
00010000
00000000
,
00022000
00033000
00001000
01000000
,
00100000
01000000
00001000
00010000
,
00000000
00001000
00001000
00000000
,
00010000
00010000
00010000
00000000
,
00000100
00000100
00000100
00000000
,
00010000
00010000
00010000
00000000
,
00001000
00000000
00000000
00001000
00000000
00000000
00100000
00000000
,
00010000
01000000
00001000
00000000
,
00010000
00000000
00000000
00010000
00000000
00000000
00000010
00000000
,
00001000
00000100
00010000
00000000
,
00001000
00000000
00000000
00001000
00000000
00000000
00100000
00000000
,
00010000
01000000
00100000
10000000
,
20020000
00000000
00000000
30030000
,
02200000
00000000
03300000
10000000
,
01000000
01000000
10000000
01000000
,
01000000
00100000
00000000
00001000
,
00010000
00010000
00001000
00010000
,
00010000
00000100
00000000
00001000
,
00000010
00000010
00001000
00000010
,
00000010
00000100
00000000
00000001
,
00001000
00000000
00000000
00000100
00000000
00000000
00000000
00000000
00000100
00000000
00000000
00000000
;
