#VERSION:0.83;
#TITLE:ERROR CODE;
#SUBTITLE:;
#ARTIST:C-Show;
#TITLETRANSLIT:;
#SUBTITLETRANSLIT:;
#ARTISTTRANSLIT:;
#GENRE:;
#ORIGIN:;
#CREDIT:;
#BANNER:;
#BACKGROUND:;
#PREVIEWVID:;
#JACKET:;
#CDIMAGE:;
#DISCIMAGE:;
#LYRICSPATH:;
#CDTITLE:;
#MUSIC:ERROR CODE.ogg;
#OFFSET:0.000000;
#SAMPLESTART:34.908638;
#SAMPLELENGTH:19.600000;
#SELECTABLE:YES;
#BPMS:0.000=110.000;
#STOPS:48.000=0.545,
143.000=0.545;
#DELAYS:;
#WARPS:;
#TIMESIGNATURES:0.000=4=4,
48.000=3=4,
51.000=4=4,
143.000=3=4,
146.000=4=4;
#TICKCOUNTS:0.000=4;
#COMBOS:0.000=1;
#SPEEDS:0.000=1.000=0.000=0;
#SCROLLS:0.000=1.000;
#FAKES:;
#LABELS:0.000=Song Start;
#BGCHANGES:;
#KEYSOUNDS:;
#ATTACKS:
;

//---------------dance-single - ----------------
#NOTEDATA:;
#CHARTNAME:;
#STEPSTYPE:dance-single;
#DESCRIPTION:;
#CHARTSTYLE:;
#DIFFICULTY:Challenge;
#METER:17;
#RADARVALUES:0.825080,0.873139,0.733780,0.544417,1.503065,732.000000,639.000000,93.000000,69.000000,112.000000,0.000000,16.000000,0.000000,0.000000,0.825080,0.873139,0.733780,0.544417,1.503065,732.000000,639.000000,93.000000,69.000000,112.000000,0.000000,16.000000,0.000000,0.000000;
#CREDIT:Kekkle;
#NOTES:
// measure 0
0000
0000
0000
0000
,  // measure 1
0000
0000
0000
0000
,  // measure 2
0000
0000
0000
0000
,  // measure 3
0000
0000
0000
0000
,  // measure 4
0002
0000
0000
0000
0010
0000
0000
0000
1000
0000
0000
0000
0103
0010
0100
0120
,  // measure 5
0000
0000
1030
0001
0010
0100
1000
0001
,  // measure 6
0200
0000
1000
0000
0010
0000
0301
0000
0000
1000
1000
0000
0000
0001
0001
0000
,  // measure 7
0000
0000
0000
0000
1000
0000
0000
0000
0000
0000
0000
0000
1000
0000
1000
0000
0000
0000
0001
1000
0001
0000
0100
0000
0010
0100
0010
0100
0010
0000
0100
0000
,  // measure 8
0001
1000
0100
1000
0100
0000
0010
0000
0001
1000
0001
1000
0001
1000
0010
0000
0200
0000
0000
0000
0302
0000
0000
0000
1003
0000
0100
0000
0010
0000
0110
0000
,  // measure 9
0000
0000
0220
0000
0330
0000
0001
0010
0100
1000
0020
0001
0000
0130
0000
0110
,  // measure 10
0000
0000
0220
0000
0330
0000
0000
1000
0100
0010
0200
0001
0000
0310
0000
0110
,  // measure 11
0000
0000
0000
0000
0220
0000
0000
0000
0330
0000
0000
0000
1000
0000
0010
0000
0100
0000
0001
0000
0020
0000
1000
0000
0000
0000
0130
0000
1000
0100
0010
0001
,  // measure 12
1000
0000
0000
0010
0120
0000
0001
0001
0000
1000
1030
0000
1002
0000
0013
0000
,  // measure 13
0110
0000
1000
0100
0000
0000
0010
0100
0000
0000
0010
0001
0000
0000
1000
0001
0000
0000
0100
0000
0010
0100
0010
1000
0002
0000
0000
0000
0013
0000
0000
0000
,  // measure 14
0110
0000
1000
0001
0000
0000
1000
0100
0000
0000
0010
0100
0000
0000
0010
0001
0000
0000
1000
0000
0010
0100
0010
1000
0001
0000
0000
0000
1000
0000
0000
0000
,  // measure 15
0100
0000
0100
0000
0010
0000
0010
0000
0001
0000
0010
0100
1000
0000
0100
0010
0001
1000
0001
1000
0001
1000
0001
1000
0020
0000
0000
0000
0000
0000
0000
0000
,  // measure 16
0000
0000
0000
0000
0001
0001
0000
1000
1030
0001
0010
0100
2001
0000
0000
0000
,  // measure 17
3001
0000
0001
0100
0040
0000
1000
0000
0000
0000
0100
0000
0000
0000
0031
0000
0010
0000
0010
0000
0010
0000
0010
0000
1000
0000
1000
0001
0040
0000
1000
0000
,  // measure 18
0000
0100
0000
0001
0000
0130
0100
0100
2000
0001
3000
0000
1200
0000
0000
0000
,  // measure 19
1300
0000
1000
0001
0400
0000
1000
0000
0000
0000
0010
0000
0000
0000
0301
0000
0100
0000
0100
0000
0100
0000
0100
0000
0001
0000
0001
1000
0400
0000
0001
0000
,  // measure 20
0000
0010
0000
1000
0000
0310
0010
0010
0002
1000
0003
1001
0000
0000
1001
0000
,  // measure 21
1000
0000
1000
0010
0400
0000
1000
0000
0000
0000
0010
0000
0000
0000
0301
0000
2000
0000
3200
0000
0320
0000
0000
0000
0031
0000
0001
1000
0400
0000
0001
0000
,  // measure 22
0000
0010
0000
1000
0000
0310
0010
0010
0002
1000
0003
0000
0102
0000
0000
0000
,  // measure 23
1003
0000
1000
0100
0040
0000
1000
0000
0000
0000
0100
0000
0000
0000
0031
0000
2000
0000
0010
0000
0010
0000
3010
0000
1000
0000
1000
0001
0400
0000
1000
0000
,  // measure 24
0000
0010
0000
0301
1000
1000
0000
0001
0001
0010
0100
1000
1002
0000
0000
0000
,  // measure 25
0103
0000
0100
0010
0004
0000
0010
0000
0000
0000
1000
0000
0000
0000
0013
0000
1000
0000
1000
0000
1000
0000
1000
0000
0100
0000
0100
0010
4000
0000
0001
0000
,  // measure 26
0000
0010
0000
0001
0000
3010
0010
0010
0200
1000
0300
0000
1002
0000
0000
0000
,  // measure 27
0013
0000
0010
0100
0004
0000
0100
0000
0000
0000
1000
0000
0000
0000
0103
0000
1000
0000
1000
0000
1000
0000
1000
0000
0010
0000
0010
0100
4000
0000
0001
0000
,  // measure 28
0000
0100
0000
0001
0000
3100
0100
0100
0020
1000
0030
1001
0000
0000
1001
0000
,  // measure 29
0001
0000
0001
0100
4000
0000
0001
0000
0000
0000
0100
0000
0000
0000
3001
0000
2000
0000
3200
0000
0302
0000
0000
0000
1003
0000
1000
0100
0004
0000
1000
0000
,  // measure 30
0000
0100
0000
1000
0000
0103
0100
0100
2000
0001
3000
0000
1002
0000
0000
0000
,  // measure 31
1003
0000
1000
0010
0004
0000
0010
0000
0000
0000
1000
0000
0000
0000
0013
0000
2000
0000
0010
0000
0010
0000
3010
0000
1000
0000
1000
0100
0004
0000
0100
0000
,  // measure 32
0000
1000
0000
0103
1000
0001
0001
0001
1000
0010
0100
0110
0000
0000
0220
0000
,  // measure 33
0330
0000
0001
0100
0010
1000
0200
0001
0000
0310
0000
0110
0000
0000
0220
0000
,  // measure 34
0330
0000
0000
1000
0010
0100
0020
0001
0000
0130
0000
0110
0000
0000
0220
0000
,  // measure 35
0330
0000
0000
0000
0001
0000
0010
0000
0100
0000
1000
0000
0020
0000
0001
0000
0000
0000
0130
0000
0001
0100
0010
1000
0001
0000
0000
0000
0000
0000
0010
0000
,  // measure 36
0120
0000
0000
0000
1000
0000
1000
0000
0000
0000
0001
0000
0031
0000
1000
0000
1001
0000
0000
0000
1100
0000
0000
0000
0100
0000
0001
0100
0000
0000
1000
0100
,  // measure 37
0000
0000
0001
0100
0000
0000
1000
0100
0000
0000
0001
0000
0100
0010
0100
1000
0001
0000
0000
0000
0101
0000
0000
0000
0100
0000
1000
0100
0000
0000
0001
0100
,  // measure 38
0000
0000
1000
0100
0000
0000
0001
0100
0000
0000
1000
0000
0100
0010
0100
0001
1000
0000
0000
0000
1000
0000
0000
0000
0001
0000
0001
0000
0010
0000
0010
0000
,  // measure 39
0100
0000
1000
0001
0100
0010
0100
0010
1000
0001
1000
0001
1000
0001
1000
0001
0020
0000
0000
0000
0000
0000
0000
0000
0000
0000
0000
0000
0000
0000
0000
0000
,  // measure 40
1000
0000
1000
0000
0000
0000
0001
0000
0031
0000
1000
0000
0010
0000
0100
0000
1002
0000
0000
0000
0000
0000
0000
0000
1003
0000
1000
0100
0010
0000
0011
0000
,  // measure 41
MMMM
0000
0101
0000
MMMM
0000
1010
0000
1000
0000
1000
0000
1000
0000
1000
0000
0001
0000
0001
0100
0010
0000
1010
0000
MMMM
0000
1100
0000
MMMM
0000
0011
0000
,  // measure 42
0000
0000
1000
0000
1000
0000
1000
0000
0200
0000
0010
0000
0300
0000
0000
0000
0021
0000
0000
0000
0000
0000
0000
0000
0031
0000
0001
1000
0100
0000
1100
0000
,  // measure 43
MMMM
0000
1010
0000
MMMM
0000
0101
0000
0001
0000
0001
0000
0001
0000
0001
0000
1000
0000
1000
0001
0010
0000
0011
0000
MMMM
0000
1100
0000
MMMM
0000
1010
0000
,  // measure 44
0000
0000
0001
0000
0001
0000
0001
0000
0200
0000
0010
0000
0300
0000
1001
0000
0000
0000
0000
0000
1001
0000
0000
0000
1000
0000
1000
0100
0010
0000
0011
0000
,  // measure 45
MMMM
0000
0101
0000
MMMM
0000
1010
0000
2000
0000
3020
0000
0230
0000
0000
0000
0301
0000
0001
1000
0100
0000
1100
0000
MMMM
0000
1010
0000
MMMM
0000
0101
0000
,  // measure 46
0000
0000
1000
0000
1000
0000
1000
0000
0200
0000
0010
0000
0300
0000
0000
0000
2100
0000
0000
0000
0000
0000
0000
0000
3001
0000
0001
1000
0010
0000
1010
0000
,  // measure 47
MMMM
0000
0101
0000
MMMM
0000
0011
0000
0002
0000
1000
0000
1000
0000
1003
0000
0001
0000
0001
1000
0100
0000
1100
0000
MMMM
0000
0011
0000
MMMM
0000
0101
0000
,  // measure 48
0001
0000
0001
0000
0000
0000
1000
0000
1000
0000
0010
0000
0100
0000
0001
0000
2001
0000
0000
0000
0000
0000
0000
0000
3100
0000
0100
0010
1000
0000
1010
0000
,  // measure 49
MMMM
0000
0110
0000
MMMM
0000
0011
0000
0001
0000
0001
0000
0001
0000
0001
0000
0100
0000
0100
0010
0001
0000
0011
0000
MMMM
0000
0110
0000
MMMM
0000
1010
0000
,  // measure 50
0000
0000
1000
0000
1000
0000
1000
0000
0200
0000
0010
0000
0300
0000
0000
0000
1002
0000
0000
0000
0000
0000
0000
0000
0013
0000
0010
0100
0001
0000
0101
0000
,  // measure 51
MMMM
0000
1100
0000
MMMM
0000
0110
0000
1000
0000
1000
0000
1000
0000
1000
0000
0010
0000
0010
0100
1000
0000
1100
0000
MMMM
0000
0101
0000
MMMM
0000
0110
0000
,  // measure 52
0000
0000
0100
0000
0100
0000
0100
0000
0020
0000
1000
0000
0030
0000
1001
0000
0000
0000
0000
0000
1001
0000
0000
0000
1000
0000
1000
0010
0001
0000
0011
0000
,  // measure 53
MMMM
0000
1010
0000
MMMM
0000
1100
0000
0200
0000
0320
0000
0032
0000
0000
0000
1003
0000
1000
0100
0001
0000
0101
0000
MMMM
0000
1100
0000
MMMM
0000
1010
0000
,  // measure 54
0000
1000
1000
1000
0002
0100
0003
0000
0101
0000
0100
0001
0011
0000
1100
0000
,  // measure 55
0100
1000
1010
0000
0101
0000
1001
0000
1010
0000
0010
1000
1100
0000
0011
0001
,  // measure 56
1000
0010
0010
0010
0001
0010
1000
1001
0000
0000
2002
0000
3003
0000
0000
0000
;

//---------------dance-double - ----------------
#NOTEDATA:;
#CHARTNAME:;
#STEPSTYPE:dance-double;
#DESCRIPTION:;
#CHARTSTYLE:;
#DIFFICULTY:Challenge;
#METER:17;
#RADARVALUES:0.801409,0.850751,0.362945,0.599648,1.483340,711.000000,665.000000,46.000000,76.000000,108.000000,0.000000,16.000000,0.000000,0.000000,0.801409,0.850751,0.362945,0.599648,1.483340,711.000000,665.000000,46.000000,76.000000,108.000000,0.000000,16.000000,0.000000,0.000000;
#CREDIT:Kekkle;
#NOTES:
00000000
00000000
00000000
00000000
,
00000000
00000000
00000000
00000000
,
00000000
00000000
00000000
00000000
,
00000000
00000000
00000000
00000000
,
00002000
00000000
00000000
00000000
00100000
00000000
00000000
00000000
00010000
00000000
00000000
00000000
01003000
00001000
00010000
00012000
,
00000000
00000000
01003000
00100000
10000000
00010000
00100000
01000000
,
00020000
00000000
01000000
00000000
00001000
00000000
00030100
00000000
00000000
00010000
00010000
00000000
00000000
00001000
00001000
00000000
,
00000000
00000000
00000000
00000000
00000100
00000000
00000000
00000000
00000000
00000000
00000000
00000000
00000001
00000000
00000001
00000000
00000000
00000000
00001000
00000001
00001000
00000000
00000001
00000000
00000100
00000010
00000100
00000000
00001000
00000000
00010000
00000000
,
00100000
01000000
00010000
00000000
10000000
00010000
00100000
00000000
01000000
10000000
01000000
10000000
01000000
10000000
00010000
00000000
00200000
00000000
00000000
00000000
00302000
00000000
00000000
00000000
00013000
00000000
00000010
00000000
00000100
00000000
00000110
00000000
,
00000000
00000000
00000220
00000000
00000330
00000000
00000001
00000100
00000010
00010000
00002000
00000100
00000000
01003000
00000000
01100000
,
00000000
00000000
02200000
00000000
03300000
00000000
00000000
10000000
01000000
00010000
00002000
01000000
00000000
00003100
00000000
00000110
,
00000000
00000000
00000000
00000000
00000220
00000000
00000000
00000000
00000330
00000000
00000000
00000000
00000001
00000000
00000010
00000000
00000100
00000000
00010000
00000000
00002000
00000000
00000010
00000000
00000000
00000000
00103000
00000000
00010000
10000000
00010000
10000000
,
00100000
00000000
00000000
01000000
01200000
00000000
00010000
00010000
00000000
10000000
10300000
00000000
10020000
00000000
00000000
00000000
,
00130000
00000000
01000000
00100000
00000000
00000000
00100000
00001000
00000000
00000000
00001000
00010000
00000000
00000000
00010000
00000100
00000000
00000000
00000100
00000000
00000010
00000001
00001000
00000001
00002000
00000000
00000000
00000000
00003001
00000000
00000000
00000000
,
00000100
00000000
00000001
00000100
00000000
00000000
00000100
00000010
00000000
00000000
00000010
00010000
00000000
00000000
00010000
00001000
00000000
00000000
00001000
00000000
00100000
00010000
10000000
00010000
10000000
00000000
00000000
00000000
10000000
00000000
00000000
00000000
,
00010000
00000000
00010000
00000000
01000000
00000000
01000000
00000000
00001000
00000000
00010000
00000100
00001000
00000000
00000100
00000010
00000001
00000000
00001000
00000010
00000100
00000010
00000100
00000010
00000200
00000000
00000000
00000000
00000000
00000000
00000000
00000000
,
00000000
00000000
00000000
00000000
00001000
00001000
00000000
00000001
00000301
00001000
00000100
00010000
00012000
00000000
00000000
00000000
,
01003000
00000000
00010000
01000000
00400000
00000000
00010000
00000000
00000000
00000000
01000000
00000000
00000000
00000000
10000000
00300000
00010000
00000000
00010000
00000000
00010000
00000000
00010000
00000000
01000000
00000000
00001000
00010000
00000400
00000000
00010000
00000000
,
00000000
00001000
00000000
00000010
00000000
00001300
00001000
00001000
00000002
00000100
00000003
00000000
00002002
00000000
00003003
00000000
,
00000001
00000000
00000100
00000010
00004000
00000000
00000010
00000000
00000000
00000000
00000001
00000000
00000000
00000000
00003100
00000000
00010000
00000000
00010000
00000000
00010000
00000000
00010000
00000000
00001000
00000000
00100000
00010000
40000000
00000000
00100000
00000000
,
00000000
00010000
00000000
01000000
00000000
30010000
00010000
00010000
02000000
00001000
03000000
00011000
00000000
00000000
00011000
00000000
,
00010000
00000000
00000100
00000010
00000004
00000000
00000010
00000000
00000000
00000000
00001000
00000000
00000000
00000000
00000103
00000000
00000002
00000000
00000203
00000000
00002300
00000000
00000000
00000000
00013000
00000000
00100000
01000000
00040000
00000000
10000000
00000000
,
00000000
00100000
00000000
10000000
00000000
01030000
01000000
01000000
00002000
01000000
00003000
00000000
00022000
00000000
00033000
00000000
,
00010000
00000000
00000100
00001000
00000004
00000000
00000100
00000000
00000000
00000000
00001000
00000000
00000000
00000000
00000013
00000000
00000200
00000000
00001000
00000000
00001000
00000000
00001300
00000000
00000001
00000000
00000100
00000010
00040000
00000000
00000010
00000000
,
00000000
00001000
00000000
00130000
01000000
01000000
00000000
00100000
00100000
10000000
00010000
00100000
00102000
00000000
00000000
00000000
,
00013000
00000000
00001000
00010000
00400000
00000000
00010000
00000000
00000000
00000000
01000000
00000000
00000000
00000000
10300000
00000000
00010000
00000000
00010000
00000000
00010000
00000000
00010000
00000000
00100000
00000000
01000000
00010000
00004000
00000000
01000000
00000000
,
00000000
00010000
00000000
00000100
00000000
00013000
00010000
00010000
00000200
00000010
00000300
00000000
00002002
00000000
00003003
00000000
,
00000001
00000000
00000010
00001000
00040000
00000000
00000010
00000000
00000000
00000000
00001000
00000000
00000000
00000000
00130000
00000000
10000000
00000000
10000000
00000000
10000000
00000000
10000000
00000000
00010000
00000000
00100000
01000000
00040000
00000000
01000000
00000000
,
00000000
00001000
00000000
00000100
00000000
00031000
00001000
00001000
00000200
00000010
00000300
00001001
00000000
00000000
00001001
00000000
,
00000001
00000000
00000100
00000010
00000004
00000000
00001000
00000000
00000000
00000000
00000010
00000000
00000000
00000000
00001003
00000000
00000200
00000000
00000320
00000000
00020030
00000000
00000000
00000000
00031000
00000000
00100000
01000000
00040000
00000000
10000000
00000000
,
00000000
01000000
00000000
10000000
00000000
01030000
01000000
01000000
00200000
00001000
00300000
00000000
00022000
00000000
00033000
00000000
,
00010000
00000000
00001000
00000100
00000004
00000000
00000100
00000000
00000000
00000000
00001000
00000000
00000000
00000000
00000013
00000000
00000200
00000000
00010000
00000000
00010000
00000000
00010300
00000000
00001000
00000000
00010000
00100000
40000000
00000000
00100000
00000000
,
00000000
00010000
00000000
01000000
00000000
30010000
00010000
00010000
10000000
00100000
01000000
01100000
00000000
00000000
02200000
00000000
,
03300000
00000000
10000000
01000000
00100000
00001000
00020000
00100000
00000000
00030010
00000000
00000110
00000000
00000000
00000220
00000000
,
00000330
00000000
00000000
00000001
00000010
00001000
00020000
00000010
00000000
00130000
00000000
01100000
00000000
00000000
02200000
00000000
,
03300000
00000000
00000000
00000000
10000000
00000000
00100000
00000000
01000000
00000000
00001000
00000000
00020000
00000000
01000000
00000000
00000000
00000000
00030100
00000000
00001000
00000001
00001000
00000001
00000100
00000000
00000000
00000000
00000000
00000000
00000010
00000000
,
00000210
00000000
00000000
00000000
00001000
00000000
00001000
00000000
00000000
00000000
00000001
00000000
00000301
00000000
00000000
00000000
00001001
00000000
00000000
00000000
00000110
00000000
00000000
00000000
00000001
00000000
00000100
00001000
00000000
00000000
00000100
00000001
,
00000000
00000000
00000100
00001000
00000000
00000000
00000100
00000001
00000000
00000000
00000100
00000000
00001000
00010000
00001000
00010000
00100000
00000000
00000000
00000000
10010000
00000000
00000000
00000000
10000000
00000000
01000000
00010000
00000000
00000000
01000000
10000000
,
00000000
00000000
01000000
00010000
00000000
00000000
01000000
10000000
00000000
00000000
01000000
00000000
00010000
00001000
00010000
00001000
00000010
00000000
00000000
00000000
00000010
00000000
00000000
00000000
00000001
00000000
00000001
00000000
00001000
00000000
00001000
00000000
,
00000010
00000000
00000100
00000010
00010000
00000000
00000010
00010000
00001000
00010000
00001000
00100000
00010000
00100000
00010000
10000000
00200000
00000000
00000000
00000000
00000000
00000000
00000000
00000000
00000000
00000000
00000000
00000000
00000000
00000000
00000000
00000000
,
00010000
00000000
00010000
00000000
00000000
00000000
10000000
00000000
10300000
00000000
00010000
00000000
00100000
00000000
00001000
00000000
00012000
00000000
00000000
00000000
00000000
00000000
00000000
00000000
00013000
00000000
00000010
00010000
00001000
00000000
00000100
00000000
,
0001MMMM
00000000
01000000
00000000
MMMM1000
00000000
00000100
00000000
00000010
00000000
00000010
00000000
00000010
00000000
00000010
00000000
00010000
00000000
00000100
00010000
00001000
00000000
00100000
00000000
00010000
00000000
MMMM0010
00000000
00001000
00000000
0010MMMM
00000000
,
00010000
00000000
10000000
00000000
10000000
00000000
10000000
00000000
00200000
00000000
01000000
00000000
00300000
00000000
00000000
00000000
20020000
00000000
00000000
00000000
30030000
00000000
00000000
00000000
00010000
00000000
00100000
00001000
00010000
00000000
00001000
00000000
,
00000010
00000000
0001MMMM
00000000
00100000
00000000
MMMM1000
00000000
00000010
00000000
00000010
00000000
00000010
00000000
00000010
00000000
00000001
00000000
00001000
00000010
00010000
00000000
00100000
00000000
MMMM1000
00000000
00000010
00000000
0001MMMM
00000000
00100000
00000000
,
01000000
00000000
00010000
00000000
00010000
00000000
00010000
00000000
20000000
00000000
01000000
00000000
30000000
00000000
10010000
00000000
00000000
00000000
00000000
00000000
10010000
00000000
00000000
00000000
00010000
00000000
01000000
00001000
00010000
00000000
00001000
00000000
,
00000100
00000000
0001MMMM
00000000
01000000
00000000
MMMM1000
00000000
00000200
00000000
00000320
00000000
00002030
00000000
00000000
00000000
00003001
00000000
00000010
00000100
00010000
00000000
00001000
00000000
00000010
00000000
0001MMMM
00000000
00100000
00000000
MMMM1000
00000000
,
00000010
00000000
00000100
00000000
00000100
00000000
00000100
00000000
00002000
00000000
00000001
00000000
00003000
00000000
00000000
00000000
00002002
00000000
00000000
00000000
00003003
00000000
00000000
00000000
00001000
00000000
00000010
00010000
00001000
00000000
00000100
00000000
,
0001MMMM
00000000
01000000
00000000
MMMM1000
00000000
00000100
00000000
00000020
00000000
00001000
00000000
00001000
00000000
00001030
00000000
00000001
00000000
00000100
00000010
00010000
00000000
00001000
00000000
00000010
00000000
0001MMMM
00000000
00100000
00000000
01000000
00000000
,
10000000
00000000
10000000
00000000
00000000
00000000
00010000
00000000
00010000
00000000
01000000
00000000
00100000
00000000
00010000
00000000
00012000
00000000
00000000
00000000
00000000
00000000
00000000
00000000
00103000
00000000
01000000
00010000
00001000
00000000
00100000
00000000
,
00010000
00000000
MMMM0010
00000000
00001000
00000000
0010MMMM
00000000
00010000
00000000
00010000
00000000
00010000
00000000
00010000
00000000
10000000
00000000
00100000
00010000
00001000
00000000
01000000
00000000
00010000
00000000
MMMM0100
00000000
00001000
00000000
0100MMMM
00000000
,
00010000
00000000
10000000
00000000
10000000
00000000
10000000
00000000
02000000
00000000
00100000
00000000
03000000
00000000
00000000
00000000
00202000
00000000
00000000
00000000
00303000
00000000
00000000
00000000
00001000
00000000
00010000
00001000
00000010
00000000
00001000
00000000
,
0010MMMM
00000000
00010000
00000000
MMMM0010
00000000
00001000
00000000
00010000
00000000
00010000
00000000
00010000
00000000
00010000
00000000
00001000
00000000
00010000
00001000
00000100
00000000
00001000
00000000
0100MMMM
00000000
00010000
00000000
MMMM0100
00000000
00001000
00000000
,
00010000
00000000
00000100
00000000
00000100
00000000
00000100
00000000
00002000
00000000
00000001
00000000
00003000
00000000
00001001
00000000
00000000
00000000
00000000
00000000
00001001
00000000
00000000
00000000
00001000
00000000
00000001
00000100
00001000
00000000
0001MMMM
00000000
,
00100000
00000000
MMMM1000
00000000
00000010
00000000
00010000
00000000
00200000
00000000
02300000
00000000
03020000
00000000
00000000
00000000
10030000
00000000
00010000
00100000
10000000
00000000
00100000
00000000
00010000
00000000
MMMM0010
00000000
00001000
00000000
0010MMMM
00000000
,
00010000
10000000
10000000
10000000
00200000
01000000
00300000
00000000
10010000
00000000
10000000
00100000
00010000
00000000
00011000
00000000
,
00001000
00000010
00000001
00000000
00001001
00000000
00000110
00000000
00001001
00000000
00000001
00000100
00001000
00000000
00011000
00000000
,
00010000
01000000
01000000
01000000
10000000
00010000
00000000
10010000
00000000
00000000
20020000
00000000
30030000
00000000
00000000
00000000
;

//---------------dance-single - ----------------
#NOTEDATA:;
#CHARTNAME:;
#STEPSTYPE:dance-single;
#DESCRIPTION:;
#CHARTSTYLE:;
#DIFFICULTY:Hard;
#METER:14;
#RADARVALUES:0.733780,0.738810,0.773230,0.504967,1.159846,651.000000,553.000000,98.000000,64.000000,0.000000,0.000000,0.000000,0.000000,0.000000,0.733780,0.738810,0.773230,0.504967,1.159846,651.000000,553.000000,98.000000,64.000000,0.000000,0.000000,0.000000,0.000000,0.000000;
#CREDIT:Kekkle;
#NOTES:
0000
0000
0000
0000
,
0000
0000
0000
0000
,
0000
0000
0000
0000
,
0000
0000
0000
0000
,
2000
0000
0000
0000
0001
0000
0000
0000
0100
0000
0000
0000
3001
0000
0010
0200
,
0000
0000
1300
0000
0001
0100
0010
0000
,
0200
0000
0001
0000
0310
0000
0000
0000
1000
0100
0010
0000
0001
0100
0010
0000
,
1000
0010
0100
0000
0001
1000
0100
0100
0000
0010
0001
1000
0010
0100
0010
0000
,
0100
1000
0100
1000
0100
0001
0100
0000
0110
0000
0110
0000
1001
0000
0000
1100
,
0000
0000
1100
0000
0000
0000
0100
0010
0001
0010
0100
2000
0000
3010
0000
1010
,
0000
0000
1010
0000
0000
0000
0000
1000
0010
0100
0001
0020
0000
0031
0000
0011
,
0000
0000
0011
0000
0000
0000
0010
0100
1000
0100
0010
0002
0000
0103
0010
0100
,
0110
0000
0000
0000
1001
0000
0000
0110
0000
0000
1001
0000
2000
0000
0100
0000
,
3001
0000
1000
0010
0100
0001
0010
0200
0000
0310
0100
1000
1001
0000
0110
0000
,
0001
0000
1000
0100
0010
0001
0100
0020
0000
1030
0001
0010
0100
0000
0100
0000
,
1000
0001
1000
0001
0100
1000
0100
1000
0100
0001
0100
0001
0020
0000
0000
0000
,
0000
0000
0000
0000
0130
0100
0000
1000
0001
0100
0010
0100
0220
0000
0330
0000
,
0010
0100
0001
0020
0000
1000
0000
0031
1000
0010
1000
0010
0100
0001
0010
0200
,
0000
0001
0000
1000
0000
0310
0001
0010
0001
0200
0300
0000
0220
0000
0330
0000
,
0100
0010
1000
0200
0000
0001
0000
1300
0001
0100
0001
0100
0010
1000
0100
0020
,
0000
1000
0000
0001
0000
0130
1000
0100
1000
0010
0000
0110
0000
0000
1001
0000
,
0001
0100
0001
0020
0000
1000
0000
0031
0100
0010
0100
0000
0001
0010
0001
0200
,
0000
1000
0000
0001
0000
0310
1000
0010
1000
0200
0300
0000
0220
0000
0330
0000
,
0010
0001
0100
0020
0000
0001
0000
1030
0001
0001
0001
0001
0010
0100
1000
0020
,
0000
0001
0000
1030
0001
0001
0000
1000
0100
0010
0001
1000
2002
0000
3003
0000
,
0001
0100
1000
0200
0000
1000
0000
0301
1000
0100
1000
0100
0010
0100
0001
0200
,
0000
1000
0000
0001
0000
0310
0001
0010
0001
0200
0300
0000
0220
0000
0330
0000
,
0100
0010
0001
0020
0000
0001
0000
1030
0001
0010
0001
0010
0100
0010
1000
0020
,
0000
0001
0000
1000
0000
0130
1000
0100
1000
0010
0000
0110
0000
0000
1001
0000
,
0001
0100
1000
0002
0000
1000
0000
0013
0100
0001
0010
0000
0001
0010
1000
0002
,
0000
0100
0000
1000
0000
0103
1000
0100
1000
0020
0030
0000
0220
0000
0330
0000
,
1000
0010
0001
2000
0000
0001
0000
3100
0001
0001
0001
0001
1000
0100
0001
2000
,
0000
0010
0000
0001
0000
3010
0001
0010
0001
0100
0000
0101
0000
0000
0101
0000
,
0000
0000
0001
0100
0010
1000
0100
0020
0000
0031
0000
0011
0000
0000
0011
0000
,
0000
0000
0000
0001
0010
0100
1000
0020
0000
1030
0000
1010
0000
0000
1010
0000
,
0000
0000
1000
0010
0100
0001
0010
0200
0000
1300
0001
1000
1001
0000
0000
0000
,
0110
0000
0000
0000
0000
0000
1001
0000
0000
0000
0000
0000
0110
0000
0000
0000
1000
0000
0000
0000
1000
0000
0000
0000
0100
0000
0000
0000
0100
0000
0001
0100
,
0000
0000
1000
0100
0000
0000
0020
0000
0000
0000
0031
0000
0100
0000
0010
0000
0110
0000
0000
0000
0100
0000
0000
0000
0001
0000
0000
0000
0001
0000
0100
1000
,
0000
0000
0100
0010
0000
0000
2000
0000
0000
0000
3001
0000
0010
0000
0100
0000
1000
0000
0000
0000
1000
0000
0000
0000
0001
0000
0100
0000
0001
0000
0100
0000
,
0010
0001
0010
0001
0010
1000
0010
1000
0200
0000
0000
0000
0000
0000
0000
0000
,
0310
0000
0010
0000
0000
0000
0001
0000
1000
0000
0010
0000
0100
0000
0001
0000
2002
0000
0000
0000
3003
0000
0000
0000
1000
0000
0000
0010
0100
0000
0101
0000
,
0000
0000
0011
0000
0000
0000
0101
0000
0100
0000
0010
0000
0100
0000
0010
0000
1000
0000
0000
0100
0010
0000
0011
0000
0000
0000
0101
0000
0000
0000
0011
0000
,
0000
0000
0010
0000
0001
0000
0010
0000
0001
0000
0200
0000
0300
0000
0000
0000
0220
0000
0000
0000
0330
0000
0000
0000
0010
0000
0000
1000
0100
0000
1100
0000
,
0000
0000
1010
0000
0000
0000
1100
0000
0100
0000
0010
0000
0100
0000
0010
0000
0001
0000
0000
0100
0010
0000
1010
0000
0000
0000
1100
0000
0000
0000
1010
0000
,
0000
0000
0010
0000
1000
0000
0010
0000
1000
0000
0100
0000
0000
0000
0110
0000
0000
0000
0000
0000
1001
0000
0000
0000
0001
0000
0000
0010
0100
0000
1100
0000
,
0000
0000
1010
0000
0000
0000
0110
0000
0010
0000
1000
0000
0100
0000
0000
0000
1000
0000
0000
0100
0010
0000
0011
0000
0000
0000
0101
0000
0000
0000
0110
0000
,
0000
0000
0100
0000
0001
0000
0100
0000
0001
0000
0020
0000
0030
0000
0000
0000
0220
0000
0000
0000
0330
0000
0000
0000
0100
0000
0000
1000
0001
0000
0101
0000
,
0000
0000
0011
0000
0000
0000
1001
0000
1000
0000
1000
0000
1000
0000
1000
0000
0001
0000
0000
0100
0010
0000
1010
0000
0000
0000
1100
0000
0000
0000
1001
0000
,
0001
0000
0001
0000
0000
0000
1000
0000
0010
0000
0100
0000
0001
0000
1000
0000
2002
0000
0000
0000
3003
0000
0000
0000
0001
0000
0000
0010
0100
0000
1001
0000
,
0000
0000
1100
0000
0000
0000
1010
0000
0010
0000
0100
0000
0010
0000
0100
0000
0001
0000
0000
1000
0100
0000
0011
0000
0000
0000
1100
0000
0000
0000
1010
0000
,
0000
0000
0010
0000
1000
0000
0010
0000
1000
0000
0200
0000
0300
0000
0000
0000
0220
0000
0000
0000
0330
0000
0000
0000
0010
0000
0000
0001
0100
0000
1010
0000
,
0000
0000
1100
0000
0000
0000
1001
0000
0001
0000
0100
0000
0001
0000
0100
0000
0010
0000
0000
1000
0100
0000
0011
0000
0000
0000
0101
0000
0000
0000
0110
0000
,
0000
0000
0100
0000
0001
0000
0100
0000
0001
0000
0010
0000
0000
0000
0110
0000
0000
0000
0000
0000
1001
0000
0000
0000
1000
0000
0000
0010
0100
0000
1100
0000
,
0000
0000
0101
0000
0000
0000
0110
0000
0100
0000
0001
0000
0010
0000
0000
0000
0001
0000
0000
0010
0100
0000
0101
0000
0000
0000
1100
0000
0000
0000
0110
0000
,
0000
0010
0001
0010
0001
0200
0300
0000
0110
0000
0000
0010
1010
0000
0101
0000
,
0000
0001
0011
0000
1100
0000
0110
0000
1001
0000
0000
1000
1010
0000
0101
0000
,
0001
0010
0100
0010
0100
1000
0010
0110
0000
0000
2002
0000
3003
0000
0000
0000
;

//---------------dance-double - ----------------
#NOTEDATA:;
#CHARTNAME:;
#STEPSTYPE:dance-double;
#DESCRIPTION:;
#CHARTSTYLE:;
#DIFFICULTY:Hard;
#METER:15;
#RADARVALUES:0.742797,0.738810,0.820571,0.544417,1.163791,659.000000,555.000000,104.000000,69.000000,0.000000,0.000000,0.000000,0.000000,0.000000,0.742797,0.738810,0.820571,0.544417,1.163791,659.000000,555.000000,104.000000,69.000000,0.000000,0.000000,0.000000,0.000000,0.000000;
#CREDIT:Kekkle;
#NOTES:
00000000
00000000
00000000
00000000
,
00000000
00000000
00000000
00000000
,
00000000
00000000
00000000
00000000
,
00000000
00000000
00000000
00000000
,
00020000
00000000
00000000
00000000
00001000
00000000
00000000
00000000
00001000
00000000
00000000
00000000
00031000
00000000
00010000
00002000
,
00000000
00000000
00013000
00000000
00000100
00000010
00000001
00000000
,
00000200
00000000
00000001
00000000
00000310
00000000
00000000
00000000
00001000
00000010
00010000
00000000
00001000
00100000
00010000
00000000
,
00100000
00001000
00010000
00000000
00001000
00010000
00000010
00000010
00000000
00000100
00000100
00000001
00000100
00000010
00010000
00000000
,
00001000
00010000
00001000
00010000
00100000
00010000
00100000
00010000
00011000
00000000
00011000
00000000
00101000
00000000
00000000
01100000
,
00000000
00000000
02200000
00000000
03300000
00000000
10000000
01000000
10000000
01000000
00010000
00002000
00000000
00003010
00000000
00000110
,
00000000
00000000
00000220
00000000
00000330
00000000
00000000
00000001
00000100
00000001
00000100
00002000
00000000
00013000
00000000
01100000
,
00000000
00000000
02200000
00000000
03300000
00000000
10000000
00100000
10000000
00100000
00010000
00002000
00000000
00003100
00000010
00000100
,
00000110
00000000
00000000
00000000
00001001
00000000
00000000
00000110
00000000
00000000
00001001
00000000
00000001
00000000
00000100
00000000
,
00001100
00000000
00001000
00010000
00001000
00010000
00100000
20000000
00000000
31000000
00100000
01000000
01100000
00000000
10010000
00000000
,
10000000
00000000
01000000
00010000
00001000
00010000
00001000
00000020
00000000
00000031
00001000
00000010
00000100
00000000
00000100
00000000
,
00000010
00010000
00000010
00010000
00001000
00100000
00001000
00100000
10000000
00100000
10000000
00100000
00020000
00000000
00000000
00000000
,
00000000
00000000
00000000
00000000
10030000
10000000
00000000
00010000
01000000
00100000
10000000
00010000
20020000
00000000
30030000
00000000
,
10000000
01000000
00010000
00002000
00000000
00000010
00000000
00013000
00000010
00001000
00000010
00001000
00000001
00000100
00001000
00020000
,
00000000
00100000
00000000
00001000
00000000
00130000
10000000
00100000
10000000
02000000
03000000
00000000
20020000
00000000
30030000
00000000
,
10000000
00100000
00010000
00002000
00000000
00000100
00000000
00013000
00000100
00001000
00000100
00001000
00000001
00000010
00001000
00020000
,
00000000
01000000
00000000
00001000
00000000
01030000
10000000
01000000
10000000
00100000
00000000
01100000
00000000
00000000
10010000
00000000
,
10000000
01000000
00010000
00002000
00000000
00000100
00000000
00013000
00000100
00000010
00000110
00000000
00000001
00000100
00001000
00020000
,
00000000
01000000
00000000
00001000
00000000
01030000
10000000
01000000
10000000
00200000
00300000
00000000
20020000
00000000
30030000
00000000
,
10000000
00100000
00010000
00002000
00000000
00000010
00000000
00013000
00000100
00000100
00000010
00000010
00000001
00000010
00001000
00020000
,
00000000
00100000
00000000
00031000
00010000
00010000
00000000
00100000
10000000
00010000
00100000
01000000
02200000
00000000
03300000
00000000
,
00100000
00001000
00010000
00200000
00000000
00001000
00000000
01300000
00001000
00010000
00001000
00010000
00000100
00010000
00001000
00000200
,
00000000
00010000
00000000
00000001
00000000
00000310
00001000
00000010
00001000
00000200
00000300
00000000
00000220
00000000
00000330
00000000
,
00000100
00010000
00001000
00000200
00000000
00010000
00000000
00000310
00010000
00001000
00010000
00001000
00100000
00001000
00010000
00200000
,
00000000
00001000
00000000
10000000
00000000
01300000
00010000
01000000
00010000
00100000
00000000
01100000
00000000
00000000
10010000
00000000
,
10000000
00010000
00100000
20000000
00000000
00010000
00000000
30100000
00001000
00010000
00011000
00000000
00000001
00001000
00000010
00000002
,
00000000
00001000
00000000
00000010
00000000
00001003
00010000
00001000
00010000
00000020
00000030
00000000
00022000
00000000
00033000
00000000
,
00010000
01000000
10000000
00200000
00000000
00010000
00000000
10300000
00010000
00010000
01000000
01000000
00001000
00000100
00000001
00000020
,
00000000
00001000
00000000
00000031
00000100
00000010
00001000
00010000
01000000
00100000
00000000
01100000
00000000
00000000
01100000
00000000
,
00000000
00000000
10000000
00100000
10000000
00100000
00010000
00002000
00000000
00003010
00000000
00000110
00000000
00000000
00000110
00000000
,
00000000
00000000
00000000
00000001
00000010
00000001
00000010
00002000
00000000
00013000
00000000
01100000
00000000
00000000
01100000
00000000
,
00000000
00000000
10000000
01000000
10000000
01000000
00010000
00002000
00000000
00003100
00000001
00001000
00001001
00000000
00000000
00000000
,
00000110
00000000
00000000
00000000
00000000
00000000
00001001
00000000
00000000
00000000
00000000
00000000
00000110
00000000
00000000
00000000
00000001
00000000
00000000
00000000
00000001
00000000
00000000
00000000
00000100
00000000
00000000
00000000
00000100
00000000
00001000
00010000
,
00000000
00000000
00100000
00010000
00000000
00000000
00002000
00000000
00000000
00000000
00103000
00000000
01000000
00000000
10000000
00000000
10010000
00000000
00000000
00000000
01100000
00000000
00000000
00000000
10000000
00000000
00000000
00000000
10000000
00000000
01000000
00010000
,
00000000
00000000
00001000
00010000
00000000
00000000
00200000
00000000
00000000
00000000
00310000
00000000
00001000
00000000
00000010
00000000
00000001
00000000
00000000
00000000
00000001
00000000
00000000
00000000
00001000
00000000
00000010
00000000
00001000
00000000
00000010
00000000
,
00000100
00010000
00000100
00010000
01000000
00010000
01000000
00010000
00200000
00000000
00000000
00000000
00000000
00000000
00000000
00000000
,
01300000
00000000
01000000
00000000
00000000
00000000
10000000
00000000
00010000
00000000
01000000
00000000
00100000
00000000
10000000
00000000
20020000
00000000
00000000
00000000
30030000
00000000
00000000
00000000
00010000
00000000
00000000
00100000
01000000
00000000
01100000
00000000
,
00000000
00000000
00101000
00000000
00000000
00000000
00010100
00000000
00000100
00000000
00000010
00000000
00000100
00000000
00000010
00000000
00000001
00000000
00000000
00000100
00000010
00000000
00000110
00000000
00000000
00000000
00010010
00000000
00000000
00000000
01001000
00000000
,
00000000
00000000
01000000
00000000
00010000
00000000
01000000
00000000
00010000
00000000
00200000
00000000
00300000
00000000
00000000
00000000
20020000
00000000
00000000
00000000
30030000
00000000
00000000
00000000
00010000
00000000
00000000
01000000
00100000
00000000
01100000
00000000
,
00000000
00000000
01001000
00000000
00000000
00000000
00010010
00000000
00000010
00000000
00000100
00000000
00000010
00000000
00000100
00000000
00000001
00000000
00000000
00000010
00000100
00000000
00000110
00000000
00000000
00000000
00010100
00000000
00000000
00000000
00101000
00000000
,
00000000
00000000
00100000
00000000
00010000
00000000
00100000
00000000
00010000
00000000
01000000
00000000
00000000
00000000
01100000
00000000
00000000
00000000
00000000
00000000
10010000
00000000
00000000
00000000
10000000
00000000
00000000
00100000
01000000
00000000
01010000
00000000
,
00000000
00000000
00101000
00000000
00000000
00000000
00010100
00000000
00000100
00000000
00000010
00000000
00000110
00000000
00000000
00000000
00000001
00000000
00000000
00000100
00000010
00000000
00001010
00000000
00000000
00000000
00010100
00000000
00000000
00000000
00101000
00000000
,
00000000
00000000
00100000
00000000
00010000
00000000
00100000
00000000
00010000
00000000
02000000
00000000
03000000
00000000
00000000
00000000
20020000
00000000
00000000
00000000
30030000
00000000
00000000
00000000
10000000
00000000
00000000
00100000
01000000
00000000
01001000
00000000
,
00000000
00000000
00010100
00000000
00000000
00000000
00000110
00000000
00000010
00000000
00000010
00000000
00000010
00000000
00000010
00000000
00000001
00000000
00000000
00001000
00000010
00000000
00010010
00000000
00000000
00000000
00101000
00000000
00000000
00000000
01100000
00000000
,
01000000
00000000
01000000
00000000
00000000
00000000
10000000
00000000
00010000
00000000
01000000
00000000
00100000
00000000
10000000
00000000
20020000
00000000
00000000
00000000
30030000
00000000
00000000
00000000
00010000
00000000
00000000
00100000
01000000
00000000
01010000
00000000
,
00000000
00000000
00010100
00000000
00000000
00000000
00000110
00000000
00000010
00000000
00000001
00000000
00000010
00000000
00000001
00000000
00001000
00000000
00000000
00000010
00000100
00000000
00001100
00000000
00000000
00000000
01001000
00000000
00000000
00000000
01100000
00000000
,
00000000
00000000
00100000
00000000
10000000
00000000
00100000
00000000
10000000
00000000
02000000
00000000
03000000
00000000
00000000
00000000
20020000
00000000
00000000
00000000
30030000
00000000
00000000
00000000
00010000
00000000
00000000
01000000
00100000
00000000
00110000
00000000
,
00000000
00000000
00010010
00000000
00000000
00000000
00000110
00000000
00000100
00000000
00000001
00000000
00000100
00000000
00000001
00000000
00001000
00000000
00000000
00000100
00000010
00000000
00001010
00000000
00000000
00000000
00101000
00000000
00000000
00000000
01100000
00000000
,
00000000
00000000
01000000
00000000
10000000
00000000
01000000
00000000
10000000
00000000
00100000
00000000
00000000
00000000
01100000
00000000
00000000
00000000
00000000
00000000
10010000
00000000
00000000
00000000
10000000
00000000
00000000
00100000
00010000
00000000
10010000
00000000
,
00000000
00000000
00011000
00000000
00000000
00000000
00010010
00000000
00000010
00000000
00000100
00000000
00000110
00000000
00000000
00000000
00000001
00000000
00000000
00000010
00001000
00000000
00001001
00000000
00000000
00000000
00011000
00000000
00000000
00000000
00101000
00000000
,
00000000
00100000
00010000
00100000
00010000
02000000
03000000
00000000
01100000
00000000
00000000
00001000
00011000
00000000
01010000
00000000
,
00000000
01000000
01010000
00000000
00011000
00000000
00001100
00000000
00000110
00000000
00000000
00010000
00011000
00000000
00001100
00000000
,
00000100
00001000
00010000
00001000
00010000
00100000
01000000
01100000
00000000
00000000
20020000
00000000
30030000
00000000
00000000
00000000
;

//---------------dance-single - ----------------
#NOTEDATA:;
#CHARTNAME:;
#STEPSTYPE:dance-single;
#DESCRIPTION:;
#CHARTSTYLE:;
#DIFFICULTY:Medium;
#METER:11;
#RADARVALUES:0.501585,0.537316,0.560198,0.236703,0.374780,445.000000,374.000000,71.000000,30.000000,0.000000,0.000000,0.000000,0.000000,0.000000,0.501585,0.537316,0.560198,0.236703,0.374780,445.000000,374.000000,71.000000,30.000000,0.000000,0.000000,0.000000,0.000000,0.000000;
#CREDIT:Kekkle;
#NOTES:
0000
0000
0000
0000
,
0000
0000
0000
0000
,
0000
0000
0000
0000
,
0000
0000
0000
0000
,
1000
0000
0000
0000
1000
0000
0000
0000
1000
0000
0000
0000
1000
0000
0000
2002
,
0000
3003
0001
0100
,
0020
0000
0130
0000
0001
0100
0000
0100
,
0000
0100
0000
0100
0000
0010
1000
0001
,
0010
0000
0100
0000
1000
0000
0001
0000
0100
0000
0100
0000
0100
0000
0000
0110
,
0000
0000
0110
0000
0000
0000
1000
0000
0002
0000
0000
0010
0000
0013
0000
0110
,
0000
0000
0110
0000
0000
0000
0000
0000
2000
0000
0000
0010
0000
3010
0000
0110
,
0000
0000
0110
0000
0000
0000
0001
0000
2000
0000
0000
0100
0000
3100
0000
0000
,
0110
0000
0000
0000
1001
0000
0000
0001
0000
0000
0001
0000
0200
0000
0000
0000
,
0310
0000
1000
0000
0100
0000
0010
0000
0001
0000
1000
0001
1000
0000
1000
0000
,
1001
0000
0000
0000
0001
0000
0100
0000
0010
0000
1000
0001
1000
0000
1000
0000
,
0100
0000
0100
0000
0010
0001
0010
0000
0001
1000
0001
1000
0020
0000
0000
0000
,
0000
0000
0000
0000
0130
0000
0000
0100
0000
0000
0100
0000
1001
0000
0000
0000
,
0001
0000
0020
0000
0100
0000
0130
0000
1000
0001
1000
0000
0001
0000
0200
0000
,
0010
0310
1000
0001
0010
0000
1001
0000
,
1000
0000
0002
0000
0100
0000
0103
0000
0010
1000
0010
0000
1000
0000
0002
0000
,
0010
0000
0013
0000
0100
0000
1000
0000
0001
0000
0000
1001
0000
0000
1001
0000
,
1000
0000
0002
0000
0010
0000
0013
0000
0100
0010
0100
0000
1000
0000
0002
0000
,
0100
0103
0010
1000
0100
0000
0110
0000
,
1000
0000
0020
0000
0100
0000
0130
0000
0001
1000
0001
1000
0001
0000
0020
0000
,
0100
0000
0130
0000
1000
0000
0000
1000
0000
0000
1000
0000
1001
0000
0000
0000
,
0001
0000
0200
0000
0001
0000
0310
0000
1000
0010
1000
0000
0001
0000
0020
0000
,
0100
0031
1000
0010
0100
0000
1001
0000
,
1000
0000
0200
0000
0010
0000
1300
0000
0001
0100
0001
0000
1000
0000
0020
0000
,
0100
0000
1030
0000
0001
0000
0010
0000
0100
0000
0000
0110
0000
0000
0110
0000
,
1000
0000
0020
0000
0001
0000
0130
0000
0001
0100
0001
0000
0010
0000
0200
0000
,
0001
0310
0100
1000
0001
0000
1001
0000
,
1000
0000
0020
0000
0001
0000
1030
0000
0001
1000
0001
1000
0001
0000
0020
0000
,
1000
0000
0031
0000
1000
0000
0010
0000
0100
0000
0000
0110
0000
0000
0110
0000
,
0000
0000
1000
0000
0002
0000
0000
0010
0000
0013
0000
0110
0000
0000
0110
0000
,
0000
0000
0000
0000
2000
0000
0000
0010
0000
3010
0000
0110
0000
0000
0110
0000
,
0000
0000
0001
0000
2000
0000
0000
0010
0000
3010
0000
0000
0110
0000
0000
0000
,
1001
0000
0000
1000
0000
0000
1000
0000
0100
0000
0100
0000
0100
0000
0010
0000
,
0001
0000
0001
1000
0001
0000
0001
0000
1001
0000
1000
0000
1000
0000
0010
0000
,
0010
0000
0010
0100
0010
0000
0010
0000
1000
0000
1000
0000
0001
0000
0001
0000
,
0100
0001
0100
0000
0001
1000
0001
1000
0200
0000
0000
0000
0000
0000
0000
0000
,
0310
0000
0000
0010
0000
0000
0010
0000
1001
0000
0000
0000
0001
0000
0000
0101
,
0000
0101
0000
0000
0100
0010
0100
0000
0001
0000
0000
0011
0000
0011
0000
0000
,
0010
0000
0100
0000
1000
0001
0000
0000
1001
0000
0000
0000
1000
0000
0000
1010
,
0000
1010
0000
0000
0010
0100
0010
0000
1000
0000
0000
1100
0000
1100
0000
0000
,
0100
0000
0010
0000
0001
1000
0000
1001
0000
0000
1001
0000
0001
0000
0000
0101
,
0000
1001
0000
0000
1000
0001
0010
0000
0100
0000
0000
1100
0000
1001
0000
0000
,
0001
0000
0100
0000
0010
0100
0000
0000
0110
0000
0000
0000
1000
0000
0000
1010
,
0000
1001
0000
0000
0001
1000
0001
1000
0100
0000
0000
1100
0000
1001
0000
0000
,
0001
0000
0000
0001
0000
0000
0001
0000
1001
0000
0000
0000
1000
0000
1000
0010
,
0000
0110
0000
0000
0100
0001
0100
0001
0010
0000
0000
0011
0000
0110
0000
0000
,
0100
0000
1000
0000
0001
1000
0000
0000
1001
0000
0000
0000
1000
0000
1000
0100
,
0000
0110
0000
0000
0010
0001
0010
0001
0100
0000
0000
0101
0000
0110
0000
0000
,
0010
0000
1000
0000
0001
1000
0000
1001
0000
0000
1001
0000
1000
0000
0001
0010
,
0000
1100
0000
0000
0100
1000
0001
0000
1000
0000
0000
1010
0000
1100
0000
0000
,
0100
0000
0010
0000
0001
1000
0000
0000
0010
0000
0000
0000
0110
0000
1001
0000
,
0000
1001
0110
1000
0001
0000
0110
1001
,
1000
0000
0100
0000
0010
0100
0000
1001
0000
0000
2002
0000
3003
0000
0000
0000
;

//---------------dance-double - ----------------
#NOTEDATA:;
#CHARTNAME:;
#STEPSTYPE:dance-double;
#DESCRIPTION:;
#CHARTSTYLE:;
#DIFFICULTY:Medium;
#METER:11;
#RADARVALUES:0.501585,0.537316,0.552307,0.236703,0.382670,445.000000,375.000000,70.000000,30.000000,0.000000,0.000000,0.000000,0.000000,0.000000,0.501585,0.537316,0.552307,0.236703,0.382670,445.000000,375.000000,70.000000,30.000000,0.000000,0.000000,0.000000,0.000000,0.000000;
#CREDIT:Kekkle;
#NOTES:
00000000
00000000
00000000
00000000
,
00000000
00000000
00000000
00000000
,
00000000
00000000
00000000
00000000
,
00000000
00000000
00000000
00000000
,
00010000
00000000
00000000
00000000
00010000
00000000
00000000
00000000
00010000
00000000
00000000
00000000
00010000
00000000
00000000
00022000
,
00000000
00033000
00001000
01000000
,
00200000
00000000
10300000
00000000
00010000
00100000
00000000
00100000
,
00000000
00100000
00000000
00100000
00000000
00100000
00001000
00010000
,
00000100
00000000
00000010
00000000
00000001
00000000
00000100
00000000
00000010
00000000
00000010
00000000
00000010
00000000
00000000
00001010
,
00000000
00000000
00001010
00000000
00000000
00000000
00001000
00000000
00000200
00000000
00000000
00010000
00000000
00010300
00000000
00101000
,
00000000
00000000
00101000
00000000
00000000
00000000
00000000
00000000
00002000
00000000
00000000
01000000
00000000
01003000
00000000
00010010
,
00000000
00000000
00010010
00000000
00000000
00000000
00000010
00000000
00020000
00000000
00000000
00001000
00000000
00031000
00000000
00000000
,
00011000
00000000
00000000
00000000
00011000
00000000
00000000
00001000
00000000
00000000
00001000
00000000
00020000
00000000
00000000
00000000
,
00130000
00000000
01000000
00000000
00010000
00000000
10000000
00000000
01000000
00000000
00100000
00001000
00100000
00000000
00100000
00000000
,
00011000
00000000
00000000
00000000
00001000
00000000
00000010
00000000
00000001
00000000
00001000
00000001
00001000
00000000
00001000
00000000
,
00000010
00000000
00000010
00000000
00010000
00001000
00010000
00000000
00001000
00100000
00001000
00100000
00020000
00000000
00000000
00000000
,
00000000
00000000
00000000
00000000
10030000
00000000
00000000
10000000
00000000
00000000
10000000
00000000
10010000
00000000
00000000
00000000
,
00010000
00000000
02000000
00000000
00100000
00000000
03100000
00000000
00010000
00001000
00010000
00000000
00001000
00000000
00000020
00000000
,
00000100
00000130
00001000
00000001
00000100
00000000
00001001
00000000
,
00001000
00000000
00000200
00000000
00000010
00000000
00000310
00000000
00001000
00010000
00001000
00000000
00010000
00000000
00200000
00000000
,
01000000
00000000
01300000
00000000
00010000
00000000
10000000
00000000
01000000
00000000
00000000
10010000
00000000
00000000
10010000
00000000
,
10000000
00000000
00200000
00000000
01000000
00000000
01300000
00000000
00001000
00010000
00001000
00000000
00000010
00000000
00000002
00000000
,
00001000
00001003
00000010
00000100
00000001
00000000
00001001
00000000
,
00000001
00000000
00000020
00000000
00000100
00000000
00000130
00000000
00010000
00001000
00010000
00001000
00010000
00000000
00200000
00000000
,
01000000
00000000
01300000
00000000
00010000
00000000
00000000
00010000
00000000
00000000
00010000
00000000
10010000
00000000
00000000
00000000
,
10000000
00000000
02000000
00000000
00010000
00000000
03010000
00000000
00001000
00010000
00001000
00000000
00000100
00000000
00000002
00000000
,
00001000
00001003
00000001
00000010
00000100
00000000
00001001
00000000
,
00000001
00000000
00000200
00000000
00001000
00000000
00001300
00000000
00010000
00001000
00010000
00000000
01000000
00000000
20000000
00000000
,
00010000
00000000
30010000
00000000
10000000
00000000
00100000
00000000
01000000
00000000
00000000
10010000
00000000
00000000
10010000
00000000
,
10000000
00000000
00200000
00000000
00010000
00000000
01300000
00000000
00001000
00010000
00001000
00000000
00000010
00000000
00000002
00000000
,
00001000
00000103
00000001
00000100
00000010
00000000
00001001
00000000
,
00000001
00000000
00000020
00000000
00001000
00000000
00000130
00000000
00010000
00001000
00010000
00001000
00010000
00000000
00200000
00000000
,
00010000
00000000
01300000
00000000
00010000
00000000
10000000
00000000
01000000
00000000
00000000
10010000
00000000
00000000
10010000
00000000
,
00000000
00000000
00010000
00000000
02000000
00000000
00000000
00001000
00000000
03001000
00000000
00010010
00000000
00000000
00010010
00000000
,
00000000
00000000
00000000
00000000
00020000
00000000
00000000
00000100
00000000
00030100
00000000
00101000
00000000
00000000
00101000
00000000
,
00000000
00000000
00100000
00000000
00002000
00000000
00000000
01000000
00000000
01003000
00000000
00000000
00011000
00000000
00000000
00000000
,
00011000
00000000
00000000
00010000
00000000
00000000
00010000
00000000
00001000
00000000
00001000
00000000
00000010
00000000
00000010
00000001
,
00000010
00000000
00000010
00000100
00000010
00000000
00000001
00000000
00000100
00000000
00001000
00000000
00011000
00000000
00010000
00100000
,
00010000
00000000
00010000
00001000
00010000
00000000
00001000
00000000
00100000
00000000
00100000
00000000
01000000
00000000
01000000
00000000
,
10000000
00010000
10000000
00000000
00010000
01000000
00010000
01000000
00002000
00000000
00000000
00000000
00000000
00000000
00000000
00000000
,
00013000
00000000
00000000
00010000
00000000
00000000
00010000
00000000
00011000
00000000
00000000
00000000
00001000
00000000
00000000
00001100
,
00000000
00001100
00000000
00000000
00000100
00000001
00000100
00000000
00000001
00000000
00000000
00000011
00000000
00000011
00000000
00000000
,
00000010
00000000
00001000
00000000
00010000
00001000
00000000
00000000
00011000
00000000
00000000
00000000
00010000
00000000
00000000
00110000
,
00000000
00110000
00000000
00000000
00100000
10000000
00100000
00000000
10000000
00000000
00000000
11000000
00000000
11000000
00000000
00000000
,
01000000
00000000
00010000
00000000
00001000
00010000
00000000
00011000
00000000
00000000
00011000
00000000
00001000
00000000
00000000
00001010
,
00000000
00001010
00000000
00000000
00000010
00000001
00001000
00000000
00000001
00000000
00000000
00000101
00000000
00000101
00000000
00000000
,
00000100
00000000
00001000
00000000
00010000
00001000
00000000
00000000
00011000
00000000
00000000
00000000
00010000
00000000
00000000
01010000
,
00000000
01010000
00000000
00000000
01000000
10000000
01000000
10000000
00010000
00000000
00000000
10100000
00000000
10100000
00000000
00000000
,
00100000
00000000
00000000
00010000
00000000
00000000
00001000
00000000
00011000
00000000
00000000
00000000
00010000
00000000
00001000
00000010
,
00000000
00001010
00000000
00000000
00000010
00000001
00000010
00000001
00000100
00000000
00000000
00001100
00000000
00001100
00000000
00000000
,
00000100
00000000
00001000
00000000
00010000
00001000
00000000
00000000
00011000
00000000
00000000
00000000
00001000
00000000
00010000
01000000
,
00000000
01010000
00000000
00000000
01000000
10000000
01000000
10000000
00100000
00000000
00000000
00110000
00000000
00110000
00000000
00000000
,
00100000
00000000
00010000
00000000
00001000
00010000
00000000
00011000
00000000
00000000
00011000
00000000
00010000
00000000
00001000
00000100
,
00000000
00001100
00000000
00000000
00000100
00000001
00000010
00000000
00000001
00000000
00000000
00000011
00000000
00000011
00000000
00000000
,
00000010
00000000
00001000
00000000
00010000
00001000
00000000
00000000
00011000
00000000
00000000
00000000
00001000
00000000
00101000
00000000
,
00000000
00001000
01001000
00000000
00011000
00000000
00010000
00010010
,
00010000
00000000
00001000
00000000
00000010
00000100
00000000
00001001
00000000
00000000
00002002
00000000
00003003
00000000
00000000
00000000
;

//---------------dance-single - ----------------
#NOTEDATA:;
#CHARTNAME:;
#STEPSTYPE:dance-single;
#DESCRIPTION:;
#CHARTSTYLE:;
#DIFFICULTY:Easy;
#METER:7;
#RADARVALUES:0.298697,0.312744,0.213033,0.055231,0.055231,265.000000,238.000000,27.000000,7.000000,0.000000,0.000000,0.000000,0.000000,0.000000,0.298697,0.312744,0.213033,0.055231,0.055231,265.000000,238.000000,27.000000,7.000000,0.000000,0.000000,0.000000,0.000000,0.000000;
#CREDIT:Kekkle;
#NOTES:
0000
0000
0000
0000
,
0000
0000
0000
0000
,
0000
0000
0000
0000
,
0000
0000
0000
0000
,
0000
0000
0000
0000
0000
0000
0000
0000
0000
0000
0000
0000
0000
0000
0000
1001
,
0000
0001
0100
0010
,
2000
0000
3001
0010
,
0110
0100
1000
0001
,
0100
0000
0010
0000
0100
0000
0000
0000
0010
0000
0100
0000
0010
0000
0000
0110
,
0000
0000
0110
0000
0000
0000
0000
0000
0000
0000
0000
0000
0000
0000
0000
1001
,
0000
0000
1001
0000
0000
0000
0000
0000
0000
0000
0000
0000
0000
0000
0000
0110
,
0000
0110
0000
0000
0000
0000
0000
0000
,
1001
0001
1000
0200
,
0310
0000
0001
1000
0001
0000
0200
0000
,
0310
0000
1000
0001
1000
0000
0001
0000
,
0010
1000
0100
0002
,
0000
1003
1000
1001
,
0001
0000
0100
0000
0010
0100
0010
0000
,
0001
0010
1000
1001
,
1000
0000
0100
0000
0010
0100
0010
0000
,
1000
0000
0000
0000
0010
0000
0000
0000
0001
0000
0000
1000
0000
0000
1000
0000
,
0000
0000
0010
0000
0100
0010
0100
0000
,
1000
0100
0001
1001
,
0001
0000
0010
0000
0100
0010
0100
0000
,
0001
0000
0000
0000
0100
0000
0000
0100
0000
0000
0100
0000
0010
0000
0000
0000
,
0001
0000
0100
0000
0010
0100
0001
0000
,
0010
0100
1000
1001
,
1000
0000
0001
0000
0010
0100
1000
0000
,
0010
0000
0000
0000
0100
0000
0000
0000
0001
0000
0000
1000
0000
0000
1000
0000
,
0000
0000
0100
0000
0010
0001
0100
0000
,
0001
0010
0100
0110
,
1000
0000
0001
0000
0100
0010
1000
0000
,
0100
0000
0000
0000
0010
0000
0000
0000
0001
0000
0000
1001
0000
0000
1001
0000
,
0000
0000
0000
0000
0000
0000
0000
0000
0000
0000
0000
0110
0000
0000
0110
0000
,
0000
0000
0000
0000
0000
0000
0000
0000
0000
0000
0000
1001
0000
0000
1001
0000
,
0000
0000
0000
0110
,
1000
0001
0020
0130
,
1000
0001
1000
0001
0200
0000
0310
0000
,
1000
0001
1000
0001
0010
0000
1000
0000
,
0100
0001
0020
0000
,
0130
0100
1001
1000
,
0001
0100
0010
0100
0010
0000
1000
0000
,
0001
0010
0100
0000
0110
0000
0010
0000
,
0001
1000
0010
0100
0010
0000
1000
0000
,
0100
0000
0010
0000
0001
0000
0000
1000
0000
0000
1000
0000
0001
0000
0000
0000
,
0100
0010
1000
0010
1000
0000
0100
0000
,
0010
0001
1000
0000
1001
0000
0001
0000
,
0100
0001
0010
0001
1000
0000
0010
0000
,
0100
0000
0000
0100
0000
0000
0100
0000
0010
0000
0000
0000
1000
0000
0000
0000
,
0100
0010
0001
0010
0001
0000
0100
0010
,
1000
0010
1000
0000
1001
0000
1000
0000
,
0001
0010
0100
1000
0100
0000
0010
0001
,
0100
0000
0001
0000
0100
0000
0000
0100
0000
0000
0100
0000
0010
0000
0000
0000
,
1000
0010
0100
0001
0100
0000
0010
1000
,
0100
1000
0100
0000
0010
0000
0001
1000
,
0000
1000
0001
0000
0100
0000
0010
0100
,
0000
0000
0100
0000
0010
0000
0000
0110
0000
0000
0110
0000
0000
0000
0000
0000
;

//---------------dance-double - ----------------
#NOTEDATA:;
#CHARTNAME:;
#STEPSTYPE:dance-double;
#DESCRIPTION:;
#CHARTSTYLE:;
#DIFFICULTY:Easy;
#METER:7;
#RADARVALUES:0.303206,0.335083,0.244593,0.039451,0.055231,269.000000,238.000000,31.000000,5.000000,0.000000,0.000000,0.000000,0.000000,0.000000,0.303206,0.335083,0.244593,0.039451,0.055231,269.000000,238.000000,31.000000,5.000000,0.000000,0.000000,0.000000,0.000000,0.000000;
#CREDIT:Kekkle;
#NOTES:
00000000
00000000
00000000
00000000
,
00000000
00000000
00000000
00000000
,
00000000
00000000
00000000
00000000
,
00000000
00000000
00000000
00000000
,
00000000
00000000
00000000
00000000
00000000
00000000
00000000
00000000
00000000
00000000
00000000
00000000
00000000
00000000
00000000
00011000
,
00000000
00001000
01000000
00100000
,
20000000
00000000
30010000
00100000
,
00011000
00010000
00000100
00000010
,
00000001
00000000
00001000
00000000
00000001
00000000
00000000
00000000
00001000
00000000
00000001
00000000
00001000
00000000
00000000
00001001
,
00000000
00000000
00001001
00000000
00000000
00000000
00000000
00000000
00000000
00000000
00000000
00000000
00000000
00000000
00000000
00000110
,
00000000
00000000
00000110
00000000
00000000
00000000
00000000
00000000
00000000
00000000
00000000
00000000
00000000
00000000
00000000
00011000
,
00000000
00011000
00000000
00000000
00000000
00000000
00000000
00000000
,
01100000
10000000
00010000
00200000
,
01300000
00000000
00010000
00001000
00010000
00000000
00000020
00000000
,
00000130
00000000
00001000
00010000
00001000
00000000
01000000
00000000
,
00100000
00010000
00001000
00000200
,
00000000
00000301
00000001
00001001
,
00001000
00000000
00000010
00000000
00000100
00000010
00000100
00000000
,
00001000
00010000
00100000
01100000
,
00010000
00000000
00100000
00000000
01000000
00100000
01000000
00000000
,
00010000
00000000
00000000
00000000
00001000
00000000
00000000
00000000
00000010
00000000
00000000
00000100
00000000
00000000
00000100
00000000
,
00000000
00000000
00001000
00000000
00000010
00000100
00000010
00000000
,
00000001
00000010
00010000
00011000
,
00100000
00000000
00010000
00000000
00100000
01000000
00100000
00000000
,
10000000
00000000
00000000
00000000
00100000
00000000
00000000
00100000
00000000
00000000
00100000
00000000
00011000
00000000
00000000
00000000
,
00001000
00000000
00000100
00000000
00000010
00001000
00000001
00000000
,
00000010
00001000
00010000
00011000
,
00010000
00000000
01000000
00000000
00100000
00010000
10000000
00000000
,
00100000
00000000
00000000
00000000
00010000
00000000
00000000
00000000
00001000
00000000
00000000
00010000
00000000
00000000
00010000
00000000
,
00000000
00000000
00001000
00000000
00000010
00000100
00001000
00000000
,
00000001
00000100
00001000
00011000
,
00001000
00000000
00010000
00000000
00100000
01000000
00010000
00000000
,
10000000
00000000
00000000
00000000
01000000
00000000
00000000
00000000
00010000
00000000
00000000
00011000
00000000
00000000
00011000
00000000
,
00000000
00000000
00000000
00000000
00000000
00000000
00000000
00000000
00000000
00000000
00000000
00000110
00000000
00000000
00000110
00000000
,
00000000
00000000
00000000
00000000
00000000
00000000
00000000
00000000
00000000
00000000
00000000
00001001
00000000
00000000
00001001
00000000
,
00000000
00000000
00000000
00000110
,
00001000
00000000
00000100
00000000
00010000
00000000
00010000
00001000
,
00010000
00001000
00100000
00000000
00011000
00000000
00001000
00010000
,
00001000
00010000
00000010
00000000
00011000
00000000
00010000
00000000
,
00100000
10000000
02000000
00000000
,
03100000
00100000
10010000
10000000
,
00100000
01000000
00100000
01000000
00010000
00000000
00100000
00000000
,
00001000
00010000
00000100
00000000
00010100
00000000
00000001
00000000
,
00000010
00000100
00000010
00000100
00001000
00000000
00000100
00000000
,
00010000
00000000
00001000
00000000
01000000
00000000
00000000
00100000
00000000
00000000
00100000
00000000
10000000
00000000
00000000
00000000
,
00010000
00100000
00001000
00100000
00010000
00000000
00100000
00000000
,
00001000
00010000
00000010
00000000
00010010
00000000
00000001
00000000
,
00001000
00000010
00010000
00000010
00001000
00000000
00000010
00000000
,
00010000
00000000
00000000
00010000
00000000
00000000
00010000
00000000
00001000
00000000
00000000
00000000
01000000
00000000
00000000
00000000
,
00010000
00100000
01000000
10000000
01000000
00000000
00100000
01000000
,
00010000
01000000
00010000
00000000
00011000
00000000
00001000
00000000
,
00000010
00000001
00000010
00000100
00001000
00000000
00000001
00000100
,
00001000
00000000
00000100
00000000
00001000
00000000
00000000
00010000
00000000
00000000
00010000
00000000
00001000
00000000
00000000
00000000
,
01000000
00010000
00100000
00010000
00100000
00000000
10000000
00100000
,
00001000
00100000
00001000
00000000
00011000
00000000
00010000
00001000
,
00000000
00001000
00010000
00000000
00001000
00000000
00000100
00000010
,
00000000
00000000
00000010
00000000
00000100
00000000
00000000
00000110
00000000
00000000
00000110
00000000
00000000
00000000
00000000
00000000
;

//---------------dance-single - ----------------
#NOTEDATA:;
#CHARTNAME:;
#STEPSTYPE:dance-single;
#DESCRIPTION:;
#CHARTSTYLE:;
#DIFFICULTY:Beginner;
#METER:4;
#RADARVALUES:0.200634,0.223389,0.102571,0.000000,0.003945,178.000000,165.000000,13.000000,0.000000,0.000000,0.000000,0.000000,0.000000,0.000000,0.200634,0.223389,0.102571,0.000000,0.003945,178.000000,165.000000,13.000000,0.000000,0.000000,0.000000,0.000000,0.000000,0.000000;
#CREDIT:Kekkle;
#NOTES:
0000
0000
0000
0000
,
0000
0000
0000
0000
,
0000
0000
0000
0000
,
0000
0000
0000
0000
,
0000
0000
0000
0000
,
0000
1000
0000
1000
,
0000
0001
0000
0001
,
0000
0100
0010
0100
,
0000
0010
0100
0010
,
0110
0000
0000
0000
,
1001
0000
0000
0000
,
0110
0000
0000
0000
,
1001
0000
1000
0001
,
0100
0010
0010
1000
,
0100
0010
0010
0001
,
0001
1000
1000
0010
,
0000
0100
0100
1001
,
0001
0100
0100
0010
,
0000
1000
0001
1001
,
1000
0100
0100
0010
,
0000
0001
1000
1001
,
0001
0010
0010
0100
,
0000
1000
0001
1001
,
1000
0010
0010
0100
,
0000
0001
0001
1000
,
0100
0010
0010
0001
,
0100
0010
0000
1000
,
0010
0100
0100
0001
,
0010
0100
0000
1000
,
0100
0001
0001
0100
,
1000
0001
0000
1000
,
0010
0001
0001
0010
,
0100
0001
0000
1001
,
0000
0000
0000
0110
,
0000
0000
0000
1001
,
0000
0000
0000
0110
,
0000
1000
0001
0001
,
0001
0001
1000
1000
,
1000
1000
0010
0100
,
0001
1000
0100
0000
,
0010
0010
0001
0100
,
1000
0100
0001
0010
,
1000
0000
0001
0100
,
1000
0010
0001
0010
,
1000
0000
0001
0100
,
0010
0001
1000
0100
,
0010
0000
1000
0100
,
0010
1000
0001
0100
,
0010
0010
0001
0100
,
1000
0010
0001
1000
,
0001
0000
1000
0100
,
0001
0010
1000
0001
,
1000
0000
0010
0001
,
1000
0100
0001
0010
,
1000
0000
0010
0010
,
0001
0001
0100
0100
,
0010
0000
0000
0000
0000
0000
0000
1000
0000
0000
1001
0000
0000
0000
0000
0000
;
