#VERSION:0.83;
#TITLE:EBENEEZER GOODE;
#SUBTITLE:;
#ARTIST:SHAMEN;
#TITLETRANSLIT:;
#SUBTITLETRANSLIT:;
#ARTISTTRANSLIT:;
#GENRE:;
#ORIGIN:;
#CREDIT:;
#BANNER:Ebeneezer Goode.png;
#BACKGROUND:Ebeneezer Goode-bg.png;
#PREVIEWVID:;
#JACKET:Ebeneezer Goode-jacket.png;
#CDIMAGE:;
#DISCIMAGE:;
#LYRICSPATH:Ebeneezer Goode.lrc;
#CDTITLE:;
#MUSIC:Ebeneezer Goode.ogg;
#OFFSET:-0.032000;
#SAMPLESTART:60.936001;
#SAMPLELENGTH:12.000000;
#SELECTABLE:YES;
#BPMS:0.000=126.044;
#STOPS:;
#DELAYS:;
#WARPS:;
#TIMESIGNATURES:0.000=4=4;
#TICKCOUNTS:0.000=4;
#COMBOS:0.000=1;
#SPEEDS:0.000=1.000=0.000=0;
#SCROLLS:0.000=1.000;
#FAKES:;
#LABELS:0.000=Song Start;
#BGCHANGES:0.000=Ebeneezer Goode.mp4=1.000=0=0=0=StretchNoLoop====,
99999=-nosongbg-=1.000=0=0=0 // don't automatically add -songbackground-
;
#KEYSOUNDS:;
#ATTACKS:
;

//---------------dance-single - eataninja----------------
#NOTEDATA:;
#CHARTNAME:;
#STEPSTYPE:dance-single;
#DESCRIPTION:eataninja;
#CHARTSTYLE:;
#DIFFICULTY:Beginner;
#METER:2;
#RADARVALUES:0.130303,0.173047,0.127867,0.051147,0.000000,107.000000,92.000000,15.000000,6.000000,0.000000,0.000000,0.000000,0.000000,0.000000,0.130303,0.173047,0.127867,0.051147,0.000000,107.000000,92.000000,15.000000,6.000000,0.000000,0.000000,0.000000,0.000000,0.000000;
#CREDIT:;
#NOTES:
0000
0000
0000
0000
,
0000
0000
0000
0000
,
0000
0000
0000
0000
,
0000
0000
0000
0000
,
0001
0000
0000
0000
,
1000
0000
0000
0000
,
0001
0000
0000
0000
,
0010
0000
0010
0000
,
1001
0000
0000
0000
,
1000
0000
0010
0000
,
1001
0000
0000
0000
,
0001
0000
0010
0000
,
1001
0000
0000
0000
,
1000
0000
0100
0000
,
1001
0000
0000
0000
,
0010
0000
0010
0000
,
0100
0000
0001
0000
,
1000
0000
0100
0000
,
0010
0000
0001
0000
,
1000
0000
1000
0000
,
0010
0010
0010
0000
,
0100
0100
0100
0000
,
0001
0000
1000
0000
,
0200
0000
0300
0000
,
0100
0000
0010
0000
,
0001
0000
0001
0000
,
1000
0000
0010
0000
,
0100
0100
0100
0000
,
1000
0000
0100
0000
,
0001
0000
1000
0000
,
0100
0000
0010
0000
,
0100
0000
0100
0000
,
1001
0000
0000
0000
,
0010
0000
0100
0000
,
1001
0000
0000
0000
,
0001
0000
0010
0000
,
1001
0000
0000
0000
,
0100
0000
0010
0000
,
1001
0000
0000
0000
,
0100
0000
0100
0000
,
0002
0000
0000
0003
,
2000
0000
0000
3000
,
0002
0000
0000
0003
,
2000
0000
0000
3000
,
0100
0100
0100
0000
,
0000
0000
0000
0000
,
0100
0100
0100
0000
,
0010
0000
0010
0000
,
1001
0000
1001
0000
,
0100
0000
0000
0000
,
1001
0000
1001
0000
,
0010
0000
0000
0000
,
1001
0000
1000
0000
,
0010
0000
0100
0000
,
1001
0000
0001
0000
,
0010
0000
0100
0000
,
1001
0000
1000
0000
,
0020
0000
0000
0000
,
0030
0000
0000
0000
;

//---------------dance-single - eataninja----------------
#NOTEDATA:;
#CHARTNAME:;
#STEPSTYPE:dance-single;
#DESCRIPTION:eataninja;
#CHARTSTYLE:;
#DIFFICULTY:Easy;
#METER:5;
#RADARVALUES:0.230161,0.271931,0.153441,0.059671,0.000000,189.000000,171.000000,18.000000,7.000000,0.000000,0.000000,0.000000,0.000000,0.000000,0.230161,0.271931,0.153441,0.059671,0.000000,189.000000,171.000000,18.000000,7.000000,0.000000,0.000000,0.000000,0.000000,0.000000;
#CREDIT:;
#NOTES:
0000
0000
0000
0000
,
0000
0000
0000
0000
,
0000
0000
0000
0000
,
0000
0000
0000
0000
,
0001
0001
0001
0000
,
0100
0010
2000
0000
,
3001
0001
0001
0000
,
0010
0000
1001
0000
,
1000
0100
0001
0100
,
0010
0001
1000
0000
,
0001
0100
1000
0100
,
0010
1000
0001
0000
,
1000
0010
0001
0010
,
0100
0001
1000
0000
,
0001
0010
1000
0010
,
0100
0000
1001
0000
,
1000
0010
1000
0010
,
0100
0001
0010
0000
,
0001
0010
1000
0010
,
0100
0100
0100
0000
,
1001
0000
0110
0000
,
0100
0001
1000
0000
,
0001
0010
0001
0010
,
0100
1000
0010
0000
,
0100
0100
0010
0010
,
1000
0001
0010
1001
,
1000
0000
0100
0110
,
0001
1000
0010
0010
,
0100
1000
0100
0001
,
0010
0010
0100
0000
,
1000
0001
0100
0001
,
0010
0000
1001
0000
,
1000
0100
0001
0100
,
1000
0010
0100
0100
,
0001
0100
1000
0100
,
0001
0010
0100
0100
,
1000
0010
0001
0010
,
1000
0100
0010
0010
,
0001
0010
1000
0010
,
0001
0100
0010
0010
,
2001
0000
0000
0000
,
3200
0000
0320
0000
,
0032
0000
0000
0000
,
0200
0000
0000
0303
,
1001
0110
1001
0000
,
0100
0001
1000
0000
,
1001
0110
1001
0000
,
0100
0000
1001
0000
,
1000
0010
0001
0010
,
0110
0000
0100
0000
,
0001
0010
1000
0010
,
0100
0000
1001
0000
,
1000
0010
0001
0010
,
0100
0001
0010
0100
,
1000
0100
0001
0100
,
0010
0001
0100
0010
,
1001
0000
0100
0000
,
0020
0000
0000
0000
,
0030
0000
0000
0000
;

//---------------dance-single - Ben Eats Speirs----------------
#NOTEDATA:;
#CHARTNAME:;
#STEPSTYPE:dance-single;
#DESCRIPTION:Ben Eats Speirs;
#CHARTSTYLE:;
#DIFFICULTY:Hard;
#METER:12;
#RADARVALUES:0.465194,0.494421,0.281308,0.213112,0.323931,382.000000,349.000000,33.000000,25.000000,0.000000,0.000000,0.000000,0.000000,0.000000,0.465194,0.494421,0.281308,0.213112,0.323931,382.000000,349.000000,33.000000,25.000000,0.000000,0.000000,0.000000,0.000000,0.000000;
#CREDIT:Ben Eats Speirs;
#NOTES:
0000
0000
0000
0000
,
0000
0000
0000
0000
,
0000
0000
0000
0000
,
0000
0000
0000
0000
,
0001
0000
0100
0000
0010
0000
0000
0000
1000
0100
0000
0000
1100
0000
0000
0000
,
1000
0000
0100
0000
0010
0000
0000
0000
0001
0100
0000
0000
0101
0000
0000
0000
,
0001
0000
0010
0000
0100
0000
0000
0000
1000
0010
0000
0000
1010
0000
0000
0000
,
1000
0100
1000
0100
0000
0000
0010
0001
0010
0001
0000
0000
1000
0000
1000
0000
,
0001
0000
0000
0100
0000
0000
0010
0000
0000
0100
0000
0000
0102
0000
0000
0000
,
1003
0000
0100
0000
0010
0000
0010
0000
0001
0000
0100
0010
0000
0000
0000
0000
,
1000
0000
0000
0010
0000
0000
0100
0000
0000
0010
0000
0000
2010
0000
0000
0000
,
3001
0000
0010
0000
0100
0000
1000
0000
1000
0000
0010
0100
0000
0000
0000
0000
,
0010
0000
0000
1000
0000
0000
0001
0000
0000
1000
0000
0000
1020
0000
0000
0000
,
0130
0000
0001
0000
1000
0000
1000
0000
0001
0000
0010
0100
0000
0000
0000
0000
,
0100
0000
0000
1000
0000
0000
0001
0000
0000
1000
0000
0000
1200
0000
0000
0000
,
0310
0001
0010
0001
0000
0000
1000
0010
1000
0010
0000
0000
0100
0000
0100
0000
,
0001
0010
0100
1000
1000
0010
0100
0001
,
0001
0000
1000
0000
0001
0000
0100
0000
1000
0000
0100
0000
0001
0000
0000
0001
,
1000
0000
1000
0000
0100
0000
0000
0010
0001
0000
0001
0000
0100
0000
0000
0100
,
0001
0010
0100
1000
0010
0100
0001
0000
,
0101
0000
1100
0000
0100
0010
0100
0000
,
1000
0000
0100
0000
0001
0000
0100
0010
0000
0001
0000
1000
0010
0000
0000
0000
,
1000
0000
0100
0000
0010
0000
0001
0000
0100
0000
1000
0000
0100
0010
0000
0000
,
1000
0001
1000
0001
0010
0100
1000
0000
,
1000
0010
0000
0000
0010
0100
0000
0000
0100
0000
0001
0000
1000
0100
1000
0000
,
0001
0000
0010
0000
0100
0000
1000
0000
0010
0100
0010
0000
1000
0000
0000
0000
,
1000
0010
1000
0000
0001
0000
0000
0000
0001
0010
0001
0000
0100
0000
0000
0000
,
0001
0100
1000
0100
0001
0001
1000
0000
,
0002
0010
0203
1000
,
0301
0000
1000
0000
0100
0000
0010
0001
0000
0010
0001
0000
1000
0000
0000
0000
,
0001
0100
0010
1000
0100
0001
0100
1000
,
0001
0010
0001
0010
0000
0000
0100
1000
0100
1000
0000
0000
0001
0000
0001
0000
,
0101
0000
0000
0100
0000
0000
0010
0000
0000
0010
0000
0000
2001
0000
0000
0000
,
3001
0000
0010
0000
0100
0000
1000
0000
0001
0000
0100
0010
0000
0000
0000
0000
,
1010
0000
0000
0010
0000
0000
0100
0000
0000
0100
0000
0000
1002
0000
0000
0000
,
1003
0000
0100
0000
0010
0000
0001
0000
1000
0000
0010
0100
0000
0000
0000
0000
,
0101
0000
0000
1000
0000
0000
1100
0000
0000
1000
0000
0000
0012
0000
0000
0000
,
1003
0000
0010
0000
0100
0000
0001
0000
0010
0000
0100
1000
0000
0000
0000
0000
,
1010
0000
0000
0001
0000
0000
0011
0000
0000
0001
0000
0000
2100
0000
0000
0000
,
3001
0000
0100
0000
0010
0000
1000
0000
0100
0000
0010
0001
0000
0000
0000
0000
,
2001
0000
3020
0000
,
0230
0000
0302
0000
,
0023
0100
0032
0100
,
2003
3010
2002
3003
,
0001
1000
0001
1000
1200
0000
0310
0000
,
0001
0000
0000
0000
0011
0000
0000
1000
0000
0001
0100
0000
0101
0000
0000
0000
,
1000
0001
1000
0001
0201
0000
0310
0000
,
1000
0010
1000
0010
0000
0000
0100
0001
0100
0001
0000
0000
1000
0000
1000
0000
,
1100
0000
0000
0001
0000
0000
1010
0000
0000
0001
0000
0000
0201
0000
0000
0000
,
0310
0000
0010
0000
1000
0000
0000
0000
0001
0010
0000
0000
1001
0000
0000
0000
,
0011
0000
0000
1000
0000
0000
0101
0000
0000
1000
0000
0000
1020
0000
0000
0000
,
0130
0000
0001
0000
1000
0000
0001
0000
0010
0000
0100
1000
0000
0000
0000
0000
,
0001
0000
0100
0001
0000
0000
1000
0000
0100
1000
0000
0000
0001
0000
0100
0000
,
0010
0000
0100
0010
0000
0010
1000
0000
0100
0000
0010
0001
0000
0000
0000
0000
,
1000
0000
0010
1000
0000
0000
0001
0000
0010
0001
0000
0000
1000
0000
0010
0000
,
0100
0000
0000
0100
0000
0000
0001
0000
0010
0000
0100
1000
0000
0000
0000
0000
,
0001
0000
0010
0001
0000
0000
1000
0000
0010
1000
0000
0000
1001
0000
0000
0000
,
2000
0200
0000
0000
0000
0000
0000
0000
,
3300
0000
0000
0000
;

//---------------dance-single - NinBenJa----------------
#NOTEDATA:;
#CHARTNAME:;
#STEPSTYPE:dance-single;
#DESCRIPTION:NinBenJa;
#CHARTSTYLE:;
#DIFFICULTY:Challenge;
#METER:14;
#RADARVALUES:0.618635,0.667468,0.221637,0.093769,0.724582,508.000000,482.000000,26.000000,11.000000,0.000000,0.000000,0.000000,0.000000,0.000000,0.618635,0.667468,0.221637,0.093769,0.724582,508.000000,482.000000,26.000000,11.000000,0.000000,0.000000,0.000000,0.000000,0.000000;
#CREDIT:NinBenJa;
#NOTES:
0000
0000
0000
0000
,
0000
0000
0000
0000
,
0000
0000
0000
0000
,
0000
0000
0000
0000
,
1000
0000
0100
0000
0010
0000
0000
0010
0000
0000
0100
0000
1000
0000
0000
0000
,
0001
0000
0100
0000
0010
0000
0000
0010
0000
0000
0100
0000
0001
0000
0000
0000
,
1000
0000
0100
0000
0010
0000
0001
0100
0000
0010
0000
0010
1000
0000
0001
0000
,
1000
0100
1000
0100
0000
0000
0010
0001
0010
0001
0000
1000
0010
0100
0001
0000
,
1000
0000
0001
0010
0000
0001
1000
0000
0001
0100
0000
0000
0001
1000
0001
1000
,
0001
0000
0100
0010
0000
0010
1000
0000
0001
0000
0010
0000
1001
0000
0000
0000
,
0001
0000
1000
0100
0000
1000
0001
0000
1000
0010
0000
0000
1000
0001
1000
0001
,
1000
0000
0010
0100
0000
0100
0001
0000
1000
0000
0100
0000
1001
0000
0000
0000
,
1000
0000
0010
0100
0000
0010
0001
0000
0010
1000
0000
0000
0001
0010
0001
0010
,
0100
0000
1000
0001
0000
0100
0010
1000
0001
0000
0010
0000
1001
0000
0000
0000
,
0001
0000
0010
0100
0000
0010
1000
0000
0010
0001
0000
0000
1000
0010
0100
0000
,
0001
0100
0001
0100
0000
0010
1000
0001
0010
0000
0100
1000
0001
0100
0001
0100
,
0001
0000
0010
0100
1000
0000
0010
0100
0001
0100
0010
0000
1000
0000
0001
0010
,
0100
0000
0100
1000
0010
0000
0001
0010
0001
0000
0010
0100
0000
0000
0001
1000
,
0100
0000
0001
0000
0100
0010
0100
0010
0001
0000
1000
0000
0010
0100
0010
0100
,
0001
0000
1000
0000
0100
0000
0001
0000
0100
0010
0001
0000
1000
0010
0000
0010
,
0100
0000
0001
0100
0001
0000
1000
0100
0000
0010
0001
0000
1000
0000
0000
0000
,
0001
0100
0010
0100
0001
0000
1000
0000
0100
0010
0000
0100
0010
0000
0000
0001
,
1000
0000
0010
0000
0100
0001
0100
0001
1000
0000
0100
0000
1000
0001
0000
0000
,
0001
0100
0001
0100
0000
0010
1000
0010
1000
0000
0100
0000
0010
0001
0010
0001
,
1000
0000
0100
0000
0001
0000
0100
0000
1000
0000
0010
0000
0100
0010
0100
0000
,
0001
1000
0001
0000
1000
0100
1000
0100
0010
0001
1000
0010
1000
0000
0000
0000
,
0001
0100
0001
0100
0010
0000
0000
0000
1000
0000
0100
0000
0001
0100
0010
0000
,
0001
0000
1000
0000
0010
0000
0100
0000
0010
1000
0100
1000
0010
0000
0000
0000
,
1000
0000
0010
0000
0001
0000
0000
0001
0000
0010
1000
0000
0001
0000
0000
0000
,
1000
0100
0010
0000
0001
0100
0010
0000
1000
0000
0001
0100
0001
0000
0000
0000
,
1000
0000
0100
0000
0001
0000
0100
0000
0010
0100
0010
0100
1000
0000
0001
0000
,
1000
0010
1000
0010
0000
0000
0100
0001
0100
0001
0000
1000
0100
0010
0001
0000
,
1001
0000
1000
0100
0000
0000
1001
0000
0001
0100
0000
0000
0001
0100
0010
0100
,
0001
0000
1000
0100
0000
0100
0010
0000
0001
0000
0100
0000
0110
0000
0000
0000
,
1001
0000
0001
0010
0000
0000
1001
0000
1000
0010
0000
0000
1000
0010
0100
0010
,
1000
0000
0001
0010
0000
0010
0100
0000
1000
0000
0010
0000
1001
0000
0000
0000
,
0001
0000
0100
1000
0000
0100
0001
0000
0100
1000
0000
0100
0001
0010
0100
1000
,
0010
0000
0100
0010
0000
1000
0001
1000
0001
0000
0100
0000
1001
0000
0000
0000
,
1000
0000
0100
0001
0000
0100
1000
0000
0100
0001
0000
0100
1000
0010
0100
0001
,
0010
0000
0100
0010
0000
0001
1000
0001
1000
0000
0010
0100
0001
1000
0001
1000
,
0020
0000
1000
0001
,
0230
0000
0001
1000
,
0302
0010
2003
0010
,
3002
0103
2002
3003
,
1000
0100
0001
0100
1000
0000
1001
0000
,
0001
0000
0100
0000
0110
0000
0010
1000
0000
1000
0001
0000
0010
0000
0000
0000
,
0001
0010
1000
0010
0001
0000
1001
0000
,
0001
0010
0001
0010
0000
0000
0100
1000
0100
1000
0000
0001
0100
0010
1000
0000
,
2010
0000
0000
0010
0000
0000
0001
0000
0000
3100
0000
0000
1100
0000
0000
0000
,
0001
0000
0100
0000
1000
0000
0100
0010
0000
0100
0010
0000
1000
0000
0001
0000
,
0102
0000
0000
0100
0000
0000
1000
0000
0000
0013
0000
0000
0011
0000
0000
0000
,
0001
0100
0001
0100
0000
0000
0010
1000
0010
1000
0000
0001
0010
0100
1000
0000
,
1010
0000
0000
1001
0000
0000
0011
0000
0000
1001
0000
0000
0001
1000
0100
0010
,
0001
0000
0000
1000
0000
0001
0100
0001
0100
0000
0010
1000
0001
0000
0000
0000
,
0011
0000
0000
1001
0000
0000
1010
0000
0000
1001
0000
0000
1000
0001
0010
0100
,
1000
0000
0000
0001
0000
1000
0010
1000
0010
0000
0001
0000
0010
0000
1000
0000
,
0001
0000
0000
0001
0000
0000
1000
0000
0000
1000
0000
0000
0100
0000
0010
0000
,
0002
2000
0000
0000
0000
0000
0000
0000
,
3003
0000
0000
0000
;

//---------------dance-double - eataninja----------------
#NOTEDATA:;
#CHARTNAME:;
#STEPSTYPE:dance-double;
#DESCRIPTION:eataninja;
#CHARTSTYLE:;
#DIFFICULTY:Easy;
#METER:6;
#RADARVALUES:0.248428,0.271931,0.127867,0.085245,0.000000,204.000000,189.000000,15.000000,10.000000,0.000000,0.000000,0.000000,0.000000,0.000000,0.248428,0.271931,0.127867,0.085245,0.000000,204.000000,189.000000,15.000000,10.000000,0.000000,0.000000,0.000000,0.000000,0.000000;
#CREDIT:eataninja;
#NOTES:
// measure 0
00000000
00000000
00000000
00000000
,  // measure 1
00000000
00000000
00000000
00000000
,  // measure 2
00000000
00000000
00000000
00000000
,  // measure 3
00000000
00000000
00000000
00000000
,  // measure 4
00000001
00000100
00001000
00000000
,  // measure 5
00001000
00010000
00000200
00000000
,  // measure 6
00001300
01000000
00100000
00000000
,  // measure 7
01100000
00000000
10010000
00000000
,  // measure 8
10000000
00100000
10000000
00100000
,  // measure 9
01000000
00001000
00010000
00000000
,  // measure 10
00010000
00000100
00010000
00000100
,  // measure 11
00001000
00000010
00000100
00000000
,  // measure 12
00000001
00000010
00000001
00000010
,  // measure 13
00000100
00010000
00001000
00000000
,  // measure 14
00001000
01000000
00001000
01000000
,  // measure 15
01100000
00000000
10010000
00000000
,  // measure 16
10000000
01000000
00010000
00010000
,  // measure 17
00001000
00000100
00000001
00000010
,  // measure 18
00000100
00000100
00000010
00000010
,  // measure 19
00000001
00000100
00001000
00010000
,  // measure 20
00011000
00000000
01001000
00000000
,  // measure 21
01000000
10000000
01000000
00010000
,  // measure 22
00100000
00100000
01000000
01000000
,  // measure 23
10000000
00100000
00010000
00000000
,  // measure 24
00001000
00000100
00000001
00000010
,  // measure 25
00000100
00010000
00001000
00011000
,  // measure 26
00010000
01000000
10000000
10000000
,  // measure 27
00100000
00000000
01000000
00000000
00001000
00010000
00001000
00000000
,  // measure 28
00100000
00001000
00000010
00000100
,  // measure 29
00001000
00000001
00000100
00000100
,  // measure 30
00000010
00001000
00000100
00010000
,  // measure 31
00011000
00000000
01001000
00000000
,  // measure 32
01000000
00100000
10000000
00100000
,  // measure 33
01000000
00001000
00010000
01000000
,  // measure 34
00100000
00001000
00010000
00001000
,  // measure 35
00000100
00000001
00000010
00000001
,  // measure 36
00000100
00000010
00001000
00000010
,  // measure 37
00000100
00001000
00010000
01000000
,  // measure 38
00100000
00001000
00010000
00001000
,  // measure 39
00011000
00000000
00010100
00000000
,  // measure 40
00000200
00000000
00000320
00000000
,  // measure 41
00000032
00000000
00000203
00000000
,  // measure 42
00000320
00000000
00020030
00000000
,  // measure 43
00002000
00000000
00000000
00033000
,  // measure 44
00001000
01000000
00001000
01000000
00001000
00000000
00000000
00000000
,  // measure 45
00100000
01000000
10000000
00100000
,  // measure 46
01000000
00001000
01000000
00001000
01000000
00000000
00000000
00000000
,  // measure 47
01100000
00000000
10010000
00000000
,  // measure 48
10000000
01000000
00010000
01000000
,  // measure 49
00100000
00001000
00010000
00000010
,  // measure 50
00000100
00001000
00000100
00000001
,  // measure 51
00001001
00000000
00000110
00000000
,  // measure 52
00000100
00000001
00000010
00001000
,  // measure 53
00010000
00000000
01000000
00000000
10000000
00100000
10000000
00000000
,  // measure 54
01000000
10000000
00100000
00010000
,  // measure 55
00001000
00000000
00000100
00000000
00000001
00000010
00000001
00000000
,  // measure 56
00000010
00000001
00001000
00000010
,  // measure 57
00020000
00002000
00000000
00000000
00000000
00000000
00000000
00000000
,  // measure 58
00033000
00000000
00000000
00000000
;

//---------------dance-double - ----------------
#NOTEDATA:;
#CHARTNAME:;
#STEPSTYPE:dance-double;
#DESCRIPTION:;
#CHARTSTYLE:;
#DIFFICULTY:Challenge;
#METER:14;
#RADARVALUES:0.607675,0.642747,0.204588,0.179014,0.686222,499.000000,475.000000,24.000000,21.000000,0.000000,0.000000,0.000000,0.000000,0.000000,0.607675,0.642747,0.204588,0.179014,0.686222,499.000000,475.000000,24.000000,21.000000,0.000000,0.000000,0.000000,0.000000,0.000000;
#CREDIT:Ben Speninja;
#NOTES:
// measure 0
00000000
00000000
00000000
00000000
,  // measure 1
00000000
00000000
00000000
00000000
,  // measure 2
00000000
00000000
00000000
00000000
,  // measure 3
00000000
00000000
00000000
00000000
,  // measure 4
00010000
00000000
00001000
00000000
00000100
00000000
00000000
00000100
00000000
00000000
00000010
00000000
00010000
00000000
00000000
00000000
,  // measure 5
00001000
00000000
00010000
00000000
01000000
00000000
00000000
01000000
00000000
00000000
00100000
00000000
00001000
00000000
00000000
00000000
,  // measure 6
00010000
00000000
00000010
00000000
00000100
00000000
00000010
00001000
00000000
00001000
00000000
00000100
00010000
00000000
00001000
00000000
,  // measure 7
00100000
00010000
00100000
00010000
00000000
00000000
01000000
00001000
01000000
00001000
00000000
01000000
00010000
10000000
00010000
00000000
,  // measure 8
10000000
00000000
00010000
00100000
00000000
00010000
10000000
00000000
00010000
02000000
00000000
00000000
03001000
00010000
00001000
00010000
,  // measure 9
00001000
00000000
00010000
00000100
00000000
00000100
00000010
00000000
00000001
00000000
00001000
00000000
00001001
00000000
00000000
00000000
,  // measure 10
00000001
00000000
00001000
00000010
00000000
00001000
00000001
00000000
00001000
00000200
00000000
00000000
00013300
00001000
00010000
00001000
,  // measure 11
00010000
00000000
00001000
01000000
00000000
01000000
00100000
00000000
10000000
00000000
00010000
00000000
10010000
00000000
00000000
00000000
,  // measure 12
00010000
00000000
00100000
01000000
00000000
00100000
10000000
00000000
00100000
00020000
00000000
00000000
01030000
00001000
01000000
00001000
,  // measure 13
00010000
00000000
00000100
00001000
00000000
00000001
00000100
00000000
00000010
00000000
00000100
00000000
00001001
00000000
00000000
00000000
,  // measure 14
00001000
00000000
00000010
00000100
00000000
00000010
00000001
00000000
00000010
00002000
00000000
00000000
00003100
00010000
00001000
00000000
,  // measure 15
01000000
00010000
01000000
00010000
00000000
10000000
01000000
00100000
00010000
00000000
10000000
00010000
01000000
00100000
01000000
00100000
,  // measure 16
10000000
00000000
01000000
00100000
00010000
00000000
01000000
00000000
10000000
01000000
10000000
00000000
01000000
00000000
00010000
00100000
,  // measure 17
00001000
00000000
00010000
00001000
00010000
00000000
00000010
00000100
00000001
00000000
00001000
00000100
00000000
00000000
00001000
00000001
,  // measure 18
00001000
00000000
00000010
00000000
00000100
00000001
00000100
00000001
00001000
00000000
00000100
00000000
00000010
00001000
00000010
00000000
,  // measure 19
00000001
00000000
00000100
00000010
00000100
00000000
00000010
00001000
00000100
00000000
00010000
00000000
00001000
01000000
00000000
01000000
,  // measure 20
00100000
00000000
10000000
00100000
10000000
00000000
00010000
00100000
00000000
01000000
10000000
00000000
00020000
00000000
00000000
00000000
,  // measure 21
01030000
00100000
01000000
00001000
01000000
00000000
00001000
00000000
00010000
00000100
00000000
00000010
00000001
00000000
00000000
00000000
,  // measure 22
00001000
00000000
00000010
00000000
00000100
00000010
00000100
00000010
00001000
00000000
00000100
00000000
00010000
00001000
00000000
00000000
,  // measure 23
01000000
00010000
01000000
00010000
00000000
10000000
01000000
10000000
01000000
00000000
00100000
00000000
00010000
10000000
00010000
10000000
,  // measure 24
00100000
00000000
00010000
00000000
00001000
00000000
00000100
00000000
00000010
00000100
00000010
00000000
00001000
00000001
00001000
00000000
,  // measure 25
00000001
00000010
00000001
00000000
00001000
00000010
00001000
00000010
00000100
00000001
00001000
00000001
00001000
00000000
00000000
00000000
,  // measure 26
00000100
00010000
00000100
00010000
00002000
00000000
00000000
00000000
00013000
00000000
00100000
00000000
10000000
00010000
10000000
00000000
,  // measure 27
00100000
00000000
01000000
00000000
00010000
00000000
00100000
00000000
00001000
01000000
00010000
01000000
00002000
00000000
00000000
00000000
,  // measure 28
00013000
00000000
01000000
00000000
10000000
00000000
00000000
01000000
00000000
00010000
00001000
00000000
00000020
00000000
00000000
00000000
,  // measure 29
00000031
00000000
00000100
00000000
00001000
00000000
00000100
00000010
00000000
00001000
00000100
00000010
00000001
00000000
00000000
00000000
,  // measure 30
00001000
00000000
00000010
00000000
00000001
00000000
00000010
00000000
00000100
00000010
00000100
00000010
00001000
00000000
00000100
00000000
,  // measure 31
00010000
00001000
00010000
00001000
00000000
00000000
00100000
00010000
00100000
00010000
00000000
01000000
00001000
00010000
00001000
00000000
,  // measure 32
00011000
00000000
00010000
01000000
00000000
00000000
00011000
00000000
00001000
00000100
00000000
00000000
00000001
00000100
00000010
00000100
,  // measure 33
00000001
00000000
00001000
00000100
00000000
00000100
00000010
00000000
00001000
00000000
00010000
00000000
00001000
00000000
00000000
00000000
,  // measure 34
00011000
00000000
00001000
00000010
00000000
00000000
00011000
00000000
00010000
00100000
00000000
00000000
10000000
00100000
01000000
00100000
,  // measure 35
10000000
00000000
00010000
00100000
00000000
00100000
01000000
00000000
00010000
00000000
00001000
00000000
00011000
00000000
00000000
00000000
,  // measure 36
00010000
00000000
00001000
00000100
00000000
00001000
00010000
00000000
00001000
00000200
00000000
00000000
00000301
00001000
00000001
00000000
,  // measure 37
00001000
00000000
00000100
00000010
00000000
00000010
00001000
00000000
00010000
00000000
00001000
00000000
00011000
00000000
00000000
00000000
,  // measure 38
00001000
00000000
00010000
00100000
00000000
00010000
00001000
00000000
00010000
00200000
00000000
00000000
10300000
00010000
10000000
00000000
,  // measure 39
00100000
00000000
01000000
00100000
00000000
10000000
00010000
10000000
00010000
00000000
00100000
00000000
00001000
00010000
00001000
00010000
,  // measure 40
00002000
00000000
00100000
01000000
,  // measure 41
00023000
00000000
00000010
00000100
,  // measure 42
00032000
00100000
00000010
00100000
,  // measure 43
00023000
01000000
00002000
00033000
,  // measure 44
00010000
00001000
00000100
00000001
00001000
00000000
00001001
00000000
,  // measure 45
00000001
00000000
00000010
00000000
00000110
00000000
00000100
00001000
00000000
00000100
00010000
00000000
00001000
00000000
00000000
00000000
,  // measure 46
00001000
00010000
01000000
10000000
00010000
00000000
10010000
00000000
,  // measure 47
10000000
00100000
10000000
00100000
00000000
00000000
01000000
00010000
01000000
00010000
00000000
00100000
00001000
00000000
00010000
00000000
,  // measure 48
00021000
00000000
00000000
00000010
00000000
00000000
00000100
00000000
00000000
00030010
00000000
00000000
00002010
00000000
00000000
00000000
,  // measure 49
00003001
00000000
00000100
00000000
00001000
00000000
00000100
00000010
00000000
00001000
00000100
00000000
00010000
00000000
00000000
00000000
,  // measure 50
00012000
00000000
00000000
00100000
00000000
00000000
01000000
00000000
00000000
00103000
00000000
00000000
00120000
00000000
00000000
00000000
,  // measure 51
10030000
00100000
10000000
00100000
00000000
10000000
01000000
00100000
00010000
00000000
01000000
00001000
01000000
00000000
00001000
00000000
,  // measure 52
00011000
00000000
00000000
00010100
00000000
00000000
00011000
00000000
00000000
00101000
00000000
00000000
00001000
00010000
00001000
00010000
,  // measure 53
00000010
00000000
00001000
00000010
00000000
00000100
00000001
00001000
00000001
00000000
00000010
00000100
00010000
00000000
00001000
00000000
,  // measure 54
00011000
00000000
00000000
00101000
00000000
00000000
00011000
00000000
00000000
00010100
00000000
00000000
00010000
00001000
00010000
00001000
,  // measure 55
01000000
00000000
00010000
01000000
00000000
00100000
10000000
00010000
10000000
00000000
01000000
00100000
00001000
00000000
00010000
00000000
,  // measure 56
00000100
00000000
00000000
00000100
00000000
00000000
01000000
00000000
00000000
01000000
00000000
00000000
00001000
00000000
00010000
00000000
,  // measure 57
00000020
00200000
00000000
00000000
00000000
00000000
00000000
00000000
,  // measure 58
00300030
00000000
00000000
00000000
;

//---------------dance-single - ----------------
#NOTEDATA:;
#CHARTNAME:;
#STEPSTYPE:dance-single;
#DESCRIPTION:;
#CHARTSTYLE:;
#DIFFICULTY:Medium;
#METER:9;
#RADARVALUES:0.350722,0.370816,0.161965,0.289833,0.068196,288.000000,269.000000,19.000000,34.000000,0.000000,0.000000,0.000000,0.000000,0.000000,0.350722,0.370816,0.161965,0.289833,0.068196,288.000000,269.000000,19.000000,34.000000,0.000000,0.000000,0.000000,0.000000,0.000000;
#CREDIT:Ben Speirs;
#NOTES:
0000
0000
0000
0000
,
0000
0000
0000
0000
,
0000
0000
0000
0000
,
0000
0000
0000
0000
,
1000
0100
1000
0000
0001
0000
1100
0000
,
0001
0100
0001
0000
1000
0000
0101
0000
,
1000
0010
0100
0000
0001
0010
0100
0000
,
2002
0000
0000
3003
,
1000
0000
0000
1000
0000
0000
0100
0000
0000
0100
0000
0000
0020
0000
0000
0000
,
0031
0000
1000
0000
0001
0100
0100
0000
,
0001
0000
0000
0001
0000
0000
0010
0000
0000
0010
0000
0000
0200
0000
0000
0000
,
1300
0000
0001
0000
1000
0010
0010
0000
,
1000
0000
0000
0100
0000
0000
1000
0000
0000
0100
0000
0000
0020
0000
0000
0000
,
0031
0000
1000
0000
0001
0100
0100
0000
,
0001
0000
0000
0010
0000
0000
0001
0000
0000
0010
0000
0000
0200
0000
0000
0000
,
1300
0001
0100
0000
0001
1000
0100
0000
,
1000
0010
1000
0000
0010
0100
0010
0000
,
0100
0000
0001
0000
1000
0100
0010
0000
,
0002
0000
1003
0000
0001
1000
0010
0000
,
2000
0000
3001
0000
1000
0001
0010
0000
,
1001
0000
1001
0000
1000
0001
0100
0000
,
0001
0100
0010
0000
1000
0010
0100
0000
,
0001
0010
0001
0000
0010
0100
0010
0000
,
0100
1000
0001
0000
2000
0000
3001
0000
,
0201
0320
2030
3002
,
1003
0100
0010
0000
0001
1000
0010
0000
,
0100
0010
0100
0000
0001
0100
0001
0000
,
1000
0100
0010
0000
0001
1000
0010
0000
,
0100
0100
0100
0000
0010
0010
0100
0000
,
0001
0000
1000
0000
0001
0010
0100
0000
,
1000
0100
1000
0000
0001
0100
0001
0000
,
1000
0001
1000
0001
1000
0001
0100
0000
,
2001
3100
1002
0103
,
0001
0100
0010
0000
1000
0010
0100
0000
,
0102
0013
2100
3010
,
1000
0001
0100
0000
0001
1000
0100
0000
,
1000
0000
0000
0001
0000
0000
1000
0000
0000
0001
0000
0000
0200
0000
0000
0000
,
0310
0000
1000
0000
0100
0010
0001
0000
,
1000
0000
0000
0001
0000
0000
1000
0000
0000
0001
0000
0000
0200
0000
0000
0000
,
0310
1000
0100
0000
0010
0001
0100
0000
,
1002
0000
0203
0000
,
0320
0000
2030
0000
,
3002
0000
0023
0000
,
0230
0300
2002
3003
,
1000
0100
1000
0100
1000
0000
1100
0000
,
0001
1000
0010
0110
,
0001
0100
0001
0100
0001
0000
0101
0000
,
1000
1000
0000
0001
0001
0000
0100
0000
,
0101
0000
0000
0100
0000
0000
0001
0000
0000
0001
0000
0000
2000
0000
0000
0000
,
3001
0010
0100
0000
1000
0010
0100
0000
,
1010
0000
0000
0010
0000
0000
1000
0000
0000
1000
0000
0000
0020
0000
0000
0000
,
0130
0001
1000
0000
0001
1000
0100
0000
,
1000
0100
0001
0000
0001
0100
1000
0000
,
0100
1000
0020
0000
0130
0000
0110
0000
,
0001
0100
1000
0000
1000
0100
0001
0000
,
0100
0001
0020
0000
0130
0000
0110
0000
,
1000
0100
0010
0000
0001
0100
0010
0000
,
2000
0002
0000
0000
0000
0000
0000
0000
,
3003
0000
0000
0000
;

//---------------dance-double - ----------------
#NOTEDATA:;
#CHARTNAME:;
#STEPSTYPE:dance-double;
#DESCRIPTION:;
#CHARTSTYLE:;
#DIFFICULTY:Medium;
#METER:9;
#RADARVALUES:0.370207,0.370816,0.221637,0.264259,0.034098,304.000000,278.000000,26.000000,31.000000,0.000000,0.000000,0.000000,0.000000,0.000000,0.370207,0.370816,0.221637,0.264259,0.034098,304.000000,278.000000,26.000000,31.000000,0.000000,0.000000,0.000000,0.000000,0.000000;
#CREDIT:Ben Speirs;
#NOTES:
// measure 0
00000000
00000000
00000000
00000000
,  // measure 1
00000000
00000000
00000000
00000000
,  // measure 2
00000000
00000000
00000000
00000000
,  // measure 3
00000000
00000000
00000000
00000000
,  // measure 4
00010000
00000100
00010000
00000000
00001000
00000000
00011000
00000000
,  // measure 5
00001000
01000000
00001000
00000000
00010000
00000000
00011000
00000000
,  // measure 6
00001000
00100000
01000000
00000000
10000000
00100000
01000000
00000000
,  // measure 7
20020000
00000000
00000000
30030000
,  // measure 8
10000000
01000000
00010000
00000000
00001000
00000010
00000001
00000000
,  // measure 9
00001000
00000000
00001010
00000000
00000010
00000100
00000001
00000000
,  // measure 10
00000001
00000010
00001000
00000000
00010000
01000000
10000000
00000000
,  // measure 11
00010000
00000000
01010000
00000000
01000000
00100000
10000000
00000000
,  // measure 12
10000000
00100000
00010000
00000000
00001000
00000100
00000001
00000000
,  // measure 13
00001000
00000000
00001100
00000000
00000100
00000010
00000001
00000000
,  // measure 14
00000001
00000100
00001000
00000000
00010000
00100000
10000000
00000000
,  // measure 15
00010000
00100000
00010000
00000000
10000000
00100000
10000000
00000000
,  // measure 16
10010000
00000000
00010000
00000000
00100000
00001000
00010000
00000000
,  // measure 17
00001000
00010000
00000010
00000000
00000100
00000100
00000100
00000000
,  // measure 18
00000001
00000100
00000010
00000000
00001000
00000100
00010000
00000000
,  // measure 19
00001000
00010000
00001000
00000000
00100000
00010000
01000000
00000000
,  // measure 20
20010000
00000000
30200000
00000000
01300000
00010000
00100000
00000000
,  // measure 21
00001000
00010000
00001000
00000000
00010000
00000010
00000100
00000000
,  // measure 22
00000001
00000100
00000010
00000000
00001000
00000100
00010000
00000000
,  // measure 23
00001000
00010000
00001000
00010000
00001000
00100000
01000000
00000000
,  // measure 24
20010000
30200000
00320000
00032000
,  // measure 25
00003100
00000010
00001000
00000000
00000001
00000010
00000100
00000000
,  // measure 26
00000010
00000010
00000010
00000000
00000100
00000100
00000100
00000000
,  // measure 27
00010000
00001000
00010000
00001000
00100000
00010000
01000000
00000000
,  // measure 28
00010000
01000000
10000000
00000000
10000000
01000000
00010000
00000000
,  // measure 29
00100000
00001000
00010000
00000000
00001000
00010000
00000010
00000000
,  // measure 30
00000100
00000010
00000100
00000010
00001000
00000001
00001000
00000000
,  // measure 31
00000001
00000010
00000001
00000010
00000100
00001000
00000001
00000000
,  // measure 32
00001000
00000000
00000000
00001000
00000000
00000000
00000100
00000000
00000000
00000100
00000000
00000000
00020000
00000000
00000000
00000000
,  // measure 33
00031000
00100000
00010000
00000000
01000000
00000000
10010000
00000000
,  // measure 34
00010000
00000000
00000000
00010000
00000000
00000000
00100000
00000000
00000000
00100000
00000000
00000000
00002000
00000000
00000000
00000000
,  // measure 35
00013000
00000100
00001000
00000000
00000010
00000000
00001001
00000000
,  // measure 36
00000001
00000000
00000000
00000100
00000000
00000000
00001000
00000000
00000000
00010000
00000000
00000000
00200000
00000000
00000000
00000000
,  // measure 37
10300000
00010000
10000000
00000000
00010000
00000000
00110000
00000000
,  // measure 38
10000000
00000000
00000000
01000000
00000000
00000000
00010000
00000000
00000000
00001000
00000000
00000000
00000020
00000000
00000000
00000000
,  // measure 39
00000031
00001000
00000010
00000000
00001000
00000001
00000010
00000000
,  // measure 40
00002001
00000000
00003200
00000000
,  // measure 41
00020300
00000000
00032000
00000000
,  // measure 42
02003000
00100000
03020000
00100000
,  // measure 43
20030000
30100000
20020000
30030000
,  // measure 44
10000000
01000000
00010000
01000000
20000000
00000000
30000000
00000000
,  // measure 45
00010000
01000000
00001000
00000000
00010000
00000100
00001000
00000000
,  // measure 46
00000001
00000100
00001000
00000100
00000002
00000000
00000003
00000000
,  // measure 47
00001100
00000101
00001010
00000011
,  // measure 48
00002001
00003100
00001002
00000103
,  // measure 49
00000100
00001000
00010000
00000000
00001000
00100000
01000000
00000000
,  // measure 50
10020000
00130000
20010000
30100000
,  // measure 51
00100000
00010000
00001000
00000000
00010000
00000100
00000010
00000000
,  // measure 52
00000001
00001000
00000001
00001000
00000010
00000000
00010000
00000000
,  // measure 53
00002000
00000000
00003000
00100000
00010000
10000000
00010000
00000000
,  // measure 54
10000000
00010000
10000000
00010000
01000000
00000000
00001000
00000000
,  // measure 55
00020000
00000000
00030000
00000100
00001000
00000001
00001000
00000000
,  // measure 56
00001001
00000110
00001001
00000110
,  // measure 57
00020000
00002000
00000000
00000000
00000000
00000000
00000000
00000000
,  // measure 58
00033000
00000000
00000000
00000000
;

//---------------dance-double - ----------------
#NOTEDATA:;
#CHARTNAME:;
#STEPSTYPE:dance-double;
#DESCRIPTION:;
#CHARTSTYLE:;
#DIFFICULTY:Hard;
#METER:12;
#RADARVALUES:0.482243,0.494421,0.349504,0.281308,0.358029,396.000000,355.000000,41.000000,33.000000,0.000000,0.000000,0.000000,0.000000,0.000000,0.482243,0.494421,0.349504,0.281308,0.358029,396.000000,355.000000,41.000000,33.000000,0.000000,0.000000,0.000000,0.000000,0.000000;
#CREDIT:eataBenna;
#NOTES:
// measure 0
00000000
00000000
00000000
00000000
,  // measure 1
00000000
00000000
00000000
00000000
,  // measure 2
00000000
00000000
00000000
00000000
,  // measure 3
00000000
00000000
00000000
00000000
,  // measure 4
00001000
00000000
01000000
00000000
00010000
00000000
00000000
00000000
01000000
00001000
00000000
00000000
00011000
00000000
00000000
00000000
,  // measure 5
00010000
00000000
00000100
00000000
00001000
00000000
00000000
00000000
00000100
00010000
00000000
00000000
00011000
00000000
00000000
00000000
,  // measure 6
00010000
00000000
00000010
00000000
00000100
00000000
00000001
00000000
00001000
00000001
00000000
00000000
00001001
00000000
00000000
00000000
,  // measure 7
00000001
00000100
00000001
00000100
00000000
00000000
00000010
00001000
00000010
00001000
00000000
00000000
00000100
00000000
00000100
00000000
,  // measure 8
00010000
00000000
00000000
00000010
00000000
00000000
00010000
00000000
00000000
00001000
00000000
00000000
00012000
00000000
00000000
00000000
,  // measure 9
00103000
00000000
00010000
00000000
01000000
00000000
01000000
00000000
00100000
00000000
00010000
00001000
00000000
00000000
00000000
00000000
,  // measure 10
00001000
00000000
00000000
00100000
00000000
00000000
00001000
00000000
00000000
00010000
00000000
00000000
00021000
00000000
00000000
00000000
,  // measure 11
00030100
00000000
00001000
00000000
00000010
00000000
00000010
00000000
00000100
00000000
00001000
00010000
00000000
00000000
00000000
00000000
,  // measure 12
00001000
00000000
00000000
00100000
00000000
00000000
00001000
00000000
00000000
00000010
00000000
00000000
00002000
00000000
00000000
00000000
,  // measure 13
00013000
00000000
00000010
00000000
00000100
00000000
00000001
00000000
00001000
00000000
00000100
00010000
00000000
00000000
00000000
00000000
,  // measure 14
00010000
00000000
00000000
01000000
00000000
00000000
00010000
00000000
00000000
00000100
00000000
00000000
00020000
00300000
00000000
00000000
,  // measure 15
00031000
01000000
00001000
01000000
00000000
00000000
00010000
10000000
00010000
10000000
00000000
00000000
00100000
00000000
00100000
00000000
,  // measure 16
10000000
01000000
00010000
01000000
00100000
00001000
00010000
00000100
,  // measure 17
00001000
00000000
00000010
00000000
00000001
00000000
00000010
00000000
00001000
00000000
00000001
00000010
00000000
00000000
00000000
00000001
,  // measure 18
00001000
00000000
00001000
00000000
00000100
00000000
00000000
00010000
00001000
00000000
00001000
00000000
01000000
00000000
00000000
00010000
,  // measure 19
00100000
00100000
01000000
10000000
00010000
01000000
00100000
00000000
,  // measure 20
10100000
00000000
10020000
00000000
00130000
00001000
00010000
00000000
,  // measure 21
00001000
00000000
00000100
00000000
00000010
00000000
00001000
00000100
00000000
00000010
00000000
00000001
00001000
00000000
00000000
00000000
,  // measure 22
00000001
00000000
00000100
00000000
00000010
00000000
00000010
00000000
00001000
00000000
00000100
00000000
00010000
00001000
00000000
00000000
,  // measure 23
01000000
00010000
01000000
00100000
10000000
00000000
10010000
00000000
,  // measure 24
00010000
00100000
00000000
00000000
00100000
00001000
00000000
00000000
00001000
00010000
00000000
00000000
00010000
00000010
00000000
00000000
,  // measure 25
00001000
00000000
00000010
00000000
00000100
00000000
00000001
00000000
00001000
00000100
00001000
00000000
00000001
00000000
00000000
00000000
,  // measure 26
00001000
00000100
00020100
00000000
00031000
01000000
02010000
00000000
,  // measure 27
03010000
00000000
00100000
00000000
10000000
00000000
00100000
00000000
00010000
10000000
00010000
10000000
00010000
00000000
00000000
00000000
,  // measure 28
10000000
00000000
00100000
00000000
00020000
00000000
00000000
00032000
00000000
00000000
00003100
00000000
00000002
00000000
00000000
00000000
,  // measure 29
00001003
00000000
00000100
00000000
00000010
00000000
00000001
00001000
00000000
00000001
00001000
00000000
00000010
00000000
00000000
00000000
,  // measure 30
00001000
00000100
00000001
00000100
00010000
00001000
01000000
00100000
,  // measure 31
01000000
00010000
01000000
00010000
00000000
00000000
00100000
00001000
00100000
00001000
00000000
00000000
00010000
00000000
00010000
00000000
,  // measure 32
00012000
00000300
00000000
00103000
00000000
00000000
00021000
00000000
00000000
00030010
00000000
00000000
00002010
00000000
00000000
00000000
,  // measure 33
00003301
00000000
00000010
00000000
00001000
00000000
00000010
00000000
00000100
00000000
00010000
00001000
00000000
00000000
00000000
00000000
,  // measure 34
00021000
00300000
00000000
00030010
00000000
00000000
00012000
00000000
00000000
00103000
00000000
00000000
00120000
00000000
00000000
00000000
,  // measure 35
10330000
00000000
01000000
00000000
00010000
00000000
01000000
00000000
00100000
00000000
00001000
00010000
00000000
00000000
00000000
00000000
,  // measure 36
00011000
00000000
00000000
01001000
00000000
00000000
00011000
00000000
00000000
00010100
00000000
00000000
00002001
00000000
00000000
00000000
,  // measure 37
00003010
00000000
00000001
00000000
00000010
00000000
00001000
00000100
00001000
00000000
00000100
00010000
00000000
00000000
00000000
00000000
,  // measure 38
00011000
00000000
00000000
00010010
00000000
00000000
00011000
00000000
00000000
00101000
00000000
00000000
10020000
00000000
00000000
00000000
,  // measure 39
01030000
00000000
10000000
00000000
01000000
00000000
00010000
00100000
00010000
00000000
00100000
00001000
00000000
00000000
00000000
00000000
,  // measure 40
00021000
00000000
00030020
00000000
,  // measure 41
00000230
00000000
00000302
00000000
,  // measure 42
00002003
00000010
00003200
00010000
,  // measure 43
00200300
00301000
00022000
00033000
,  // measure 44
00001000
00010000
00100000
10000000
20100000
00000000
30010000
00000000
,  // measure 45
00010000
00000000
00100000
00000000
00110000
00000000
00000000
00100000
00000000
00001000
00010000
00000000
00011000
00000000
00000000
00000000
,  // measure 46
00010000
00001000
00000100
00000001
00000102
00000000
00001003
00000000
,  // measure 47
00000001
00000010
00000001
00000010
00000000
00000000
00000100
00001000
00000100
00001000
00000000
00000000
00000100
00000000
00010000
00000000
,  // measure 48
00010100
00000000
00000000
00100000
00000000
00000000
00010100
00000000
00000000
00100000
00000000
00000000
00012000
00000000
00000000
00000000
,  // measure 49
01003000
00000000
01000000
00000000
00100000
00000000
00000000
00000000
10000000
00010000
00000000
00000000
00110000
00000000
00000000
00000000
,  // measure 50
00101000
00000000
00000000
00000100
00000000
00000000
00101000
00000000
00000000
00000100
00000000
00000000
00021000
00000000
00000000
00000000
,  // measure 51
00030010
00000000
00000010
00000000
00000100
00000000
00000001
00001000
00000001
00000000
00001000
00000100
00000000
00000000
00000000
00000000
,  // measure 52
00001000
00000000
00000001
00000100
00000000
00000000
00000001
00000000
00001000
00000100
00000000
00000000
00010000
00000000
00001000
00000000
,  // measure 53
01000000
00000000
00010000
00100000
00000000
00100000
01000000
00000000
10000000
00000000
00100000
00000000
10010000
00000000
00000000
00000000
,  // measure 54
00010000
00000000
10000000
01000000
00000000
00000000
10000000
00000000
00010000
01000000
00000000
00000000
00001000
00000000
00010000
00000000
,  // measure 55
00000100
00000000
00001000
00000010
00000000
00000010
00000100
00000000
00000001
00000000
00000010
00000000
00001001
00000000
00000000
00000000
,  // measure 56
00000001
00000000
00000000
00000100
00000000
00000000
00001000
00000000
00000000
00010000
00000000
00000000
00100000
00000000
10000000
00000000
,  // measure 57
00020000
20000000
00000000
00000000
00000000
00000000
00000000
00000000
,  // measure 58
30030000
00000000
00000000
00000000
;
