#VERSION:0.83;
#TITLE:Dual Bladez;
#SUBTITLE:;
#ARTIST:おもしろ三国志;
#TITLETRANSLIT:;
#SUBTITLETRANSLIT:;
#ARTISTTRANSLIT:OMOSHIRO SANGOKUSHI;
#GENRE:RAWSTYLE;
#ORIGIN:;
#CREDIT:;
#BANNER:Dual Bladez.png;
#BACKGROUND:Dual Bladez-bg.png;
#PREVIEWVID:;
#JACKET:Dual-Bladez-jacket.png;
#CDIMAGE:;
#DISCIMAGE:;
#LYRICSPATH:;
#CDTITLE:cdtitle.png;
#MUSIC:Dual Bladez.ogg;
#OFFSET:-0.041000;
#SAMPLESTART:68.841003;
#SAMPLELENGTH:15.000000;
#SELECTABLE:YES;
#BPMS:0.000=150.000;
#STOPS:;
#DELAYS:;
#WARPS:;
#TIMESIGNATURES:0.000=4=4;
#TICKCOUNTS:0.000=4;
#COMBOS:0.000=1;
#SPEEDS:0.000=1.000=0.000=0;
#SCROLLS:0.000=1.000;
#FAKES:;
#LABELS:0.000=Song Start;
#BGCHANGES:;
#KEYSOUNDS:;
#ATTACKS:
;

//---------------dance-single - Daff_4K----------------
#NOTEDATA:;
#CHARTNAME:Daff_4K;
#STEPSTYPE:dance-single;
#DESCRIPTION:Daff_4K;
#CHARTSTYLE:;
#DIFFICULTY:Beginner;
#METER:1;
#RADARVALUES:0.088411,0.150168,0.027303,0.000000,0.000000,68.000000,65.000000,3.000000,0.000000,0.000000,0.000000,0.000000,0.000000,0.000000,0.088411,0.150168,0.027303,0.000000,0.000000,68.000000,65.000000,3.000000,0.000000,0.000000,0.000000,0.000000,0.000000,0.000000;
#CREDIT:Daff_4K;
#NOTES:
0000
0000
0000
0000
,
0000
0000
0000
0000
,
0000
0000
0000
0000
,
0000
0000
0000
0000
,
0000
0000
0000
0000
,
1000
0000
0000
0000
,
0001
0000
0000
0000
,
0010
0000
0010
0000
,
0010
0000
0000
0000
,
0001
0000
0000
0000
,
0001
0000
0000
0000
,
1000
0000
0000
0000
,
1000
0000
0000
0000
,
0010
0000
0010
0000
,
0010
0000
0000
0000
,
0100
0000
0100
0000
,
0100
0000
0000
0000
,
0001
0000
0000
0000
,
0010
0000
0000
0000
,
1000
0000
0000
0000
,
0010
0000
0000
0000
,
0001
0000
0000
0000
,
1000
0000
0000
0000
,
0010
0000
0010
0000
,
0010
0000
0000
0000
,
1001
0000
0000
0000
,
0000
0000
0000
0000
,
1000
0000
0000
0000
,
0001
0000
0000
0000
,
1000
0000
0000
0000
,
0001
0000
0000
0000
,
0010
0000
0000
0000
,
0100
0000
0000
0000
,
0010
0000
0000
0000
,
0100
0000
0000
0000
,
1001
0000
0000
0000
,
0000
0000
0000
0000
,
0000
0000
0000
0000
,
0000
0000
0000
0000
,
0001
0000
0000
0000
,
1000
0000
0000
0000
,
0010
0000
0010
0000
,
0010
0000
0000
0000
,
1000
0000
0000
0000
,
0100
0000
0000
0000
,
0001
0000
0000
0000
,
0100
0000
0000
0000
,
1000
0000
0000
0000
,
0010
0000
0000
0000
,
0001
0000
0000
0000
,
0010
0000
0000
0000
,
1000
0000
1000
0000
,
1000
0000
0000
0000
,
0001
0000
0001
0000
,
0001
0000
0000
0000
,
0010
0000
0010
0000
,
0010
0000
0000
0000
,
0100
0000
0100
0000
,
0100
0000
0000
0000
,
1001
0000
0000
0000
,
0000
0000
0000
0000
,
0000
0000
0000
0000
,
0000
0000
0000
0000
,
1000
0000
0000
0000
,
0001
0000
0000
0000
,
0100
0000
0100
0000
,
0100
0000
0000
0000
;

//---------------dance-single - Daff_4K----------------
#NOTEDATA:;
#CHARTNAME:Daff_4K;
#STEPSTYPE:dance-single;
#DESCRIPTION:Daff_4K;
#CHARTSTYLE:;
#DIFFICULTY:Easy;
#METER:6;
#RADARVALUES:0.287334,0.425248,0.182022,0.109213,0.000000,221.000000,201.000000,20.000000,12.000000,0.000000,0.000000,0.000000,0.000000,0.000000,0.287334,0.425248,0.182022,0.109213,0.000000,221.000000,201.000000,20.000000,12.000000,0.000000,0.000000,0.000000,0.000000,0.000000;
#CREDIT:Daff_4K;
#NOTES:
0000
0000
0000
0000
,
0000
0000
0000
0000
,
0000
0000
0000
0000
,
0000
0000
0000
0000
,
0000
0000
0000
0000
,
1000
0100
0001
0100
,
1000
0010
0001
0010
,
0200
0010
0010
0310
,
1001
0110
2002
3003
,
1000
0100
0001
0100
,
1000
0100
0001
0100
,
1000
0010
0001
0010
,
1000
0010
0001
0010
,
1000
0100
0010
0001
,
1000
0001
0100
0010
,
1000
0100
0010
0001
,
1001
0110
2002
3003
,
0001
0100
1000
0100
,
0001
0100
1000
0100
,
0001
0010
1000
0010
,
0001
0010
1000
0010
,
0001
0001
1000
1000
,
0010
0100
0001
1000
,
0200
0010
0010
0310
,
1001
0110
1001
0110
,
1001
0000
0000
0000
,
0000
0000
0000
0000
,
1000
0010
0100
0100
,
0010
1000
0001
0000
,
0001
0010
0100
0100
,
0010
0001
1000
0000
,
1000
0001
0100
0100
,
0010
1000
0001
0000
,
0001
1000
0100
0100
,
0010
0001
1000
0000
,
1001
0000
0000
0000
,
0000
0000
0000
0000
,
0000
0000
0000
0000
,
0000
0000
0000
0000
,
0001
0100
1000
0100
,
0001
0010
1000
0010
,
0200
0010
0010
0310
,
1001
0110
2002
3003
,
0001
0100
0010
0010
,
1000
0100
0010
0010
,
0001
1000
0010
0010
,
0100
0001
1000
0000
,
1000
0100
0010
0010
,
0001
0100
0010
0010
,
1000
0001
0010
0010
,
0100
1000
0001
1000
,
0001
0100
0010
0100
,
0001
1000
0100
0010
,
0001
0100
0010
0100
,
0001
1000
1001
0000
,
1000
0100
0010
0100
,
1000
0001
0100
0010
,
1000
0100
0010
0100
,
1000
0010
0100
0001
,
1001
0000
0000
0000
,
0000
0000
0000
0000
,
0000
0000
0000
0000
,
0000
0000
0000
0000
,
1000
0100
0001
0100
,
1000
0010
0001
0010
,
0200
0010
0010
0310
,
1001
0110
2002
3003
;

//---------------dance-single - Daff_4K----------------
#NOTEDATA:;
#CHARTNAME:Daff_4K;
#STEPSTYPE:dance-single;
#DESCRIPTION:Daff_4K;
#CHARTSTYLE:;
#DIFFICULTY:Medium;
#METER:8;
#RADARVALUES:0.371844,0.455623,0.327639,0.218426,0.086460,286.000000,250.000000,36.000000,24.000000,0.000000,0.000000,0.000000,0.000000,0.000000,0.371844,0.455623,0.327639,0.218426,0.086460,286.000000,250.000000,36.000000,24.000000,0.000000,0.000000,0.000000,0.000000,0.000000;
#CREDIT:Daff_4K;
#NOTES:
// measure 0
0000
0000
0000
0000
,  // measure 1
0000
0000
0000
0000
,  // measure 2
0000
0000
0000
0000
,  // measure 3
0000
0000
0000
0000
,  // measure 4
0000
0000
0000
0000
,  // measure 5
1000
0000
0000
1000
0000
0000
1000
0000
0001
0000
0000
0001
0000
0000
0001
0000
,  // measure 6
0100
0000
0000
0100
0000
0000
0100
0000
0010
0000
0000
0010
0000
0000
0010
0000
,  // measure 7
1000
0100
1000
0000
0001
0100
0001
0000
,  // measure 8
0020
0100
0130
1001
,  // measure 9
2000
0001
0010
3001
,  // measure 10
0002
1000
0010
1003
,  // measure 11
2000
0001
0100
3001
,  // measure 12
0002
1000
0100
1003
,  // measure 13
1000
0000
0001
0100
0010
0000
0010
1000
,  // measure 14
0001
0010
1000
0010
,  // measure 15
0001
0000
1000
0100
0010
0000
0010
0001
,  // measure 16
0200
0010
0310
1001
,  // measure 17
2000
3100
0002
0103
,  // measure 18
2000
0000
3010
0000
0100
0001
0100
0000
,  // measure 19
0002
0103
2000
3100
,  // measure 20
0001
0010
0001
0000
1000
0010
1000
0000
,  // measure 21
0001
0101
1000
1100
,  // measure 22
0002
0023
2030
3020
,  // measure 23
0031
1000
0001
1000
0010
0100
0010
0100
,  // measure 24
0001
1000
0100
0010
,  // measure 25
1001
0000
0000
0000
,  // measure 26
0000
0000
0000
0000
,  // measure 27
0002
0000
0000
0000
0013
0000
0000
0000
0001
0000
0000
1000
0000
0000
0001
0000
,  // measure 28
0200
0000
0000
0000
0310
0000
0000
0000
1000
0000
0000
0001
0000
0000
1000
0000
,  // measure 29
0200
0000
0000
0000
0310
0000
0000
0000
0001
0000
0000
1000
0000
0000
0001
0000
,  // measure 30
0100
0000
0010
0000
1000
0000
0000
0000
0100
0000
0000
0010
0000
0000
0001
0000
,  // measure 31
2000
0000
0000
0000
3010
0000
0000
0000
1000
0000
0000
0001
0000
0000
1000
0000
,  // measure 32
0200
0000
0000
0000
0310
0000
0000
0000
0001
0000
0000
1000
0000
0000
0001
0000
,  // measure 33
0200
0000
0000
0000
0310
0000
0000
0000
1000
0000
0000
0001
0000
0000
1000
0000
,  // measure 34
0100
0010
0001
0000
0200
0000
0310
0000
,  // measure 35
1001
0000
0000
0000
,  // measure 36
0000
0000
0000
0000
,  // measure 37
0000
0000
0000
0000
,  // measure 38
0000
0000
0000
0000
,  // measure 39
1000
0000
0000
1000
0000
0000
1000
0000
0001
0000
0000
0001
0000
0000
0001
0000
,  // measure 40
0010
0000
0000
0010
0000
0000
0010
0000
0100
0000
0000
0100
0000
0000
0100
0000
,  // measure 41
1000
0010
1000
0000
0001
0010
0001
0000
,  // measure 42
0200
0010
0310
1001
,  // measure 43
1000
1100
0001
0101
,  // measure 44
1000
1010
0001
0011
,  // measure 45
1000
0100
0001
0100
,  // measure 46
1000
0001
1001
0000
,  // measure 47
0001
0101
1000
1100
,  // measure 48
0001
0011
1000
1010
,  // measure 49
0001
0100
1000
0100
,  // measure 50
0001
1000
1001
0110
,  // measure 51
1001
1100
1001
1100
,  // measure 52
1000
0010
0100
0001
,  // measure 53
0011
1100
0011
1100
,  // measure 54
1000
0000
0010
0100
0001
0000
1000
0000
,  // measure 55
1001
0101
1001
0101
,  // measure 56
0001
0010
0100
1000
,  // measure 57
1010
0101
1010
0101
,  // measure 58
0001
0000
0010
0100
1000
0000
0001
0000
,  // measure 59
1001
0000
0000
0000
,  // measure 60
0000
0000
0000
0000
,  // measure 61
0000
0000
0000
0000
,  // measure 62
0000
0000
0000
0000
,  // measure 63
1000
0000
0000
1000
0000
0000
1000
0000
0001
0000
0000
0001
0000
0000
0001
0000
,  // measure 64
0100
0000
0000
0100
0000
0000
0100
0000
0010
0000
0000
0010
0000
0000
0010
0000
,  // measure 65
1000
0100
1000
0000
0001
0100
0001
0000
,  // measure 66
0020
0100
0130
1001
;

//---------------dance-single - Daff_4K----------------
#NOTEDATA:;
#CHARTNAME:Daff_4K;
#STEPSTYPE:dance-single;
#DESCRIPTION:Daff_4K;
#CHARTSTYLE:;
#DIFFICULTY:Hard;
#METER:12;
#RADARVALUES:0.531763,0.577123,0.200224,0.273033,0.445953,409.000000,387.000000,22.000000,30.000000,0.000000,0.000000,0.000000,0.000000,0.000000,0.531763,0.577123,0.200224,0.273033,0.445953,409.000000,387.000000,22.000000,30.000000,0.000000,0.000000,0.000000,0.000000,0.000000;
#CREDIT:Daff_4K;
#NOTES:
0000
0000
0000
0000
,
0000
0000
0000
0000
,
0000
0000
0000
0000
,
0000
0000
0000
0000
,
0000
0000
0000
0000
,
1000
0000
0000
0100
0000
0000
1000
0000
0001
0000
0000
0100
0000
0000
0001
0000
,
1000
0000
0000
0010
0000
0000
1000
0000
0001
0000
0000
0010
0000
0000
0001
0000
,
1000
0000
0001
0000
0100
0000
0010
0000
1000
0001
1000
0001
1000
0001
1000
0001
,
0020
0100
0130
0110
,
1001
0000
0000
1000
0100
0000
0000
0100
0001
0000
0000
0001
0100
0000
0000
0100
,
1000
0000
0000
1000
0001
0000
0000
0001
0100
0000
0000
0100
0010
0000
1000
0000
,
0001
0000
0000
0001
0100
0000
0000
0100
1000
0000
0000
1000
0100
0000
0000
0100
,
0001
0000
0000
0001
1000
0000
0000
1000
0100
0000
0000
0100
0010
0000
0001
0000
,
1000
0010
0001
0010
2000
0000
3010
0100
,
0002
0000
1003
0100
0020
0000
0031
1000
,
0001
0010
1000
0010
0002
0000
0013
0100
,
1000
0000
0001
1000
0001
0000
0100
0000
0010
0000
0000
0000
0110
0000
0000
0000
,
1001
0000
0000
0001
0100
0000
0000
0100
0010
0000
0000
0010
1000
0000
0000
1000
,
0100
0000
0000
0100
0001
0000
0000
0001
0100
0000
0000
0100
0010
0000
0001
0000
,
1000
0000
0000
1000
0100
0000
0000
0100
0010
0000
0000
0010
0001
0000
0000
0001
,
1000
0010
1000
0000
0001
0010
0001
0000
0100
0000
0000
0000
0110
0000
0000
0000
,
1001
1100
1010
0101
,
0021
2030
3200
0302
,
0013
1000
0010
0001
1000
0010
0001
0010
,
1000
0001
1000
0000
0001
0000
0010
0000
0100
0000
0000
0000
1000
0001
1000
0000
,
0001
0000
0000
0000
,
0000
0000
0000
0000
,
1200
0000
0000
0000
0001
0000
0000
0000
1300
0000
0000
0010
0000
0000
0100
0000
,
0002
0000
0000
0000
0010
0000
0000
0000
1003
0000
0000
0001
0000
0000
0100
0000
,
0020
0000
0000
0000
1000
0000
0000
0000
0130
0000
0000
0001
0000
0000
1000
0000
,
0200
0000
0000
0000
0310
0000
0001
0000
1000
0000
0000
0001
0000
0000
0100
0000
,
0201
0000
0000
0000
1000
0000
0000
0000
0301
0000
0000
0010
0000
0000
0100
0000
,
2000
0000
0000
0000
0010
0000
0000
0000
3001
0000
0000
1000
0000
0000
0100
0000
,
0020
0000
0000
0000
0001
0000
0000
0000
0130
0000
0000
1000
0000
0000
0001
0000
,
0200
0000
0310
1000
0002
0000
1003
0000
,
2001
0100
0010
0100
,
3002
0100
0010
0100
,
2003
0010
0100
0010
,
3002
0010
0100
0010
,
1003
0000
0000
0010
0000
0000
1000
0000
0001
0000
0000
0010
0000
0000
0001
0000
,
1000
0000
0000
0100
0000
0000
1000
0000
0001
0000
0000
0100
0000
0000
0001
0000
,
1000
0000
0001
0000
0010
0000
0100
0000
1000
0001
1000
0001
1000
0001
1000
0001
,
0200
0010
0310
0110
,
1001
0000
0000
1000
0100
0000
0000
0100
0001
0000
0000
0001
0100
0000
1000
0000
,
0010
0000
0000
0010
0100
0000
0000
0100
0001
0000
0000
1000
0000
0000
0100
0000
,
0010
0000
0000
0010
0001
0000
0000
0001
1000
0000
0000
0010
0000
0000
0100
0000
,
0001
0010
0100
1000
0001
0000
0110
0000
,
1001
0000
0000
0001
0100
0000
0000
0100
1000
0000
0000
1000
0100
0000
0001
0000
,
0010
0000
0000
0010
0100
0000
0000
0100
1000
0000
0000
0001
0000
0000
0100
0000
,
0010
0000
0000
0010
1000
0000
0000
1000
0001
0000
0000
0010
0000
0000
0100
0000
,
1000
0010
0100
0001
1000
0000
0110
0000
,
1001
0000
0000
0001
0100
0000
0000
0100
1000
0000
0000
1000
0100
0000
0001
0000
,
0010
0000
0000
0010
1000
0000
0000
1000
0010
0000
0000
0010
0001
0000
0000
0001
,
1000
0000
0000
1000
0010
0000
0000
0010
0100
0000
0000
0001
0000
0000
1000
0000
,
0001
0010
0100
1000
0020
0000
0130
0000
,
1001
0000
0000
1000
0100
0000
0000
0100
0001
0000
0000
0001
0100
0000
1000
0000
,
0010
0000
0000
0010
0001
0000
0000
0001
0010
0000
0000
1000
0000
0000
0001
0000
,
0010
0000
0000
0010
0100
0000
0000
0100
1000
0000
0000
0001
0000
0000
1000
0000
,
0010
0100
0001
1000
0200
0000
0310
0000
,
1002
0100
0010
0100
,
2003
0100
0010
0100
,
3002
0010
0100
0010
,
2003
0010
0100
0010
,
3001
0000
0000
0010
0000
0000
0001
0000
1000
0000
0000
0010
0000
0000
1000
0000
,
0001
0000
0000
0100
0000
0000
0001
0000
1000
0000
0000
0100
0000
0000
1000
0000
,
0001
0000
1000
0000
0010
0000
0100
0000
0001
1000
0001
1000
0001
1000
0001
1000
,
0200
0010
0310
1001
;

//---------------dance-single - Omoshiro D4K----------------
#NOTEDATA:;
#CHARTNAME:Omoshiro D4K;
#STEPSTYPE:dance-single;
#DESCRIPTION:Omoshiro D4K;
#CHARTSTYLE:;
#DIFFICULTY:Challenge;
#METER:15;
#RADARVALUES:0.648777,0.880871,0.209325,0.509661,0.687132,499.000000,476.000000,23.000000,56.000000,20.000000,0.000000,0.000000,0.000000,0.000000,0.648777,0.880871,0.209325,0.509661,0.687132,499.000000,476.000000,23.000000,56.000000,20.000000,0.000000,0.000000,0.000000,0.000000;
#CREDIT:Omoshiro D4K;
#NOTES:
0000
0000
0000
0000
,
0000
0000
0000
0000
,
0000
0000
0000
0000
,
0000
0000
0000
0000
,
0000
0000
0000
0000
,
2100
0000
0000
3002
0000
0000
0103
0000
0102
0000
0000
2003
0000
0000
3100
0000
,
0120
0000
0000
0032
0000
0000
0103
0000
0120
0000
0000
2030
0000
0000
3100
0000
,
0010
0000
0001
0000
0100
0000
0010
0000
1000
0100
0010
0001
0100
0010
1000
0001
,
0010
0100
0010
0100
0010
0100
0010
0100
0010
0000
0000
0000
MMMM
0000
0000
0000
,
1001
0000
0000
1000
0100
0000
0000
0100
0001
0000
0000
0001
0010
0000
0000
0010
,
1000
0000
0000
1000
0100
0000
0000
0100
0001
0000
0000
0001
0100
0000
1000
0000
,
1001
0000
0000
0001
0100
0000
0000
0100
1000
0000
0000
1000
0010
0000
0000
0010
,
0001
0000
0000
0001
0100
0000
0000
0100
1000
0000
0000
1000
0100
0000
0001
0000
,
1000
0000
0100
0000
0001
0000
0100
0010
0200
0000
0000
0000
1300
0000
0001
0100
,
0002
0000
0000
0000
1003
0000
0100
0010
0100
0000
0010
0000
0001
0000
1000
0000
,
0001
0000
0100
0000
1000
0000
0100
0010
0200
0000
0000
0000
0301
0000
1000
0000
,
0100
0010
0100
0010
0001
0100
0010
1000
0001
0000
0000
0000
MMMM
0000
0000
0000
,
1001
0000
0000
1000
0001
0000
0000
0001
0100
0000
0000
0100
1000
0000
0000
1000
,
0010
0000
0000
0010
0001
0000
0000
0001
0100
0000
0010
0000
1000
0000
0001
1000
,
0001
0000
0000
0001
1000
0000
0000
1000
0100
0000
0000
0100
0001
0000
0000
0001
,
0100
0010
0100
0000
1000
0001
1000
0000
0020
0000
0000
0000
0130
0000
0001
0000
,
0011
1010
1100
0101
,
2001
3200
0302
0203
,
1300
0010
1000
0010
0100
0001
0100
0001
0010
0001
0010
0100
1000
0100
1000
0001
,
0100
0010
1000
0000
0100
0010
0001
0000
1000
0000
0001
0000
0100
0010
0100
0001
,
1000
0000
0000
0000
,
0000
0000
0000
0000
,
0001
0000
0100
0000
1000
0000
0100
0000
0002
0000
0000
2003
0000
0000
3100
0000
,
0010
0000
0001
0000
0100
0000
0001
0000
0020
0000
0000
0230
0000
0000
1300
0000
,
0001
0000
0010
0000
1000
0000
0010
0000
0002
0000
0000
2003
0000
0000
3010
0000
,
0100
0000
0001
0000
1000
0001
1000
0000
0200
0000
0000
0320
0000
0000
0031
0000
,
1000
0000
0100
0000
0001
0000
0100
0000
2000
0000
0000
3002
0000
0000
0103
0000
,
0010
0000
1000
0000
0100
0000
1000
0000
0020
0000
0000
0230
0000
0000
0301
0000
,
1000
0000
0010
0000
0001
0000
0010
0000
2000
0000
0000
3002
0000
0000
0013
0000
,
0100
0000
1000
0000
0010
0100
0010
0000
0100
0000
0000
0000
MMMM
0000
0000
0000
,
1002
0000
0000
0000
0100
0000
0000
0000
0013
0000
0000
0001
0000
0000
1000
0000
,
0020
0000
0000
0000
0100
0000
0000
0000
0031
0000
0000
0010
0000
0000
1000
0000
,
2001
0000
0000
0000
0100
0000
0000
0000
3010
0000
0000
1000
0000
0000
0001
0000
,
0020
0000
0000
0000
0100
0000
0000
0000
1030
0000
0000
0010
0000
0000
0001
0000
,
2001
0000
0000
3020
0000
0000
0130
0000
0210
0000
0000
0302
0000
0000
1003
0000
,
1002
0000
0000
0023
0000
0000
0130
0000
0210
0000
0000
2300
0000
0000
3001
0000
,
1000
0000
0010
0000
0001
0000
0010
0000
1000
0100
0010
0001
0100
0010
1000
0001
,
0010
0100
0010
0100
0010
0100
0010
0100
0010
0000
0000
0000
MMMM
0000
0000
0000
,
0001
1000
0001
0000
0100
0000
0010
0000
1000
0000
0001
0010
0000
0010
0100
0000
,
1000
0001
1000
0000
0010
0000
0100
0000
0001
0000
1000
0100
0000
0100
0010
0000
,
0001
0100
0001
0000
1000
0000
0100
0000
0010
0000
0001
1000
0000
1000
0001
0000
,
0100
0010
0100
0000
0001
1000
0000
1000
0200
0000
0000
0320
0000
0000
0031
0000
,
1000
0001
1000
0000
0100
0000
0010
0000
0001
0000
1000
0010
0000
0010
0100
0000
,
0001
1000
0001
0000
0010
0000
0100
0000
1000
0000
0001
0100
0000
0100
0010
0000
,
1000
0100
1000
0000
0001
0000
0100
0000
0010
0000
1000
0001
0000
0001
1000
0000
,
0100
0010
0001
0000
0100
0010
1000
0000
0200
0000
0000
0320
0000
0000
0031
0000
,
1000
0100
1000
0000
0001
0100
0001
0000
0010
0000
1000
0010
0000
0010
0001
0000
,
0100
0000
1000
0000
0100
0000
0001
0000
0010
0000
0100
1000
0000
0001
1000
0000
,
0001
0100
0001
0000
1000
0100
1000
0000
0010
0000
0001
0010
0000
0010
1000
0000
,
0100
0000
0001
0000
0100
0010
0100
0000
2000
0000
0000
3002
0000
0000
0103
0000
,
0010
1000
0001
0000
0010
0001
1000
0000
0010
0000
0100
0001
0000
0001
1000
0000
,
1000
0100
0010
0000
0001
0100
0010
0000
1000
0000
0001
1000
0000
1000
0100
0000
,
0010
0001
1000
0000
0010
1000
0001
0000
0010
0000
0100
1000
0000
1000
0001
0000
,
0100
0010
0100
0001
1000
0100
0010
0100
1000
0000
0001
0100
0000
0010
1000
0000
,
1001
0000
0000
0000
,
0000
0000
0000
0000
,
0000
0000
0000
0000
,
0000
0000
0000
0000
,
1002
0000
0000
0023
0000
0000
0130
0000
0210
0000
0000
2300
0000
0000
3001
0000
,
2001
0000
0000
3020
0000
0000
0130
0000
0210
0000
0000
0302
0000
0000
1003
0000
,
0001
0000
0010
0000
1000
0000
0010
0000
0001
0100
0010
1000
0100
0010
0001
1000
,
0010
0100
0010
0100
0010
0100
0010
0100
0010
0000
0000
0000
MMMM
0000
0000
0000
;
