#VERSION:0.83;
#TITLE:Dream Odyssey;
#SUBTITLE:(Karl with a K 15 beat Colour Progressive Metal Remix);
#ARTIST:Kaval;
#TITLETRANSLIT:;
#SUBTITLETRANSLIT:;
#ARTISTTRANSLIT:;
#GENRE:;
#ORIGIN:;
#CREDIT:;
#BANNER:Dream Odyssey (Karl with a K 15 beat Colour Progressive Metal Remix) banner.png;
#BACKGROUND:Dream Odyssey (Karl with a K 15 beat Colour Progressive Metal Remix) bg.png;
#PREVIEWVID:;
#JACKET:Dream Odyssey (Karl with a K 15 beat Colour Progressive Metal Remix) jk.png;
#CDIMAGE:;
#DISCIMAGE:;
#LYRICSPATH:;
#CDTITLE:;
#MUSIC:Dream Odyssey (Karl with a K 15 beat Colour Progressive Metal Remix).ogg;
#OFFSET:-0.025000;
#SAMPLESTART:62.425003;
#SAMPLELENGTH:15.000000;
#SELECTABLE:YES;
#BPMS:0.000=150.000;
#STOPS:;
#DELAYS:;
#WARPS:;
#TIMESIGNATURES:0.000=4=4;
#TICKCOUNTS:0.000=4;
#COMBOS:0.000=1;
#SPEEDS:0.000=1.000=0.000=0;
#SCROLLS:0.000=1.000;
#FAKES:;
#LABELS:0.000=Song Start;
#BGCHANGES:;
#KEYSOUNDS:;
#ATTACKS:
;

//---------------dance-single - XO+ DS JA BU- RH JU-----------------
#NOTEDATA:;
#CHARTNAME:;
#STEPSTYPE:dance-single;
#DESCRIPTION:XO+ DS JA BU- RH JU-;
#CHARTSTYLE:;
#DIFFICULTY:Challenge;
#METER:17;
#RADARVALUES:0.585930,0.843750,0.178326,0.432099,0.637860,598.000000,572.000000,26.000000,63.000000,0.000000,0.000000,0.000000,0.000000,0.000000,0.585930,0.843750,0.178326,0.432099,0.637860,598.000000,572.000000,26.000000,63.000000,0.000000,0.000000,0.000000,0.000000,0.000000;
#CREDIT:Kavarl with a K;
#NOTES:
// measure 0
0000
0000
0000
0000
,  // measure 1
0000
0000
0000
0000
,  // measure 2
0000
0000
0000
0000
,  // measure 3
0000
0000
0000
0000
,  // measure 4
0000
0000
0000
0000
,  // measure 5
0000
0000
0000
0000
,  // measure 6
0000
0000
0000
0000
,  // measure 7
0000
0000
0000
0000
,  // measure 8
1000
0000
0000
0100
0000
0000
1000
0000
0010
0000
0000
0000
0100
0001
0200
0000
,  // measure 9
0300
0000
0001
0100
0020
0000
0000
0000
1030
0000
0001
0010
0001
0000
1000
0001
,  // measure 10
1000
0000
0000
0000
1000
0000
0000
0000
1000
0000
0000
0000
0010
0000
0000
0100
0000
0000
0020
0000
0000
1030
0000
0000
,  // measure 11
0000
0000
1000
0000
0200
0000
0000
0000
0310
0000
0000
0000
0010
0000
0001
0010
,  // measure 12
0001
0000
0000
0000
0000
0000
0000
0000
0000
0001
0000
0000
0000
0000
0000
0000
0000
0000
1000
0000
0000
0001
0000
0000
0010
0000
0000
0000
0000
0000
0000
0000
0000
0000
0100
0000
0000
0000
1000
0000
0000
0000
0200
0000
0000
0000
0000
0000
,  // measure 13
0300
0000
1000
0100
0020
0000
0000
0000
0031
0000
0000
0000
1000
0010
0100
0010
,  // measure 14
1000
0000
0001
0010
0000
0000
0001
0000
0010
0000
0100
0000
0010
0000
0002
0000
,  // measure 15
0000
0000
0000
0003
0000
0000
0200
0000
0000
0000
0000
0000
0310
0000
1000
0000
0100
0000
0010
0000
0001
0000
0100
0000
,  // measure 16
0001
0000
0000
0010
0000
0000
0001
0000
0100
0000
0000
0000
0000
0000
0100
0020
,  // measure 17
0000
0000
0000
0000
0000
0000
0230
0000
0000
0000
0000
0000
0301
0000
0000
0000
0000
0000
0010
0000
0000
0001
0010
0001
,  // measure 18
0010
0000
0000
0000
0000
0000
0000
0000
0001
0000
0000
0000
0000
0000
0000
0000
1000
0000
0000
0000
0001
0000
0000
0000
0100
0000
0000
0000
0000
0000
0010
0000
0000
0100
0000
0000
0010
0000
0000
0000
0000
0000
2000
0000
0000
0000
0000
0000
,  // measure 19
0000
0000
3001
0010
0100
0010
0200
0000
,  // measure 20
1300
0000
0000
0010
0000
0000
1000
0000
0100
0000
0000
0000
0000
0000
0020
0000
,  // measure 21
0000
0000
0000
0000
0130
0000
0000
0100
1000
0000
0000
0000
1001
0000
0000
0000
,  // measure 22
0002
0000
0000
0203
0000
0000
0310
0000
0010
0000
0100
0000
2000
0000
0000
3200
,  // measure 23
0000
0000
0310
0000
0010
0000
1000
0100
0010
0000
1000
0000
0010
0100
1000
0001
,  // measure 24
1000
0000
0100
0000
0010
0000
0001
0000
0000
0010
0000
0000
0001
0000
0000
0000
0100
0000
0000
0000
0001
0000
0000
0000
0010
0000
0000
0000
0000
0000
0100
0000
0000
0000
0000
0000
2000
0000
0000
0000
0000
0000
0000
0000
0000
0000
0000
0000
,  // measure 25
0000
0000
0000
0000
,  // measure 26
0000
0000
0000
0000
,  // measure 27
0000
0000
0000
0000
0000
0000
3001
0001
,  // measure 28
0001
0000
0000
0000
0100
0000
0000
0000
0010
0000
0000
0000
1000
0000
0000
0100
0000
0000
0010
0000
0001
0000
0010
0000
0100
0000
0000
0000
0000
0000
2000
0000
0000
0000
0000
0000
0000
0000
0000
0000
0000
0000
0000
0000
0000
0000
0000
0000
,  // measure 29
0000
0000
0000
0000
,  // measure 30
0000
0000
0000
0000
,  // measure 31
0000
0000
0000
0000
0000
0000
0000
0000
0000
0000
0000
0000
3001
0010
0000
0010
,  // measure 32
0001
0100
0010
1000
,  // measure 33
0001
0000
0010
0000
0100
0000
1000
0010
,  // measure 34
1000
0010
0100
0001
,  // measure 35
1000
0000
0000
0000
0100
0000
0010
0001
0010
0001
0010
0001
1000
0000
1000
0000
,  // measure 36
1000
1000
0010
0010
0010
0010
0100
0100
,  // measure 37
0100
0000
0001
0000
0001
0000
0001
0000
1000
0100
1000
0100
0010
0001
0010
0001
,  // measure 38
1000
0010
0100
0001
1000
0001
0010
0100
2000
0000
0000
0000
0001
0000
0000
0000
,  // measure 39
3001
0000
0010
0000
0110
0000
0000
0000
1001
0000
1001
0000
1000
0010
1000
0001
,  // measure 40
0022
0000
0033
0220
0000
0030
0310
0000
,  // measure 41
0001
0000
0000
0000
0000
0000
0000
0000
0000
0000
0000
0000
0000
0000
0000
0000
0000
0000
0100
0000
0000
0000
0000
0000
0000
0000
0000
0000
0000
0000
0000
0000
0000
0000
0000
0000
0010
0000
0000
0000
0000
0000
0000
0000
0000
0000
0000
0000
0000
0000
0000
0000
0000
0000
1000
0000
0000
0000
0000
0000
0000
0000
0000
0000
0000
0000
0000
0000
0000
0000
0000
0000
0100
0000
0000
0000
0000
0000
0000
0000
0000
0000
0000
0000
0000
0000
0000
0000
0000
0000
0000
0000
0000
0000
0000
0000
1000
0000
0000
0000
0000
0000
0000
0000
0000
0000
0000
0000
0010
0000
0000
0000
0000
0000
0000
0000
0000
0000
0000
0000
0100
0000
0000
0000
0000
0000
0000
0000
0000
0000
0000
0000
0000
0000
0000
0000
1000
0000
0000
0000
0000
0000
0000
0000
0000
0000
0000
0000
0000
0000
0000
0000
0100
0000
0000
0000
0000
0000
0000
0000
0000
0000
0000
0000
0000
0000
0000
0000
0001
0000
0000
0000
0000
0000
0000
0000
0000
0000
0000
0000
0000
0000
0000
0000
0000
0000
0000
0000
0000
0000
0000
0000
,  // measure 42
0010
0100
0220
0000
0330
0100
0100
1000
,  // measure 43
1000
0010
0100
0001
0010
0000
0100
0010
0000
1000
0010
0000
2020
0000
0000
0000
,  // measure 44
3030
0000
0220
0000
0000
0000
0030
0000
0310
0000
0000
0000
0001
0010
0100
1000
,  // measure 45
0001
1000
0100
0000
0010
1000
0000
0010
0100
0000
0010
0000
0001
0100
0001
0000
,  // measure 46
2002
0000
0000
3003
0000
0000
0000
0001
1000
0010
0000
0000
0000
1000
0001
0010
0000
0000
0010
0000
0001
0000
0100
0000
,  // measure 47
0001
0100
0001
0000
1000
0100
1000
0000
0001
0100
0001
0000
0202
0000
0000
0000
0000
0000
0303
0000
0000
0220
0000
0000
,  // measure 48
0000
0000
0000
0030
0000
0000
0310
0000
0000
0000
0000
0000
1000
0100
1000
0000
0001
0000
0100
0000
0010
0000
1000
0000
,  // measure 49
0001
0000
0000
0000
0000
0000
0000
0000
0000
0000
0000
0000
0010
0000
0000
0100
0000
0000
0001
0000
0000
0100
0000
0000
0010
0000
0000
0000
0001
0000
0000
0000
0100
0000
0000
0000
0010
0000
0000
0000
0000
0000
0220
0000
0000
0000
0000
0000
,  // measure 50
0000
0000
0000
0000
0000
0000
0330
0000
0000
0000
0000
0000
0100
0000
0000
0001
0000
0000
1000
0000
0000
0100
0000
0000
1000
0000
0000
0100
0000
0000
0010
0000
0000
0001
0000
0000
0100
0000
0000
0000
0010
0000
0000
0000
1000
0000
0000
0000
,  // measure 51
0010
0000
0100
0000
1000
0000
2200
0000
0000
0000
0000
0000
3300
0000
0000
0220
0000
0000
0000
0000
0000
0030
0000
0000
,  // measure 52
0310
0000
0000
0000
0000
0000
0000
0000
0000
0000
0000
0000
1000
0000
0000
0000
0001
0000
0000
0000
1000
0000
0001
0000
0100
0000
0000
0001
0000
0000
0010
0000
0000
0100
0000
0000
2000
0000
0000
0000
0000
0000
0000
0000
0000
0001
0000
0000
,  // measure 53
0000
0001
3001
0100
0010
2000
0000
0100
,  // measure 54
0000
0000
3001
0100
0001
1000
0100
0000
1200
0000
0000
0000
0010
0000
0000
0000
,  // measure 55
0301
0000
0000
0100
0000
0000
1000
0000
0000
0001
0000
0000
0100
0000
0000
0000
0000
0000
0010
0000
1000
0000
0001
0000
0010
0000
0000
0000
0000
0000
0001
0000
0000
1000
0000
0000
0001
0000
0000
0010
0000
0000
0000
0000
0000
0100
0000
0000
,  // measure 56
0001
0100
0010
0000
0001
0000
0100
0000
0010
0000
0100
0010
1000
0010
0000
0001
,  // measure 57
1000
0100
0001
0000
0010
0000
0100
0000
1000
0000
0100
0010
1000
0010
1000
0010
,  // measure 58
1000
0010
0100
0000
1000
0000
0010
0000
0100
0000
1000
0001
1000
0001
0000
0010
,  // measure 59
0100
0001
0010
0000
0200
0000
0010
0000
1000
0000
0310
0100
0001
0100
0000
1000
,  // measure 60
0001
0100
0001
0000
0100
0000
0010
0000
0100
0000
1000
0001
0010
1000
0000
0001
,  // measure 61
0010
0001
0010
0000
0100
0000
1000
0000
0010
0000
0001
1000
0001
0010
0000
1000
,  // measure 62
0010
0100
0001
0000
1000
0000
0001
0000
0010
1000
0001
1000
0001
0100
1000
0010
,  // measure 63
0100
0000
0001
1000
0001
0100
0000
0010
0001
0010
0100
0000
0001
0000
0010
0000
,  // measure 64
0100
0000
0010
0100
1000
0100
0000
0001
1000
0010
0001
0000
0100
0000
0010
0000
,  // measure 65
1000
0000
0010
0100
1000
0100
1000
0100
1000
0100
0010
0000
1000
0000
0100
0000
,  // measure 66
0010
0000
1000
0001
1000
0001
0000
0100
0010
0001
0100
0000
0010
0000
0000
0010
,  // measure 67
0000
0000
0010
1000
0000
1001
0000
0000
0001
0010
0000
0001
0000
0000
0010
0000
,  // measure 68
0000
0010
0000
0000
1000
0010
0000
0010
0001
0000
0100
0000
0010
0100
0010
0000
,  // measure 69
0100
0000
0000
1000
0100
0000
0001
0100
0001
0010
0000
0000
0110
0000
0000
1001
,  // measure 70
0000
0001
0010
0100
1000
0010
0100
0001
0200
0000
0000
0302
0000
0000
1003
0000
,  // measure 71
1100
0000
0002
0000
0013
0100
1000
0000
,  // measure 72
1010
1000
0000
0001
0100
0010
1000
0100
,  // measure 73
0110
0000
1000
0002
0000
0100
0103
0000
,  // measure 74
0101
0001
0010
0020
0000
0130
0210
0000
,  // measure 75
1300
0100
0010
0001
0100
0010
1001
0000
,  // measure 76
1000
0000
0020
0000
0100
0000
0000
0000
1030
0010
1000
0000
1001
0000
0001
0000
,  // measure 77
0100
0002
0100
0000
0013
0010
0100
0000
,  // measure 78
0020
1000
0000
0000
0100
0000
0000
0000
,  // measure 79
0032
0000
0000
0000
0103
0000
0001
2000
,  // measure 80
0100
0000
0001
0000
,  // measure 81
3200
0000
0320
0000
0031
0100
0002
0000
,  // measure 82
0100
0000
1003
0200
,  // measure 83
0010
2300
0100
3002
,  // measure 84
0100
0000
1000
0000
,  // measure 85
0100
0000
1000
0000
,  // measure 86
0000
0000
0000
0000
0000
0000
0000
1000
0000
0000
0000
0000
0000
0000
0000
0000
,  // measure 87
0000
0000
0000
1000
0000
0000
0000
0000
,  // measure 88
0000
0000
0000
0000
0000
1000
0000
0000
0000
0000
0000
0000
0000
0000
0000
0000
,  // measure 89
0000
0000
0000
0000
,  // measure 90
0000
0000
0000
0000
,  // measure 91
0000
0003
0000
0000
0000
0000
0000
0000
;

//---------------dance-single - XO- DS JA RH- JU-----------------
#NOTEDATA:;
#CHARTNAME:;
#STEPSTYPE:dance-single;
#DESCRIPTION:XO- DS JA RH- JU-;
#CHARTSTYLE:;
#DIFFICULTY:Hard;
#METER:15;
#RADARVALUES:0.457574,0.656250,0.157750,0.315501,0.353224,467.000000,444.000000,23.000000,46.000000,0.000000,0.000000,0.000000,0.000000,0.000000,0.457574,0.656250,0.157750,0.315501,0.353224,467.000000,444.000000,23.000000,46.000000,0.000000,0.000000,0.000000,0.000000,0.000000;
#CREDIT:Kavarl with a K;
#NOTES:
0000
0000
0000
0000
,
0000
0000
0000
0000
,
0000
0000
0000
0000
,
0000
0000
0000
0000
,
0000
0000
0000
0000
,
0000
0000
0000
0000
,
0000
0000
0000
0000
,
0000
0000
0000
0000
,
0001
0000
0000
0010
0000
0000
0100
0000
1000
0000
0000
0000
0001
0000
0001
0000
,
0000
0100
0100
0000
0020
0000
1030
0100
,
1000
0000
0000
0010
0000
0000
0100
0000
0001
0000
1000
0000
0000
0000
2000
0000
,
0000
3100
0010
0000
0110
0000
0000
0001
,
0001
0000
0000
0000
0000
0000
0000
0000
0000
0100
0000
0000
0000
0000
0000
0000
0000
0000
0010
0000
0000
0000
0000
0000
1000
0000
0000
0000
0000
0000
0000
0000
0000
0000
0001
0000
0000
0000
0000
0000
0000
0000
0001
0000
0000
0000
0000
0000
,
0000
0010
0010
0000
0200
0000
1300
0010
,
1000
0000
0000
0100
0000
0000
0010
0000
0001
0000
1000
0000
0010
0000
2000
0000
,
0000
0000
0000
3000
0000
0000
0010
0000
0000
0000
0000
0000
0100
0000
0010
0000
0100
0000
0010
0000
0000
0000
0000
0000
,
1000
0000
0000
0100
0000
0000
0010
0000
0001
0000
0000
0000
0000
0000
1000
0002
,
0000
0000
2003
0000
3200
0000
0310
0001
,
0001
0000
0000
0000
0100
0000
0000
0000
0010
0000
0000
0000
1000
0000
0000
0001
0000
0000
0001
0000
0000
0002
0000
0000
,
0000
0013
0110
0001
,
1000
0000
0000
0010
0000
0000
0100
0000
0001
0000
0000
0000
0000
0000
2000
0000
,
0000
3100
0010
0011
,
0001
0000
0000
0010
0000
0000
0100
0000
1000
0000
0001
0000
0100
0000
0000
0010
,
0000
0000
1000
0000
0001
0000
0001
0000
0010
0000
0001
0000
0100
0010
0100
0010
,
2000
0000
0000
0000
0000
0000
3100
0000
0000
0010
0000
0000
0001
0000
0000
0000
0100
0000
0000
0000
0010
0000
0000
0000
1000
0000
0000
0000
0000
0000
0001
0000
0000
0000
0000
0000
0000
0000
0000
0000
0000
0000
0000
0000
0000
0000
0000
0000
,
0000
0000
0000
0000
,
0000
0000
0000
0000
,
0000
0000
0000
0000
0000
0000
1000
1000
,
0001
0000
0000
0000
0100
0000
0000
0000
0010
0000
0000
0000
1000
0000
0000
0100
0000
0000
0010
0000
0000
0000
0000
0000
0001
0000
0000
0000
0000
0000
0000
0000
0000
0000
0000
0000
0000
0000
0000
0000
0000
0000
0000
0000
0000
0000
0000
0000
,
0000
0000
0000
0000
,
0000
0000
0000
0000
,
0000
0000
0000
0001
,
1000
1000
0100
0100
,
0010
0010
0001
0001
,
0100
0100
0010
0010
,
1000
0000
1000
0001
0001
1000
0001
0010
,
0001
0010
0100
1000
0100
1000
0010
0100
,
0010
0100
0001
0001
1000
0100
0010
0001
,
1000
0000
0010
0000
1000
0001
1000
0001
1000
0000
0000
0000
1000
0000
0000
0000
,
1000
0000
0010
0000
0110
0000
0000
0000
0001
0000
0001
0000
1000
0100
1000
0000
,
2002
0000
3003
0220
0000
0000
0330
0000
,
1000
0000
0000
0000
0000
0000
0000
0000
0000
0000
0000
0000
0000
0000
0000
0000
0000
0000
0010
0000
0000
0000
0000
0000
0000
0000
0000
0000
0000
0000
0000
0000
0000
0000
0000
0000
0100
0000
0000
0000
0000
0000
0000
0000
0000
0000
0000
0000
0000
0000
0000
0000
0000
0000
0001
0000
0000
0000
0000
0000
0000
0000
0000
0000
0000
0000
0000
0000
0000
0000
0000
0000
1000
0000
0000
0000
0000
0000
0000
0000
0000
0000
0000
0000
0000
0000
0000
0000
0000
0000
0000
0000
0000
0000
0000
0000
0100
0000
0000
0000
0000
0000
0000
0000
0000
0000
0000
0000
1000
0000
0000
0000
0000
0000
0000
0000
0000
0000
0000
0000
0001
0000
0000
0000
0000
0000
0000
0000
0000
0000
0000
0000
0000
0000
0000
0000
1000
0000
0000
0000
0000
0000
0000
0000
0000
0000
0000
0000
0000
0000
0000
0000
0100
0000
0000
0000
0000
0000
0000
0000
0000
0000
0000
0000
0000
0000
0000
0000
0010
0000
0000
0000
0000
0000
0000
0000
0000
0000
0000
0000
0000
0000
0000
0000
0000
0000
0000
0000
0000
0000
0000
0000
,
0001
0100
0210
0000
0000
0010
0000
0301
,
0010
0100
0010
0000
0001
0000
1000
0010
0000
1000
0010
0000
0220
0000
0000
0000
,
0330
0000
2002
0000
0000
0000
0000
0000
3003
0000
0000
0000
1000
0000
0100
0010
,
0000
0001
0010
0000
0010
0100
0000
0100
0010
0000
0001
0000
1000
0010
1000
0000
,
2100
0000
0000
0000
0000
0000
0000
0000
0000
3010
0000
0000
1000
0000
0000
1000
0000
0000
1000
0000
0001
0000
0100
0000
,
0001
0100
0000
0000
0010
0100
0000
0000
0001
0100
0000
0000
2200
0000
0000
0000
0000
0000
3300
0000
0000
0022
0000
0000
,
0000
0000
0000
0033
0000
0000
0001
0100
1000
0000
1000
0100
,
0001
0000
0000
0100
0000
0000
0010
0000
0000
1000
0000
0000
0001
0000
0010
0000
0001
0000
1000
0000
0000
0202
0000
0000
,
0000
0000
0000
0000
0000
0000
0303
0000
0000
0000
0000
0000
0001
0000
0000
0000
0000
0000
0010
0000
0000
0000
0000
0000
0010
0000
0000
0001
0000
0000
1000
0000
0000
0010
0000
0000
1000
0000
0000
0000
0001
0000
0000
0000
0100
0000
0000
0000
,
0010
0000
1000
0000
0000
0000
2200
0000
0000
0000
0000
0000
3300
0000
0000
0022
0000
0000
0000
0000
0000
0000
0000
0000
,
0033
0000
0000
0001
0000
0001
0010
1000
0000
0020
0000
0000
,
0000
0000
0000
0031
0100
0002
0000
0000
,
0000
0000
1003
0010
1000
0000
0001
0000
2002
0000
0000
0000
0000
0000
3003
0000
,
0001
0100
0010
1000
0100
0000
0100
0010
0001
0000
0100
0000
0100
0000
0000
0010
,
0000
1000
0010
0000
1000
0000
0100
0000
0010
0000
0001
0000
0000
0001
0000
1000
,
0001
1000
0001
0000
1000
0000
0100
0000
0010
0000
0100
0000
0001
0000
0001
0000
,
0001
0000
0100
0000
1000
0000
0010
0000
0100
0000
1000
0000
1000
0100
0000
0001
,
0000
0000
0001
0000
0010
0000
0100
0000
1000
0000
0010
0000
0001
0010
0000
0100
,
0000
0000
0100
0000
0001
0000
1000
0000
0100
0000
0001
0100
0000
0100
0000
0010
,
0000
0000
0010
0000
0001
0000
0100
0000
0010
0000
0001
0000
1000
0100
0000
0010
,
0000
0000
0010
0000
1000
0000
0001
0000
0001
0010
0100
0010
1000
0000
0001
0000
,
0100
0000
0100
0000
0100
0000
0000
0010
0000
0001
0010
0000
0001
0000
0100
0000
,
0010
0000
1000
0000
0000
1000
0000
0001
1000
0001
1000
0000
0001
0000
0100
0000
,
0010
0100
1000
1000
1000
0100
0001
0010
,
0100
0000
0001
0000
0001
0100
0000
1000
0000
0000
1000
0000
0010
0000
0000
0100
,
0000
0000
0001
0010
0000
0010
0000
0000
0100
1000
0000
1000
0000
0000
0001
0000
,
0000
0100
0000
0000
1000
0100
0000
0010
0000
0000
1000
0000
0100
0010
0100
0000
,
0001
0000
0000
0100
0010
0000
0100
0000
0000
1001
0000
0000
0110
0000
0000
1001
,
0000
0001
0010
0001
1000
0000
0010
0100
0002
0000
0000
0000
0000
0000
1003
0000
,
1100
0000
2000
0000
0000
0010
0010
0000
,
3001
0010
0000
0020
0000
0000
0031
0100
,
0010
0000
0010
1000
0000
1000
0001
0000
,
0110
0000
1002
0000
0000
1003
0010
1000
,
0001
0020
0130
1100
,
1000
0000
0020
0000
0000
0000
0000
0000
0130
0010
0100
0000
0001
0000
1000
0000
,
0001
0020
0000
0000
1000
0000
0031
0000
,
0200
1000
0000
0000
0010
0000
0000
0000
,
0302
0000
0000
0000
0100
0000
1003
0002
,
0010
0000
1000
0000
,
0100
0000
0000
0000
1003
0100
2000
0000
,
0010
0000
3001
0002
,
0100
0100
0000
0010
,
0000
0000
0010
0000
,
0000
0000
0010
0000
,
0000
0000
0000
0000
0000
0000
0000
0010
0000
0000
0000
0000
0000
0000
0000
0000
,
0000
0000
0000
0010
0000
0000
0000
0000
,
0000
0000
0000
0000
0000
0010
0000
0000
0000
0000
0000
0000
0000
0000
0000
0000
,
0000
0000
0000
0000
,
0000
0000
0000
0000
,
0000
0003
0000
0000
0000
0000
0000
0000
;

//---------------dance-single - DS- JA- RH- JU-----------------
#NOTEDATA:;
#CHARTNAME:;
#STEPSTYPE:dance-single;
#DESCRIPTION:DS- JA- RH- JU-;
#CHARTSTYLE:;
#DIFFICULTY:Medium;
#METER:12;
#RADARVALUES:0.343915,0.500000,0.041152,0.301783,0.195473,351.000000,345.000000,6.000000,44.000000,0.000000,0.000000,0.000000,0.000000,0.000000,0.343915,0.500000,0.041152,0.301783,0.195473,351.000000,345.000000,6.000000,44.000000,0.000000,0.000000,0.000000,0.000000,0.000000;
#CREDIT:Kavarl with a K;
#NOTES:
0000
0000
0000
0000
,
0000
0000
0000
0000
,
0000
0000
0000
0000
,
0000
0000
0000
0000
,
0000
0000
0000
0000
,
0000
0000
0000
0000
,
0000
0000
0000
0000
,
0000
0000
0000
0000
,
1000
0000
0000
2000
0000
0000
0000
0000
3010
0000
0000
0000
1000
0000
0001
0000
,
0000
1000
0001
0000
0010
0000
0000
0100
,
0100
0000
0000
0000
1000
0000
0000
0000
0100
0000
0000
0000
0010
0000
0000
0001
0000
0000
0000
0000
0000
0001
0000
0000
,
0000
0001
0100
0000
0020
0000
0230
0000
,
0301
0000
0000
0000
0000
0000
0000
0000
0000
0002
0000
0000
0000
0000
0000
0000
0000
0000
0000
0000
0000
0000
0000
0000
0013
0000
0000
0000
0000
0000
0000
0000
0000
0000
0001
0000
0000
0000
0000
0000
0000
0000
2000
0000
0000
0000
0000
0000
,
0000
3000
1000
0000
0010
0000
0100
0010
,
0100
0000
0000
0002
0000
0000
0000
0000
0013
0000
0100
0000
0000
0000
2000
0000
,
0000
0000
0000
3000
0000
0000
1000
0000
0000
0000
0000
0000
0010
0000
0000
0000
0100
0000
0000
0000
0001
0000
0000
0000
,
0001
0000
0000
0001
0000
0000
0001
0000
0010
0000
0000
0000
0000
0000
0200
0000
,
0000
0300
0200
0000
0310
0000
0001
0000
,
1000
0000
0000
0000
1000
0000
0000
0000
1000
0000
0000
0000
0010
0000
0000
1000
0000
0000
0001
0000
0000
0200
0000
0000
,
0000
0300
0001
0100
0001
0010
0001
0000
,
1000
0000
0000
1000
0000
0000
1000
0000
0010
0000
0000
0000
0000
0000
2000
0000
,
0000
3002
0013
0010
,
0100
0000
0000
0100
0000
0000
0010
0000
0010
0000
0000
0000
0001
0000
0000
0001
,
0000
0010
0000
0001
0010
0010
0001
0100
,
0002
0000
0000
0000
1003
0100
0000
0000
,
0000
0000
0000
0000
,
0000
0000
0000
0000
,
0000
0000
0000
0100
,
0200
0000
0000
1300
0001
0000
0000
0000
,
0000
0000
0000
0000
,
0000
0000
0000
0000
,
0000
0000
0000
0001
,
0100
0010
0100
0010
,
1000
0010
1000
0010
,
1000
0100
1000
0100
,
0010
0000
0001
1000
0001
0000
0001
0010
,
0100
0000
1000
0100
0010
0000
0001
0100
,
0010
1000
0010
0100
0001
1000
0001
1000
,
0100
0010
0001
0100
0002
0000
0000
0000
,
0000
0013
0110
0000
1000
1000
1000
1000
,
0020
0000
0000
0230
0000
0000
0000
0000
,
0301
0000
0000
0000
0000
0000
0000
0000
0000
0000
0000
0000
0000
0000
0000
0000
0000
0000
1000
0000
0000
0000
0000
0000
0000
0000
0000
0000
0000
0000
0000
0000
0000
0000
0000
0000
0001
0000
0000
0000
0000
0000
0000
0000
0000
0000
0000
0000
0000
0000
0000
0000
0000
0000
1000
0000
0000
0000
0000
0000
0000
0000
0000
0000
0000
0000
0000
0000
0000
0000
0000
0000
0001
0000
0000
0000
0000
0000
0000
0000
0000
0000
0000
0000
0000
0000
0000
0000
0000
0000
0000
0000
0000
0000
0000
0000
0000
0000
0000
0000
0000
0000
0000
0000
0000
0000
0000
0000
0000
0000
0000
0000
0000
0000
0000
0000
0000
0000
0000
0000
0010
0000
0000
0000
0000
0000
0000
0000
0000
0000
0000
0000
0000
0000
0000
0000
0100
0000
0000
0000
0000
0000
0000
0000
0000
0000
0000
0000
0000
0000
0000
0000
0010
0000
0000
0000
0000
0000
0000
0000
0000
0000
0000
0000
0000
0000
0000
0000
0001
0000
0000
0000
0000
0000
0000
0000
0000
0000
0000
0000
0000
0000
0000
0000
0000
0000
0000
0000
0000
0000
0000
0000
,
0000
0001
0200
0000
0000
0010
0000
0310
,
1000
0000
1000
0000
0001
0000
0000
0001
0000
0000
0001
0000
0020
0000
0000
0000
,
0000
0000
0230
0000
0000
0000
0000
0000
0000
0000
0000
0000
1300
0000
0000
1000
,
0000
0000
0001
0000
0000
0001
0000
0000
0100
0000
0010
0000
1000
0000
0100
0000
,
0020
0000
0030
0110
0000
1001
1000
0100
,
1000
0000
0000
0000
1000
0000
0000
0000
1000
0000
0000
0000
0200
0000
0000
0000
0000
0000
0000
0000
0000
0320
0000
0000
,
0000
0000
0000
0000
0000
0000
0031
0000
1000
0000
1000
0000
,
0001
0100
0010
0000
1000
0000
0100
2000
,
0000
0000
0000
3001
0001
0010
0002
0000
,
0000
0000
0203
0000
0000
0320
0000
0000
,
0000
0000
0000
1030
0100
1000
0000
0001
0000
0020
0000
0000
,
0000
0000
0000
0031
0100
0002
0000
0000
,
0103
0001
0001
1000
0220
0000
0000
0330
,
1000
0100
0010
0001
1000
0100
1000
0000
,
0001
0000
1000
0000
0010
0000
0100
0000
0001
0000
0010
0000
0000
0001
0000
0010
,
0000
0010
0001
1000
0010
1000
0010
0010
,
0010
0000
0100
0000
0001
0000
1000
0000
0100
0000
0010
0000
0000
0010
0000
0001
,
0000
0000
0001
0000
1000
0000
0010
0000
0100
0000
0010
0000
1000
0000
0000
0100
,
0000
0000
0010
0000
0001
0000
1000
0000
0001
0000
0010
0000
0000
0010
0000
0100
,
0000
0000
0100
0000
1000
0000
0001
0000
0100
0000
0010
0000
0000
0010
0000
1000
,
0000
0000
1000
0000
0100
0000
0010
0000
0000
0001
0000
0001
0000
0100
0000
0100
,
0001
0100
0001
0000
1000
0001
0010
0100
,
1000
0000
0010
0000
0000
1000
0000
0010
0000
0000
0010
0000
1000
0000
0001
0000
,
0010
0001
0010
0010
0010
0100
1000
0001
,
0100
0000
0010
0000
0000
0010
0000
1000
0000
0000
1000
0000
0001
0000
0000
0010
,
0000
0000
0010
0000
0000
0100
0000
0000
0100
0000
0000
1000
0000
0000
0010
0000
,
0000
0100
0000
0000
0001
0000
0000
0001
0000
0000
0001
0000
1000
0000
0100
0000
,
1000
0000
0000
0010
0000
0000
1000
0000
0000
0001
0000
0000
0101
0000
0000
0001
,
0000
0000
1000
0000
0000
1100
0000
0000
0200
0000
0000
0000
0000
0000
0000
0000
,
1300
0000
0020
0000
0000
0130
0000
0000
,
0001
0010
0000
0002
0000
0003
0001
0000
,
1000
0010
0100
0002
0000
0000
1003
0000
,
1000
0100
0020
0000
0000
0000
0031
0100
,
0001
0000
0020
0000
0000
0031
1000
0000
,
0100
0020
0000
0000
0031
0000
0001
0100
,
0010
2000
0000
0000
0010
0000
3001
0000
,
0002
0000
0000
0000
,
0203
0000
0000
0000
0000
0000
0310
2000
,
0000
0000
0000
0000
,
0000
0000
3001
2000
,
0000
0000
0000
3200
,
0000
0000
0000
0000
,
0000
0000
0010
0000
,
0000
0000
0010
0000
,
0000
0000
0000
0000
0000
0000
0000
0010
0000
0000
0000
0000
0000
0000
0000
0000
,
0000
0000
0000
0010
0000
0000
0000
0000
,
0000
0000
0000
0000
0000
0010
0000
0000
0000
0000
0000
0000
0000
0000
0000
0000
,
0000
0000
0000
0000
,
0000
0000
0000
0000
,
0000
0300
0000
0000
0000
0000
0000
0000
;

//---------------dance-single - ----------------
#NOTEDATA:;
#CHARTNAME:;
#STEPSTYPE:dance-single;
#DESCRIPTION:;
#CHARTSTYLE:;
#DIFFICULTY:Easy;
#METER:9;
#RADARVALUES:0.214580,0.312500,0.013717,0.233196,0.072016,219.000000,217.000000,2.000000,34.000000,0.000000,0.000000,0.000000,0.000000,0.000000,0.214580,0.312500,0.013717,0.233196,0.072016,219.000000,217.000000,2.000000,34.000000,0.000000,0.000000,0.000000,0.000000,0.000000;
#CREDIT:Kavarl with a K;
#NOTES:
0000
0000
0000
0000
,
0000
0000
0000
0000
,
0000
0000
0000
0000
,
0000
0000
0000
0000
,
0000
0000
0000
0000
,
0000
0000
0000
0000
,
0000
0000
0000
0000
,
0000
0000
0000
0000
,
0001
0000
0000
0000
0010
0000
0000
0100
,
0000
0000
0010
0000
,
0001
0000
0000
0000
0100
0000
0000
0001
,
0000
0000
1000
0100
,
1000
0000
0000
0000
0010
0000
0000
0100
,
0000
0000
0010
0000
,
0010
0000
0000
1000
0000
0100
0000
0010
,
0000
0010
0001
0001
,
1000
0000
0000
0010
0000
0000
0000
0100
,
0000
0100
0010
1000
,
0001
0000
0000
0000
0010
0000
0000
0100
,
0000
0010
0010
0001
,
1000
0000
0000
0100
0000
0000
0000
0010
,
0000
0100
1000
1000
,
0001
0100
0001
0010
,
0001
1000
0010
0100
,
0220
0000
0330
0000
,
0000
0000
0000
0000
,
0000
0000
0000
0000
,
0000
0000
0000
0000
,
0220
0000
0330
0000
,
0000
0000
0000
0000
,
0000
0000
0000
0000
,
0000
0000
0000
0000
,
1000
0100
1000
0000
,
0001
0100
0001
0000
,
1000
0010
1000
0000
,
0001
0010
0001
0001
,
0100
0010
1000
0100
,
0010
0001
1000
1000
,
0001
0001
2000
0000
,
0000
3001
2000
3200
,
0320
0000
0000
0032
0000
0000
0000
0000
,
1003
0000
0000
1000
0000
0000
1000
0000
0000
0000
0010
0000
0000
0000
0100
0000
,
0000
0000
0002
0000
0000
0003
0000
1000
,
0000
0000
0000
0000
0001
0000
0000
0100
0000
0000
0000
0000
0020
0000
0000
0000
,
0000
0000
2030
0000
0000
0000
0000
0000
0000
0000
0000
0000
3001
0000
0000
0001
,
0000
0010
0000
0010
0000
0001
0000
0000
,
0200
0000
0000
0010
0000
0310
0000
0000
,
1000
0000
0000
0000
1000
0000
0000
0000
1000
0000
0000
0000
0200
0000
0000
0000
0000
0000
0000
0000
0000
0320
0000
0000
,
0000
0000
0000
0000
0000
0000
0031
0000
0001
0000
0001
0000
,
0010
0000
0001
0000
0100
0000
0000
0200
,
0000
0310
1000
0002
,
0000
0000
0203
0000
0000
0320
0000
0000
,
0000
1030
1000
2000
,
0000
0000
0000
0000
0000
3200
0000
0000
,
0000
0310
0000
0000
0002
0000
0000
0000
,
1000
1000
1003
0100
,
0010
0000
0000
0000
0001
0000
0000
0000
1000
0000
0000
0000
0010
0000
0000
0100
,
0000
0000
0000
0001
0000
0000
1000
0000
0000
0000
0001
0000
0000
0000
0001
0000
,
0000
0000
1000
0000
0000
0000
0100
0000
0000
0000
0010
0000
0000
0001
0000
0000
,
0000
0001
1000
0000
0010
0000
0100
0000
,
0001
0000
0000
0000
1000
0000
0000
0000
0100
0000
0010
0000
0000
0000
0000
0001
,
0000
1000
0000
0001
0000
0001
0000
1000
,
0000
0000
0010
0000
0000
0000
0100
0000
0000
0001
0000
0000
1000
0000
0000
0000
,
0001
0010
0100
1000
,
0001
0000
0000
0000
0100
0000
0000
0010
0000
0000
0000
1000
0000
0000
0001
0000
,
0000
0000
1000
0000
1000
0001
0000
0010
,
0000
0000
0100
0000
0000
0000
0000
1000
0000
0000
0000
0000
0001
0000
0000
0000
,
0000
0100
0000
0000
0001
0000
0000
1000
,
0000
0000
0100
0000
0000
1000
0000
0010
,
0000
0000
0000
0100
0000
0000
0001
0000
0000
1000
0000
0000
0001
0000
0000
1000
,
0000
0000
0001
0000
0000
1000
0000
0000
0002
0000
0000
0000
0000
0000
0000
0000
,
0103
0020
0000
1000
,
1030
0000
0000
0200
0000
0000
1000
0000
,
1300
0000
0100
0010
0000
0000
0001
0000
,
1000
0010
2000
0000
0000
0000
3100
0000
,
0020
0032
0000
0103
,
0000
0020
0000
0000
1000
0000
1030
0000
,
0010
0100
0000
0000
0001
0000
1000
0100
,
2000
0000
0000
0000
,
3200
0000
0000
0000
,
2300
0000
0000
0000
,
0000
0000
0000
3002
,
0000
0000
0000
0203
,
0000
0000
0000
0000
,
0000
0000
0000
0000
,
0000
0000
0010
0000
,
0000
0000
0000
0000
0000
0000
0000
0010
0000
0000
0000
0000
0000
0000
0000
0000
,
0000
0000
0000
0010
0000
0000
0000
0000
,
0000
0000
0000
0000
0000
0010
0000
0000
0000
0000
0000
0000
0000
0000
0000
0000
,
0000
0000
0000
0000
,
0000
0000
0000
0000
,
0000
0300
0000
0000
0000
0000
0000
0000
;

//---------------dance-single - ----------------
#NOTEDATA:;
#CHARTNAME:;
#STEPSTYPE:dance-single;
#DESCRIPTION:;
#CHARTSTYLE:;
#DIFFICULTY:Beginner;
#METER:6;
#RADARVALUES:0.129336,0.281250,0.013717,0.123457,0.027435,132.000000,130.000000,2.000000,18.000000,0.000000,0.000000,0.000000,0.000000,0.000000,0.129336,0.281250,0.013717,0.123457,0.027435,132.000000,130.000000,2.000000,18.000000,0.000000,0.000000,0.000000,0.000000,0.000000;
#CREDIT:Kavarl with a K;
#NOTES:
0000
0000
0000
0000
,
0000
0000
0000
0000
,
0000
0000
0000
0000
,
0000
0000
0000
0000
,
0000
0000
0000
0000
,
0000
0000
0000
0000
,
0000
0000
0000
0000
,
0000
0000
0000
0000
,
1000
0000
0000
0000
0000
0000
0000
0100
,
0000
0000
0000
0000
,
1000
0000
0000
0000
0000
0000
0000
1000
,
0000
0000
0000
0000
,
0001
0000
0000
0000
0000
0000
0000
0100
,
0000
0000
0000
0000
,
0010
0000
0000
0000
0000
0000
0000
1000
,
0000
0000
0000
0000
,
0001
0000
0000
0000
0000
0000
0000
0100
,
0000
0000
0000
0000
,
0001
0000
0000
0000
0000
0000
0000
0001
,
0000
0000
0000
0000
,
1000
0000
0000
0000
0000
0000
0000
0100
,
0000
0000
0000
0000
,
0010
0000
0000
0001
,
0000
0000
1000
0000
,
2000
0000
3000
0000
,
0000
0000
0000
0000
,
0000
0000
0000
0000
,
0000
0000
0000
0000
,
0002
0000
0003
0000
,
0000
0000
0000
0000
,
0000
0000
0000
0000
,
0000
0000
0000
0000
,
1000
0000
1000
0000
,
0001
0000
0001
0000
,
1000
0000
1000
0000
,
0001
0000
0001
0001
,
0001
0001
0000
0010
,
0010
0010
0100
0100
,
1000
1000
0001
0000
,
0000
1001
1000
0000
,
0010
0000
0000
0010
0000
0000
0000
0000
,
1000
0000
0000
1000
0000
0000
0000
0001
,
0000
0000
0020
0000
0000
0030
0000
0010
,
0000
0001
0000
0010
,
0000
0010
0000
0000
0000
0000
0001
0000
,
0000
0001
0000
0000
0000
1000
0000
0000
,
0020
0000
0000
0030
0000
0010
0000
0000
,
1000
0000
0000
0000
0100
0000
0000
0100
,
0000
0000
1000
0000
,
1000
0000
0000
0000
0001
0000
0000
0200
,
0000
0300
0100
0001
,
0000
0000
0100
0000
0000
0100
0000
0000
,
0000
0001
0000
1000
,
0000
0000
0000
0000
0000
0100
0000
0000
,
0000
0100
0000
0000
2000
0000
0000
0000
,
0000
3000
1000
0000
,
0100
0000
0000
0000
0000
0000
0000
0000
0010
0000
0000
0000
0000
0000
0000
0001
,
0000
0000
0000
1000
0000
0000
0010
0000
,
0010
0000
0000
0000
0000
0000
0100
0000
0000
0000
0001
0000
0000
0001
0000
0000
,
0000
0001
0000
0100
,
0000
0000
0010
0000
0000
1000
0000
0000
,
0000
0001
0000
0000
0000
0010
0000
0000
,
0000
0000
0100
0000
0000
0000
0000
0000
0000
1000
0000
0000
1000
0000
0000
0000
,
0001
0000
0010
0000
,
0100
0000
0000
0000
0000
0000
0000
1000
0000
0000
0000
0000
0000
0000
0001
0000
,
0000
0000
0100
0000
0100
0000
0000
0010
,
0000
0000
1000
0000
0000
1000
0000
0000
0000
0000
0000
0000
1000
0000
0000
0000
,
0000
0100
0000
0000
0010
0000
0000
0001
,
0000
0000
0100
0000
0000
0010
0000
0000
,
1000
0000
0000
0000
0000
0000
0001
0000
0000
0001
0000
0000
0001
0000
0000
0001
,
0000
0000
0001
0000
0000
0001
0000
0000
0002
0000
0000
0000
0000
0000
0000
0000
,
0003
0200
0000
0300
,
0010
0000
0020
0000
,
0030
2000
0000
3000
,
0100
0020
0000
0030
,
0002
0000
0003
0100
,
0020
0000
0030
0020
,
0000
0030
1000
1000
,
2002
0000
0000
0000
,
0000
0000
0000
0000
,
0000
0000
0000
0000
,
0000
3003
1000
0020
,
0000
0000
0000
0200
,
0000
0000
0000
0000
,
0000
0000
0000
0000
,
0000
0000
0000
0000
,
0000
0000
0000
0000
,
0000
0000
0000
0000
,
0000
0000
0000
0000
,
0000
0000
0000
0000
,
0000
0000
0000
0000
,
0000
0330
0000
0000
0000
0000
0000
0000
;
