#VERSION:0.83;
#TITLE:Dragon Blade;
#SUBTITLE:;
#ARTIST:Kozo Nakamura;
#TITLETRANSLIT:;
#SUBTITLETRANSLIT:;
#ARTISTTRANSLIT:;
#GENRE:HARD ROCK;
#ORIGIN:;
#CREDIT:;
#BANNER:Dragon Blade.png;
#BACKGROUND:Dragon Blade-bg.png;
#PREVIEWVID:;
#JACKET:Dragon Blade-jacket.png;
#CDIMAGE:;
#DISCIMAGE:;
#LYRICSPATH:;
#CDTITLE:;
#MUSIC:Dragon Blade.ogg;
#OFFSET:-0.192961;
#SAMPLESTART:35.422985;
#SAMPLELENGTH:12.000000;
#SELECTABLE:YES;
#BPMS:0.000=240.001;
#STOPS:;
#DELAYS:;
#WARPS:;
#TIMESIGNATURES:0.000=4=4;
#TICKCOUNTS:0.000=4;
#COMBOS:0.000=1;
#SPEEDS:0.000=1.000=0.000=0;
#SCROLLS:0.000=1.000;
#FAKES:;
#LABELS:0.000=Song Start;
#BGCHANGES:;
#KEYSOUNDS:;
#ATTACKS:
;

//---------------dance-single - ----------------
#NOTEDATA:;
#CHARTNAME:;
#STEPSTYPE:dance-single;
#DESCRIPTION:;
#CHARTSTYLE:;
#DIFFICULTY:Hard;
#METER:17;
#RADARVALUES:0.961152,1.231133,0.213183,0.417839,0.451948,789.000000,764.000000,25.000000,49.000000,22.000000,0.000000,0.000000,0.000000,0.000000,0.961152,1.231133,0.213183,0.417839,0.451948,789.000000,764.000000,25.000000,49.000000,22.000000,0.000000,0.000000,0.000000,0.000000;
#CREDIT:BlindedVanguard573;
#NOTES:
// measure 0
0000
0000
0000
0000
,  // measure 1
0000
0000
0000
0000
,  // measure 2
0000
0000
0000
0000
,  // measure 3
0000
0000
0000
0000
,  // measure 4
0001
0100
0001
1000
0000
0000
1000
0001
,  // measure 5
0000
0000
0001
0010
0100
1000
0000
0000
,  // measure 6
1000
0010
1000
0001
0000
0000
0001
0010
,  // measure 7
0000
0000
0000
0000
0000
0000
0001
0000
0100
0000
0010
0000
1000
0000
0000
0010
0000
0000
0100
0000
0000
0001
0000
0000
,  // measure 8
2000
0000
3010
1000
0001
1000
0100
1000
,  // measure 9
0001
0010
0001
1000
0001
0100
0001
1000
,  // measure 10
0001
0010
0100
0010
0001
0100
0010
0100
,  // measure 11
0001
0010
1000
0010
0001
0010
0002
0000
,  // measure 12
2003
0000
3100
1000
0001
1000
0010
1000
,  // measure 13
0001
0100
0001
1000
0001
0010
0001
1000
,  // measure 14
0001
0100
0010
0100
0001
0010
0100
0010
,  // measure 15
0001
0100
1000
0000
0001
0010
1000
0001
,  // measure 16
2000
0000
3002
0000
0103
0010
1000
0001
,  // measure 17
1000
0100
0010
0000
0002
0010
0000
2003
,  // measure 18
3010
1000
0100
1000
0001
0010
0001
0100
,  // measure 19
0000
0001
0010
000M
0010
1000
0000
0001
,  // measure 20
0010
0100
1000
0100
0010
0001
0100
0010
,  // measure 21
1000
0100
0001
0100
2000
0000
3001
0000
,  // measure 22
1000
0010
0100
0010
0100
0001
1000
0001
,  // measure 23
1000
0100
0010
0100
0010
0001
1000
0001
,  // measure 24
1000
1010
0000
0101
0000
1010
0000
1000
,  // measure 25
1000
0000
0000
0100
0000
0000
0100
0000
0000
0010
0000
0000
0001
0000
0100
0000
0001
0000
1000
0000
0000
0001
0000
0000
,  // measure 26
0100
0001
0010
0001
1000
0100
1000
0010
,  // measure 27
0000
1000
0100
M000
0100
0001
0000
1000
,  // measure 28
0100
0010
0001
0010
0100
1000
0010
0100
,  // measure 29
0001
0000
0000
0010
0000
0000
0100
0000
1000
0000
0100
0000
2000
0000
0000
0000
0000
0000
3001
0000
0000
0000
0000
0000
,  // measure 30
1000
0010
0100
0010
1000
0100
0010
0002
,  // measure 31
0000
1003
0001
0100
0010
0100
0001
1000
,  // measure 32
0001
0010
0100
1000
0000
0000
0001
0100
0010
1000
0000
0000
,  // measure 33
0001
0000
1000
0000
0010
0000
0100
0000
0000
0000
0000
0000
0001
0000
1000
0000
0100
0000
0010
0000
0000
0001
0000
0000
,  // measure 34
2000
0000
0000
0000
3010
0100
0001
1000
,  // measure 35
0000
0000
0001
0010
0100
1000
0001
1000
,  // measure 36
0001
0000
0100
0010
0000
0100
2000
0000
,  // measure 37
0000
0000
3100
0000
0001
1000
0001
1000
,  // measure 38
0200
0000
0310
0001
1000
0001
0100
0001
,  // measure 39
0010
00M0
0010
1000
0100
1000
0001
1000
,  // measure 40
0010
00M0
0010
0001
0100
0010
1000
0100
,  // measure 41
0010
0000
0000
00M0
0000
0000
0010
0000
1000
0000
0010
0000
0100
0000
0001
0000
0100
0000
0001
0000
0010
0000
0001
0000
,  // measure 42
0200
0000
0000
0000
0310
1000
0001
0200
,  // measure 43
0000
1000
0000
0001
0000
1300
0000
0100
,  // measure 44
0001
0000
0000
0000
0000
0000
0000
0000
0000
0011
0000
0000
0000
0000
0000
000M
0000
0000
1000
0000
0010
0000
1000
0000
,  // measure 45
0001
0100
0010
0100
0010
1000
0100
0010
,  // measure 46
0012
0000
0103
0010
2010
0000
3100
0010
,  // measure 47
0001
010M
0100
1000
0001
001M
0010
0000
,  // measure 48
2000
0010
0000
3002
0010
0000
2003
0100
,  // measure 49
0000
0000
0000
3002
0000
0000
0100
0000
0000
0000
0000
0000
1003
0000
0010
0000
0100
0000
0001
0000
0000
1000
0000
0000
,  // measure 50
0001
0001
0000
0010
0010
0000
0100
0100
,  // measure 51
0000
0000
0000
0000
0000
0000
1000
0000
0001
0000
1000
0000
0001
0000
0000
0100
0000
0000
0010
0000
0000
0000
0000
0000
,  // measure 52
1000
0001
0000
1000
0100
0010
0100
0001
,  // measure 53
0100
0010
0100
1000
0001
2000
0000
0000
,  // measure 54
3010
0100
0000
0001
0010
0100
0010
1000
,  // measure 55
0010
0100
0010
0001
2000
0000
0000
0000
,  // measure 56
3001
0100
0M00
0100
1000
0100
0010
0100
,  // measure 57
0001
0100
0010
0100
1000
0200
0000
0000
,  // measure 58
0320
0001
1000
0031
,  // measure 59
1000
0010
0100
0001
2000
0000
3000
0000
,  // measure 60
0001
0010
0001
1000
0100
1000
0001
0010
0001
1000
0100
1000
,  // measure 61
0001
0100
0001
1000
0010
1000
0001
0100
0001
1000
0010
1000
,  // measure 62
0001
0010
0001
1000
0100
1000
0001
0100
0001
1000
0010
1000
,  // measure 63
0001
0010
0100
1000
0001
0100
1000
0100
,  // measure 64
0001
0100
0010
1000
0010
0100
0001
0100
0010
1000
0010
0100
,  // measure 65
0001
0010
0100
1000
0100
0010
0001
0010
0100
1000
0100
0010
,  // measure 66
0001
0100
0010
1000
0010
0100
0001
0010
0100
1000
0100
0010
,  // measure 67
0001
0100
0010
1000
0001
0010
1000
0010
,  // measure 68
0002
0010
1003
1001
,  // measure 69
1000
0010
0100
0010
00M0
0010
0002
0000
,  // measure 70
2003
0100
3001
1000
,  // measure 71
1002
0000
0103
0100
0010
0010
1000
1000
,  // measure 72
0002
0010
1003
1200
,  // measure 73
0001
0010
1300
2100
,  // measure 74
0010
0001
3100
1001
,  // measure 75
0001
010M
0100
1000
M010
0010
0001
0000
,  // measure 76
1001
0000
1001
0000
0001
0100
0100
0010
,  // measure 77
1000
0100
0001
000M
0001
1000
0000
0010
,  // measure 78
0100
0000
0000
1001
0000
0000
0110
0000
,  // measure 79
0000
0000
0001
1000
0200
0000
0300
0000
,  // measure 80
1000
0010
0100
0010
0001
0010
0100
0010
,  // measure 81
0000
1000
0100
0M00
0100
0010
0000
1000
,  // measure 82
0010
0100
1000
0100
0001
0010
0100
1000
,  // measure 83
0001
0010
1000
0010
0002
0000
1003
0000
,  // measure 84
0001
0100
0010
0100
0010
1000
0001
0010
,  // measure 85
0001
1000
0010
1000
0010
0100
0001
1000
,  // measure 86
0001
0011
0000
1100
0000
0011
0000
0001
,  // measure 87
0001
0000
0000
0100
0000
0000
0100
0000
0000
0010
0000
0000
1000
0000
0100
0000
0010
0000
0001
0000
0000
1000
0000
0000
,  // measure 88
0001
0010
0100
0010
1000
0010
0100
0010
,  // measure 89
0000
0001
0100
0M00
0100
0010
0000
0001
,  // measure 90
0010
0100
0001
0100
1000
0010
0100
0001
,  // measure 91
1000
0000
0000
0100
0000
0000
0010
0000
0001
0000
0010
0000
0002
0000
0000
0000
0000
0000
1003
0000
0000
0000
0000
0000
,  // measure 92
0001
0100
0010
1000
0010
0100
1000
0200
,  // measure 93
0000
0301
0010
0100
1000
0100
1000
1000
,  // measure 94
0001
0100
0010
1000
0010
0100
0001
0010
0100
1000
0100
0010
,  // measure 95
0002
0000
0100
0000
1000
0000
2003
0000
0010
0000
3001
0000
,  // measure 96
2001
0000
0010
0000
3100
0000
1100
0000
0011
0000
2002
0000
,  // measure 97
3003
0000
0000
0000
,  // measure 98
0102
0000
0000
0000
1003
0100
M000
0100
,  // measure 99
0001
0100
0010
0100
1000
0001
0010
1000
,  // measure 100
0001
0000
0010
0000
0100
0000
0010
0000
0000
0001
0000
0000
1000
0000
0000
0010
0000
0000
0100
0000
0000
0001
0000
0000
,  // measure 101
1000
0100
0010
0100
0001
0100
1000
0001
,  // measure 102
2000
0000
3010
0000
1000
0010
00M0
0010
,  // measure 103
0001
0000
0001
1000
0000
1000
0001
0100
,  // measure 104
0001
0010
0100
1000
0001
1000
0001
0100
0010
1000
0001
1000
,  // measure 105
0100
0010
0M10
2000
0000
0000
3001
0000
,  // measure 106
2100
0000
0010
0000
3001
0100
000M
0100
,  // measure 107
1000
0100
0010
0100
0001
1000
0010
0001
,  // measure 108
1000
0000
0010
0000
0100
0000
0010
0000
0000
1000
0000
0000
0001
0000
0000
0010
0000
0000
0100
0000
0000
1000
0000
0000
,  // measure 109
0001
0100
0010
0100
1000
0100
0001
1000
,  // measure 110
0002
0000
0013
0000
0001
0010
00M0
0010
,  // measure 111
1000
0000
1000
0001
0000
0001
1000
0100
,  // measure 112
1000
0010
0100
0010
0001
0010
1000
0100
,  // measure 113
M100
0001
0010
0100
0001
0100
1000
0010
,  // measure 114
M010
0001
0100
1000
0001
0010
1000
0001
,  // measure 115
2002
0000
3003
0000
;

//---------------dance-single - ----------------
#NOTEDATA:;
#CHARTNAME:;
#STEPSTYPE:dance-single;
#DESCRIPTION:;
#CHARTSTYLE:;
#DIFFICULTY:Medium;
#METER:13;
#RADARVALUES:0.702896,0.886416,0.144965,0.204656,0.034109,577.000000,560.000000,17.000000,24.000000,0.000000,0.000000,0.000000,0.000000,0.000000,0.702896,0.886416,0.144965,0.204656,0.034109,577.000000,560.000000,17.000000,24.000000,0.000000,0.000000,0.000000,0.000000,0.000000;
#CREDIT:BlindedVanguard573;
#NOTES:
// measure 0
0000
0000
0000
0000
,  // measure 1
0000
0000
0000
0000
,  // measure 2
0000
0000
0000
0000
,  // measure 3
0000
0000
0000
0000
,  // measure 4
1000
0100
1000
0001
0000
0000
0001
1000
,  // measure 5
0000
0000
1000
0010
0100
0001
0000
0000
,  // measure 6
0001
0010
0001
1000
0000
0000
1000
0010
,  // measure 7
0000
0000
1000
0000
0001
0010
0100
1000
,  // measure 8
0001
0100
0010
0100
,  // measure 9
1000
0100
0001
1000
,  // measure 10
0001
0010
0100
0010
,  // measure 11
1000
0010
0001
1001
,  // measure 12
1000
0010
0100
0010
,  // measure 13
0001
0010
1000
0001
,  // measure 14
1000
0100
0010
0100
,  // measure 15
0001
0000
0100
0000
1000
0001
1000
0001
,  // measure 16
0010
0000
0010
0000
0100
1000
0000
0000
,  // measure 17
0010
0100
0010
0000
0100
0001
0000
0000
,  // measure 18
1000
0100
1000
0000
0001
0100
0001
0100
,  // measure 19
0000
0010
1000
0000
0001
1000
0000
1000
,  // measure 20
0001
0010
1000
0010
,  // measure 21
0001
0100
0001
0100
0020
0000
0130
0000
,  // measure 22
0001
0100
0010
0000
0100
0010
1000
0000
,  // measure 23
0010
1000
0001
0000
1000
0001
0100
0000
,  // measure 24
0001
0010
0000
1000
0000
0010
0000
0001
,  // measure 25
0000
0100
0000
1000
0000
0100
0000
0000
,  // measure 26
0010
1000
0010
0000
0100
0001
0100
0001
,  // measure 27
0000
1000
0100
0000
0010
0001
0000
0001
,  // measure 28
1000
0010
0001
0010
,  // measure 29
0100
0001
0100
0001
2000
0000
3001
0000
,  // measure 30
1000
0100
0010
0000
0001
0000
1000
0010
,  // measure 31
0000
0010
0100
0000
1000
0000
0100
0000
,  // measure 32
0001
0010
0100
0000
1000
0100
0010
0000
,  // measure 33
0001
0100
0010
0000
1000
0010
0100
0000
,  // measure 34
0002
0000
0000
0000
1003
0100
1000
0100
,  // measure 35
0000
0000
1000
0000
0001
0100
0010
1000
,  // measure 36
0001
0000
0000
0010
0000
0000
2000
0000
,  // measure 37
0000
0000
3010
0000
0001
1000
0001
0000
,  // measure 38
0100
0000
0010
1000
0100
0000
1000
0000
,  // measure 39
0001
0000
0010
0001
0100
0000
0001
0000
,  // measure 40
1000
0000
0001
0010
1000
0000
0010
0000
,  // measure 41
0001
0000
1000
0100
0001
0000
0100
0000
,  // measure 42
0020
0000
0000
0000
0031
1000
0001
1000
,  // measure 43
0000
0001
0000
0100
0000
1000
0000
0100
,  // measure 44
0020
0000
0000
1000
0000
0000
0031
0000
,  // measure 45
0010
0000
1000
0000
0100
0010
0001
0000
,  // measure 46
1000
1100
0001
0101
,  // measure 47
1000
1010
0001
0011
,  // measure 48
1000
0010
0000
0010
0100
0000
0100
0001
,  // measure 49
0000
0001
1000
0000
0001
0000
0010
0000
,  // measure 50
1000
0010
0000
0001
0010
0000
0100
0010
,  // measure 51
0000
0001
0100
0010
,  // measure 52
1000
0001
0000
0000
1000
0000
0100
0000
,  // measure 53
0001
0000
0100
0000
0010
0100
0000
0000
,  // measure 54
1000
0001
0000
0000
1000
0000
0010
0000
,  // measure 55
0001
0010
2002
3003
,  // measure 56
0001
0010
0000
0000
1000
0010
0000
0000
,  // measure 57
0001
0100
0000
0000
1000
0100
0000
0000
,  // measure 58
0010
0010
0100
0100
,  // measure 59
0001
1000
0001
1000
0020
0000
0030
0000
,  // measure 60
1000
0100
0010
0000
0100
0010
0001
0000
,  // measure 61
0010
0001
1000
0000
0001
1000
0100
0000
,  // measure 62
1000
0010
0100
0000
0010
0100
0001
0000
,  // measure 63
1000
0000
1001
0000
0001
0010
1000
0010
,  // measure 64
0001
0010
0100
0000
0010
0100
1000
0000
,  // measure 65
0100
1000
0001
0000
1000
0001
0100
0000
,  // measure 66
0001
0100
0010
0000
0100
0010
1000
0000
,  // measure 67
0001
0000
1001
0000
0001
0010
1000
0010
,  // measure 68
0002
0100
0013
0011
,  // measure 69
0001
0000
0001
0100
0000
0100
0010
0000
,  // measure 70
2000
0100
3010
1010
,  // measure 71
1000
0000
0001
0000
0010
0100
0010
0100
,  // measure 72
2000
0100
3001
1001
,  // measure 73
0002
0100
1003
1001
,  // measure 74
2000
0010
3001
1001
,  // measure 75
0001
0010
0100
1000
0100
0010
0001
0000
,  // measure 76
1000
0000
1000
0000
0010
0100
0000
0100
,  // measure 77
1000
0000
1000
0000
0100
0001
0000
0001
,  // measure 78
0010
0000
0000
0100
0000
0000
1001
0000
,  // measure 79
0000
0000
1000
0010
0200
0000
0300
0000
,  // measure 80
0001
0010
0001
0000
1000
0010
1000
0010
,  // measure 81
0000
0100
0001
0000
1000
0001
0000
0001
,  // measure 82
1000
0100
0001
0100
,  // measure 83
1000
0010
1000
0010
0200
0000
0310
0000
,  // measure 84
1000
0010
0100
0000
0010
0100
0001
0000
,  // measure 85
0100
0001
1000
0000
0001
1000
0010
0000
,  // measure 86
1000
0100
0000
0001
0000
0100
0000
1000
,  // measure 87
0000
0010
0000
0001
0000
0010
0000
0000
,  // measure 88
0100
0001
0100
0000
0010
1000
0010
1000
,  // measure 89
0000
0001
0010
0000
0100
1000
0000
1000
,  // measure 90
0001
0100
1000
0100
,  // measure 91
0010
1000
0010
1000
0002
0000
1003
0000
,  // measure 92
0001
0010
0100
0000
1000
0000
0001
0100
,  // measure 93
0000
0100
0010
0000
0001
0000
0010
0000
,  // measure 94
1000
0100
0010
0000
0001
0010
0100
0000
,  // measure 95
1000
0000
0010
0000
1000
0000
0001
0000
0010
0000
0001
0000
,  // measure 96
1000
0000
0100
0000
0010
0000
0001
0000
0100
0000
0010
0000
,  // measure 97
0000
0000
0000
0000
,  // measure 98
1002
0000
0000
0000
1003
0100
0000
0100
,  // measure 99
0010
0000
0100
0000
1000
0001
0100
0000
,  // measure 100
0001
0000
1000
0000
0010
1000
0010
1000
,  // measure 101
0001
1000
0001
1000
0100
1000
0100
1000
,  // measure 102
0002
0000
0013
0000
0001
0100
0000
0100
,  // measure 103
0010
0000
0010
0001
0000
0001
0010
0000
,  // measure 104
1000
0100
0010
0001
1000
0100
0010
0001
,  // measure 105
2000
0000
0000
0010
0000
0000
3001
0000
,  // measure 106
1002
0000
0103
0000
0001
0010
0000
0010
,  // measure 107
0100
0000
0010
0000
0001
1000
0010
0000
,  // measure 108
1000
0000
0001
0000
0100
0001
0100
0001
,  // measure 109
1000
0001
1000
0001
0010
0001
0010
0001
,  // measure 110
2000
0000
3100
0000
1000
0010
0000
0010
,  // measure 111
0100
0000
0100
1000
0000
1000
0100
0000
,  // measure 112
0001
0010
0100
1000
0100
0010
0001
1000
,  // measure 113
1000
0010
0100
0001
0100
0010
1000
0001
,  // measure 114
0001
1000
0100
0010
0001
0100
0010
1000
,  // measure 115
2002
0000
3003
0000
;

//---------------dance-single - ----------------
#NOTEDATA:;
#CHARTNAME:;
#STEPSTYPE:dance-single;
#DESCRIPTION:;
#CHARTSTYLE:;
#DIFFICULTY:Easy;
#METER:9;
#RADARVALUES:0.475094,0.541699,0.068219,0.136437,0.017055,390.000000,382.000000,8.000000,16.000000,0.000000,0.000000,0.000000,0.000000,0.000000,0.475094,0.541699,0.068219,0.136437,0.017055,390.000000,382.000000,8.000000,16.000000,0.000000,0.000000,0.000000,0.000000,0.000000;
#CREDIT:BlindedVanguard573;
#NOTES:
// measure 0
0000
0000
0000
0000
,  // measure 1
0000
0000
0000
0000
,  // measure 2
0000
0000
0000
0000
,  // measure 3
0000
0000
0000
0000
,  // measure 4
1000
0010
0000
0100
,  // measure 5
0000
0001
1000
0000
,  // measure 6
0001
0010
0000
0100
,  // measure 7
0000
1000
0001
1000
,  // measure 8
0001
1000
1000
0000
,  // measure 9
0010
0100
0100
0000
,  // measure 10
0001
1000
1000
0000
,  // measure 11
0001
0010
0100
1000
,  // measure 12
0001
0100
0100
0000
,  // measure 13
0010
1000
1000
0000
,  // measure 14
0001
0010
0010
0000
,  // measure 15
0100
1000
0001
0100
,  // measure 16
0010
0010
0100
0000
,  // measure 17
0001
0001
1000
0000
,  // measure 18
0001
0010
0100
1000
,  // measure 19
0000
0100
0000
0000
0010
0000
0000
0000
,  // measure 20
0001
0100
0010
1000
,  // measure 21
0001
0100
1000
0000
,  // measure 22
0100
0100
0010
0010
,  // measure 23
1000
1000
0001
0001
,  // measure 24
0010
0000
0000
0100
0000
1000
0000
0001
,  // measure 25
0000
1000
0000
0010
0000
1000
0000
0000
,  // measure 26
0001
0100
0010
1000
,  // measure 27
0000
0010
0000
0000
0100
0000
0000
0000
,  // measure 28
0001
0010
0100
1000
,  // measure 29
0001
0010
1000
0000
,  // measure 30
0010
0000
0001
0000
0100
0000
0000
0001
,  // measure 31
0000
0010
0100
1000
,  // measure 32
0001
0001
0100
0100
,  // measure 33
1000
1000
0100
0100
,  // measure 34
0002
0000
0000
0000
1003
0000
0001
1000
,  // measure 35
0000
0001
0010
0100
,  // measure 36
1000
0000
0000
0010
0000
0000
0002
0000
,  // measure 37
0000
0013
1000
0001
,  // measure 38
0100
0010
0010
0100
,  // measure 39
0001
1000
1000
0001
,  // measure 40
0010
0100
0100
0010
,  // measure 41
0001
0100
1000
0100
,  // measure 42
0020
0000
0030
0000
1000
0000
0001
1000
,  // measure 43
0000
0010
0000
0100
0000
0001
0000
0000
,  // measure 44
1000
0000
0000
0100
0000
0000
0001
0000
,  // measure 45
0100
1000
0001
0010
,  // measure 46
0002
0103
0002
1003
,  // measure 47
0002
0013
0002
1003
,  // measure 48
0001
0000
0000
0100
0000
0000
0010
0000
,  // measure 49
0000
1000
0000
0000
0001
0000
1000
0000
,  // measure 50
0001
0000
0000
0010
0000
0000
0100
0000
,  // measure 51
0000
1000
0001
0100
,  // measure 52
0010
0000
1000
0100
,  // measure 53
0010
0100
2000
0000
,  // measure 54
3001
0000
0100
0010
,  // measure 55
0001
0010
0200
0300
,  // measure 56
0010
0000
1010
0000
,  // measure 57
0010
0000
0101
0000
,  // measure 58
0001
0010
1000
0010
,  // measure 59
0001
1000
0002
0003
,  // measure 60
1000
0010
0100
0100
,  // measure 61
1000
0100
0001
0001
,  // measure 62
0010
0100
0001
0001
,  // measure 63
0100
0010
0001
1001
,  // measure 64
0001
0100
0010
0010
,  // measure 65
0001
0010
1000
1000
,  // measure 66
0100
0010
1000
1000
,  // measure 67
0010
0100
1000
1001
,  // measure 68
1000
0100
0010
0100
,  // measure 69
1000
0000
0000
0001
0000
0000
0100
0000
,  // measure 70
0001
0010
0100
0010
,  // measure 71
0001
0000
0000
1000
0000
0000
0010
0000
,  // measure 72
1000
0100
0001
0100
,  // measure 73
0010
0000
0000
0001
0000
0000
1000
0000
,  // measure 74
0001
0100
1000
0100
,  // measure 75
0010
0100
0010
0000
1000
0001
1000
0000
,  // measure 76
0001
0000
0001
0000
0010
0100
0000
0000
,  // measure 77
1000
0000
1000
0000
0010
0100
0000
0000
,  // measure 78
1001
0000
0000
1001
0000
0000
1001
0000
,  // measure 79
0000
0000
0001
1000
0002
0000
0003
0000
,  // measure 80
1000
0100
0010
0001
,  // measure 81
0000
0010
0000
0000
0100
0000
0000
0000
,  // measure 82
1000
0010
0100
0001
,  // measure 83
1000
0010
0001
0000
,  // measure 84
0010
0010
0100
0100
,  // measure 85
0001
0001
1000
1000
,  // measure 86
0100
0000
0000
0010
0000
0001
0000
1000
,  // measure 87
0000
0001
0000
0100
0000
0001
0000
0000
,  // measure 88
1000
0010
0100
0001
,  // measure 89
0000
0100
0000
0000
0010
0000
0000
0000
,  // measure 90
1000
0100
0010
0001
,  // measure 91
1000
0100
0001
0000
,  // measure 92
0100
0000
1000
0000
0010
0000
0000
1000
,  // measure 93
0000
0100
0010
0001
,  // measure 94
1000
1000
0010
0010
,  // measure 95
0100
0000
0000
0000
0001
0000
0000
0000
0010
0000
0000
0000
,  // measure 96
0100
0000
0000
0000
1000
0000
0000
0000
0010
0000
0000
0000
,  // measure 97
0000
0000
0000
0000
,  // measure 98
2001
0000
3001
0100
,  // measure 99
0010
0100
0001
1000
,  // measure 100
0001
0010
1000
0010
,  // measure 101
0001
0100
1000
0100
,  // measure 102
0020
0000
0030
0000
1000
0000
0000
0001
,  // measure 103
0000
0000
0010
0000
0000
0100
0000
0000
,  // measure 104
1000
1000
0001
0001
,  // measure 105
0100
0000
0000
0010
0000
0000
1000
0000
,  // measure 106
0002
0000
1003
0010
,  // measure 107
0100
0010
1000
0001
,  // measure 108
1000
0100
0001
0100
,  // measure 109
1000
0010
0001
0010
,  // measure 110
0200
0000
0300
0000
0001
0000
0000
1000
,  // measure 111
0000
0000
0100
0000
0000
0010
0000
0000
,  // measure 112
0001
0010
1000
1000
,  // measure 113
0001
0100
1000
1000
,  // measure 114
0001
0000
0100
0000
0010
1000
0010
1000
,  // measure 115
0020
0000
0030
0000
;

//---------------dance-single - ----------------
#NOTEDATA:;
#CHARTNAME:;
#STEPSTYPE:dance-single;
#DESCRIPTION:;
#CHARTSTYLE:;
#DIFFICULTY:Beginner;
#METER:5;
#RADARVALUES:0.330129,0.443208,0.034109,0.017055,0.000000,271.000000,267.000000,4.000000,2.000000,0.000000,0.000000,0.000000,0.000000,0.000000,0.330129,0.443208,0.034109,0.017055,0.000000,271.000000,267.000000,4.000000,2.000000,0.000000,0.000000,0.000000,0.000000,0.000000;
#CREDIT:BlindedVanguard573;
#NOTES:
// measure 0
0000
0000
0000
0000
,  // measure 1
0000
0000
0000
0000
,  // measure 2
0000
0000
0000
0000
,  // measure 3
0000
0000
0000
0000
,  // measure 4
1000
1000
0000
0010
,  // measure 5
0000
0100
0100
0000
,  // measure 6
0001
0001
0000
0010
,  // measure 7
0000
0100
0100
0100
,  // measure 8
0100
0000
1000
0000
,  // measure 9
0001
0000
0100
0000
,  // measure 10
0010
0000
1000
0000
,  // measure 11
0001
0000
1000
1000
,  // measure 12
1000
0000
0010
0000
,  // measure 13
0100
0000
0001
0000
,  // measure 14
1000
0000
0100
0000
,  // measure 15
0010
0000
0001
0001
,  // measure 16
0001
0001
0001
0000
,  // measure 17
1000
1000
1000
0000
,  // measure 18
0010
0000
0100
0000
,  // measure 19
0001
0000
1000
0000
,  // measure 20
0100
0000
0010
0000
,  // measure 21
0001
0000
1000
0000
,  // measure 22
0010
0000
0100
0000
,  // measure 23
1000
0000
0001
0000
,  // measure 24
0010
0010
0010
0000
,  // measure 25
0100
0100
0100
0100
,  // measure 26
0100
0000
0001
0000
,  // measure 27
0010
0000
1000
0000
,  // measure 28
0100
0000
0001
0000
,  // measure 29
1000
0000
0010
0000
,  // measure 30
0100
0000
0001
0000
,  // measure 31
1000
0000
0100
0000
,  // measure 32
0010
0010
0010
0000
,  // measure 33
0100
0100
0100
0000
,  // measure 34
1000
0000
0001
0001
,  // measure 35
0000
0100
0100
0000
,  // measure 36
0010
0000
0000
0010
,  // measure 37
0000
0000
0100
0000
,  // measure 38
0001
0001
0001
0000
,  // measure 39
0010
0010
0010
0000
,  // measure 40
0100
0100
0100
0000
,  // measure 41
1000
1000
1000
1000
,  // measure 42
1000
0000
0001
0001
,  // measure 43
0000
0100
0100
0100
,  // measure 44
0100
0000
0010
0000
,  // measure 45
2000
0000
3000
0000
,  // measure 46
0001
0000
0010
0000
,  // measure 47
0100
0000
1000
0000
,  // measure 48
0001
0000
0000
1000
,  // measure 49
0000
0000
0010
0000
,  // measure 50
0100
0000
0000
0010
,  // measure 51
0000
0000
1000
0000
,  // measure 52
0001
0000
0010
0000
,  // measure 53
0100
0000
1000
1000
,  // measure 54
1000
0000
0100
0000
,  // measure 55
0010
0000
0001
0000
,  // measure 56
1000
0000
1000
0000
,  // measure 57
0001
0000
0001
0000
,  // measure 58
0100
0000
0100
0000
,  // measure 59
0010
0010
0010
0000
,  // measure 60
1000
0000
0100
0000
,  // measure 61
0010
0000
0001
0000
,  // measure 62
1000
0000
0010
0000
,  // measure 63
0100
0100
0100
0100
,  // measure 64
0100
0000
0001
0000
,  // measure 65
0010
0000
0100
0000
,  // measure 66
1000
0000
0001
0000
,  // measure 67
0100
0100
0100
0100
,  // measure 68
0100
0000
0010
0000
,  // measure 69
1000
0000
0001
0001
,  // measure 70
0001
0000
0010
0000
,  // measure 71
0100
0000
1000
1000
,  // measure 72
1000
0000
0010
0000
,  // measure 73
0100
0000
0001
0001
,  // measure 74
0001
0000
0010
0000
,  // measure 75
1000
0000
0010
0000
,  // measure 76
0001
0001
0001
0000
,  // measure 77
1000
1000
1000
0000
,  // measure 78
0010
0000
0000
0100
,  // measure 79
0000
0000
1001
0000
,  // measure 80
1000
0000
0010
0000
,  // measure 81
0100
0000
1000
0000
,  // measure 82
0100
0000
0001
0000
,  // measure 83
0010
0010
0010
0000
,  // measure 84
0100
0000
1000
0000
,  // measure 85
0001
0000
0010
0000
,  // measure 86
0001
0001
0001
0000
,  // measure 87
1000
1000
1000
1000
,  // measure 88
1000
0000
0010
0000
,  // measure 89
0100
0000
1000
0000
,  // measure 90
0100
0000
0001
0000
,  // measure 91
0010
0010
0010
0000
,  // measure 92
0100
0000
1000
0000
,  // measure 93
0001
0000
0010
0000
,  // measure 94
0100
0100
0100
0000
,  // measure 95
1001
0000
0000
0000
,  // measure 96
1001
0000
0000
0000
,  // measure 97
0000
0000
0000
0000
,  // measure 98
1001
0000
0000
0000
,  // measure 99
0001
0001
0001
0000
,  // measure 100
0100
0100
0100
0000
,  // measure 101
0010
0010
0010
0010
,  // measure 102
0010
0000
1000
0000
,  // measure 103
0001
0000
0010
0000
,  // measure 104
0100
0100
0100
0100
,  // measure 105
0100
0000
0010
0010
,  // measure 106
0010
0000
0001
0000
,  // measure 107
0100
0100
0100
0000
,  // measure 108
0010
0010
0010
0000
,  // measure 109
1000
1000
1000
1000
,  // measure 110
1000
0000
0001
0000
,  // measure 111
0010
0000
0100
0000
,  // measure 112
1000
1000
1000
1000
,  // measure 113
1000
1000
1000
1000
,  // measure 114
1000
1000
1000
1000
,  // measure 115
2000
0000
3000
0000
;
