#TITLE:Down Under (Eurobeat Remix);
#SUBTITLE:;
#ARTIST:Men At Work remixed by Vikas;
#TITLETRANSLIT:;
#SUBTITLETRANSLIT:;
#ARTISTTRANSLIT:;
#GENRE:AUSSIE EUROBEAT;
#CREDIT:;
#BANNER:Down Under (Eurobeat Remix).png;
#BACKGROUND:Down Under (Eurobeat Remix)-bg.png;
#LYRICSPATH:;
#CDTITLE:;
#MUSIC:Down Under (Eurobeat Remix).ogg;
#OFFSET:-0.013888;
#SAMPLESTART:39.703064;
#SAMPLELENGTH:16.420000;
#SELECTABLE:YES;
#BPMS:0.000000=145.000000
;
#STOPS:
;
#BGCHANGES:;
#KEYSOUNDS:;
#ATTACKS:;

//---------------dance-single - ----------------
#NOTES:
     dance-single:
     :
     Hard:
     13:
     0.670045,0.740306,0.211752,0.539968,0.661726,443.000000,423.000000,20.000000,51.000000,0.000000,0.000000,0.670045,0.740306,0.211752,0.539968,0.661726,443.000000,423.000000,20.000000,51.000000,0.000000,0.000000:
// measure 0
0000
0000
0000
0000
,  // measure 1
0000
0000
0000
0000
,  // measure 2
0000
0000
0000
0000
,  // measure 3
0000
0000
0000
0000
,  // measure 4
1000
0010
0100
0010
0001
0010
0000
0000
,  // measure 5
2000
3010
0200
0302
,  // measure 6
1003
0100
0010
0100
0001
0100
0000
0000
,  // measure 7
1000
0000
1000
0000
0010
0100
0010
0000
1000
0100
0010
0001
0010
0100
1000
0000
,  // measure 8
0001
0000
0100
0000
0010
0100
0000
0002
0000
0000
1003
0000
0100
0000
0010
0001
,  // measure 9
0000
0000
1000
0000
0010
1000
0000
0000
0001
0010
0000
0001
0000
2000
0000
3000
,  // measure 10
0001
0000
0010
0000
0100
0010
0000
0002
0000
0000
1003
0000
0010
0000
0100
0001
,  // measure 11
0000
0000
1000
0000
0100
1000
0000
0000
0001
0100
0000
0001
0000
2000
0000
3000
,  // measure 12
0001
0000
0010
0000
0100
0010
0000
2000
0000
0000
3010
0000
0001
0000
1000
0001
,  // measure 13
0000
0000
1000
0000
0100
0010
0000
0000
0001
0100
0000
0010
0000
2000
0000
3000
,  // measure 14
0001
0000
0100
0000
0010
0100
0000
2000
0000
0000
3100
0000
0001
0000
1000
0001
,  // measure 15
0000
0000
1000
0000
0010
0100
0000
0000
0001
0010
0000
0100
0000
2000
0000
3000
,  // measure 16
0001
0000
0100
0000
0010
0000
0100
0001
1000
0000
0100
0000
0000
0000
0010
0000
,  // measure 17
0002
0000
0000
0000
1003
0000
0000
0000
1010
0000
0000
0000
0100
0001
0000
0000
,  // measure 18
0000
0000
1000
0000
0100
0000
0002
0000
0003
0000
0000
0001
0100
0000
1000
0000
,  // measure 19
0001
0010
0100
0000
1100
0000
0011
0000
,  // measure 20
1000
0000
0001
0000
0100
0000
0010
1000
0010
1000
0010
0000
1000
0000
0002
0000
,  // measure 21
0010
0103
0101
1010
,  // measure 22
0010
1000
0000
0200
0000
0000
1300
0000
0001
1000
0000
0010
0100
0001
0100
0000
,  // measure 23
0000
0000
0001
0000
1000
0000
0000
0000
0001
0010
0100
1000
0001
0010
0100
1000
,  // measure 24
0002
0000
0100
0000
0103
0000
0001
1000
0100
0000
0010
0000
0100
0000
1000
0000
,  // measure 25
0002
0103
1010
0101
,  // measure 26
1002
0000
0000
0103
1000
0100
0000
0200
0000
0000
0310
0000
1000
0000
0001
0000
,  // measure 27
0020
0130
1100
0011
,  // measure 28
1001
0000
1000
0100
1000
0000
0001
0100
0001
0000
0100
0000
1000
0000
0200
0000
,  // measure 29
0010
0300
0100
0000
0101
0000
1010
0000
,  // measure 30
0010
1000
0000
0100
1000
0000
0000
0000
0001
0010
0000
0001
0100
0000
0010
0000
,  // measure 31
0200
0310
1010
0101
,  // measure 32
1001
0000
0001
0000
0100
0000
0010
0000
0100
0001
2000
0000
0000
0000
3100
0000
,  // measure 33
1000
0010
0100
1000
0100
0001
1000
0010
,  // measure 34
2000
3100
0002
0103
1000
0010
0100
0001
,  // measure 35
1000
0100
0000
0010
0001
0000
1000
0100
0000
1000
0001
0000
0010
0000
0100
0000
,  // measure 36
2000
0000
3010
0000
0002
0000
0013
0000
1000
0000
0100
0000
0010
0001
1000
0000
,  // measure 37
0002
0000
0103
0000
0010
0100
0001
0000
1000
0100
0010
0000
0001
0010
0100
0000
,  // measure 38
2000
0000
3010
0000
0002
0000
0013
0000
1000
0010
0100
0000
0001
0100
0010
0000
,  // measure 39
1000
0100
0010
0001
0010
0100
1000
0001
2000
0000
0000
0000
3001
0000
0000
0000
,  // measure 40
1000
0000
0010
0100
0001
0000
0000
0001
0100
0000
1000
0000
0100
0000
0001
0000
,  // measure 41
1000
0002
0010
0013
0001
2000
0010
3010
,  // measure 42
1000
0000
0000
0001
0100
0010
0000
0020
0000
0000
0130
0000
0001
0000
1000
0000
,  // measure 43
0001
2000
0100
3100
1000
0002
0100
0103
,  // measure 44
0001
0000
1000
0100
0010
0000
0010
0100
1000
0000
0010
0000
0001
0000
0010
0000
,  // measure 45
2000
0010
3100
1000
0002
0010
0103
0001
,  // measure 46
1000
0100
0000
0010
0100
0000
0000
0000
0001
0100
0000
0010
0100
0000
1000
0000
,  // measure 47
0002
0000
0010
0000
0103
0000
0001
0000
1000
0100
0010
0001
1000
0100
0010
0001
,  // measure 48
1000
0010
1000
0010
1000
0010
0000
0200
0000
0000
0301
0000
1000
0000
0001
0010
,  // measure 49
0000
0000
0001
0000
0100
0010
0000
0000
1000
0100
0000
0010
0000
0022
0000
0033
,  // measure 50
0001
0100
0001
0100
0001
0100
0000
0020
0000
0000
1030
0000
0001
0000
1000
0100
,  // measure 51
0000
0000
1000
0000
0010
0100
0000
0000
0001
0010
0000
0100
0000
2200
0000
3300
,  // measure 52
1000
0010
1000
0001
1000
0100
0000
2000
0000
0000
3010
0000
0100
0000
0001
1000
,  // measure 53
0000
1000
0100
0000
0100
0010
0000
0000
0001
1000
0000
0001
0000
2002
0000
3003
,  // measure 54
0001
0010
0001
1000
0001
0100
0000
0002
0000
0000
0013
0000
0100
1000
0001
0010
,  // measure 55
0000
0001
0100
0000
0010
1000
0000
0000
0001
0010
0000
0100
0000
2200
0000
3300
;

//---------------dance-single - ----------------
#NOTES:
     dance-single:
     :
     Challenge:
     16:
     0.921122,1.006816,0.232927,0.645844,1.296983,609.000000,587.000000,22.000000,61.000000,9.000000,0.000000,0.921122,1.006816,0.232927,0.645844,1.296983,609.000000,587.000000,22.000000,61.000000,9.000000,0.000000:
// measure 0
0000
0000
0000
0000
,  // measure 1
0000
0000
0000
0000
,  // measure 2
0000
0000
0000
0000
,  // measure 3
0000
0000
0000
0000
,  // measure 4
1000
0000
0000
0000
0000
0000
0010
0000
0000
0100
0000
0000
0001
0000
0100
0000
0010
0000
1000
0000
0000
0000
0000
0000
0001
0000
0000
0000
0000
0000
0010
0000
0000
0000
0000
0000
1000
0000
0000
0000
0000
0000
0010
0000
0000
0001
0000
0000
,  // measure 5
2000
3010
0110
1001
,  // measure 6
0001
0000
0000
0000
0000
0000
0100
0000
0000
0010
0000
0000
1000
0000
0010
0000
0100
0000
0001
0000
0000
0000
0000
0000
1000
0000
0000
0000
0000
0000
0100
0000
0000
0000
0000
0000
0001
0000
0000
0000
0000
0000
0100
0000
0000
1000
0000
0000
,  // measure 7
0001
0000
0001
0000
1000
0010
0100
0000
0001
0010
0100
1000
0001
0100
0010
1000
,  // measure 8
0001
0010
0001
1000
0001
0100
0000
0002
0000
0000
0013
0100
1000
0010
0100
0001
,  // measure 9
0000
0000
1000
0010
1000
0000
0000
0000
0001
0000
1000
0000
0000
0000
0000
0000
0001
0000
0010
0000
0000
0000
0100
0000
0000
0000
2002
0000
0000
0000
3003
0000
,  // measure 10
1000
0010
1000
0001
1000
0100
0000
2000
0000
0000
3010
0100
0001
0010
0100
1000
,  // measure 11
0000
0000
0001
0010
0001
0000
0000
0000
1000
0000
0001
0000
0000
0000
0000
0000
1000
0000
0010
0000
0000
0000
0100
0000
0000
0000
2002
0000
0000
0000
3003
0000
,  // measure 12
0001
0100
0010
0100
1000
0100
0000
0002
0000
0000
1003
0100
0010
0001
0010
0100
,  // measure 13
0000
0000
1000
0010
0100
0000
0000
0000
0001
0000
1000
0000
0000
0000
0000
0000
0001
0000
0010
0000
0000
0000
0100
0000
0000
0000
2200
0000
0000
0000
3300
0000
,  // measure 14
1000
0100
0010
0100
0001
0100
0000
2000
0000
0000
3001
0100
0010
1000
0010
0100
,  // measure 15
0000
0000
0001
0010
0100
0000
0000
0000
1000
0000
0001
0000
0000
0000
0000
0000
1000
0000
0010
0000
0000
0000
0100
0000
0000
0000
0202
0000
0000
0000
0303
0000
,  // measure 16
2000
0000
0100
0000
3100
0000
1000
0001
0200
0000
0001
0000
0301
0000
0100
0001
,  // measure 17
2000
0000
0010
0000
0010
3000
1000
0001
0020
0000
0130
0000
1000
0001
0000
0000
,  // measure 18
2000
0000
0010
0000
3001
0000
1000
0010
0200
0000
0001
0000
0310
0000
0100
0001
,  // measure 19
2000
0000
0100
0000
3001
0000
1000
0100
0020
0000
0130
0000
2000
0000
3001
0000
,  // measure 20
2000
0000
0010
0000
3100
0000
1000
0010
0100
0010
1000
0000
0002
0000
0023
0000
,  // measure 21
0230
0000
0001
0000
0301
0000
0100
1000
0002
0000
0103
0000
2000
0000
3100
0000
,  // measure 22
0010
1000
0000
0001
0200
0000
0301
0000
1000
0100
0000
0010
0001
1000
0001
0000
,  // measure 23
1000
0000
0020
0000
0032
0000
0013
0000
1000
0010
0100
0001
1000
0100
0010
0001
,  // measure 24
1000
0000
0010
0000
0101
0000
0001
1000
0002
0000
0010
0000
2003
0000
0010
0000
,  // measure 25
3001
0000
0010
0000
0110
0000
0100
1000
0002
0000
0103
0000
2000
0000
3100
0000
,  // measure 26
0010
0000
1000
0001
0100
0010
0000
0020
0000
0000
1000
0000
0001
0000
1000
0000
,  // measure 27
0130
0000
0010
0000
1010
0000
1000
0001
0100
0000
0001
0000
0011
0000
0001
1000
,  // measure 28
0002
0000
1003
0100
0010
0000
0010
0100
2000
0000
3001
0000
0101
0000
2010
0000
,  // measure 29
3001
0000
0010
0000
0110
0000
0100
1000
0002
0000
0013
0000
2000
0000
3010
0001
,  // measure 30
1000
0001
0000
0001
0100
0000
0001
1000
0001
1000
0000
1000
0100
0000
1000
0010
,  // measure 31
0100
0000
0001
0000
1001
0000
1000
0000
0002
0000
0013
0000
2000
0000
3010
0001
,  // measure 32
1000
0000
0000
0000
0020
0000
0000
0000
0130
0000
0001
0000
1000
0000
0001
0000
0010
0000
0001
0000
2000
0000
0000
0000
0000
0000
0000
0000
3001
0000
0100
0001
,  // measure 33
0100
0010
1000
0010
0100
0001
1000
0001
1000
0100
0010
0001
1000
0010
M010
0001
,  // measure 34
1000
0010
M010
0001
1000
0010
M010
0001
1000
0010
0100
0001
1000
0100
0010
0001
,  // measure 35
2000
0010
0000
0000
0000
0000
3002
0100
0000
0000
0000
0000
2003
0010
0000
0000
0000
0000
3001
0000
0010
0000
0100
0000
1000
0000
0001
0000
1000
0000
0100
0000
,  // measure 36
0010
001M
1000
0001
0010
001M
1000
0001
0010
001M
1000
0010
0100
0001
1000
0001
,  // measure 37
0100
010M
1000
0001
1000
0010
0100
0001
1000
0001
0010
0100
1000
0001
0100
0010
,  // measure 38
0100
01M0
1000
0001
0100
01M0
1000
0001
1000
0010
0100
0001
1000
0001
0010
0100
,  // measure 39
1000
0010
1000
0100
0010
0001
0100
0010
2000
0000
0000
0000
0000
0000
3000
0000
,  // measure 40
0001
0010
0100
0000
1000
0100
0010
0000
0001
0100
0010
0000
1000
0010
0100
0000
,  // measure 41
0001
1000
0100
0000
1000
0001
0100
0000
0001
1000
0010
0000
1000
0001
0010
0000
,  // measure 42
0001
0100
0010
0000
1000
0001
0100
0000
0001
1000
0100
0000
1000
0010
0100
0000
,  // measure 43
0001
0010
0100
0000
1000
0001
0010
0000
0001
1000
0010
0000
1000
0100
0010
0000
,  // measure 44
0001
0100
0001
0000
0001
1000
0001
0000
0001
0010
0001
0000
0001
1000
0001
0000
,  // measure 45
1000
0100
1000
0000
1000
0001
1000
0000
1000
0010
1000
0000
1000
0001
1000
0000
,  // measure 46
0001
0100
0001
0000
0010
1000
0010
0000
0100
0001
0100
0000
1000
0010
1000
0000
,  // measure 47
0001
0010
1000
0000
0001
0100
1000
0000
0001
0100
0010
1000
0001
0010
0100
1000
,  // measure 48
0001
0010
0100
0010
1000
0010
0000
0002
0000
0000
1003
0010
0100
0001
0100
0010
,  // measure 49
0000
0000
1000
0100
0010
0000
0000
0000
0001
0000
1000
0000
0000
0000
0000
0000
0001
0000
0100
0000
0000
0000
1010
0000
0000
0000
0202
0000
0000
0000
0303
0000
,  // measure 50
1000
0010
0100
0010
0001
0010
0000
2000
0000
0000
3001
0010
0100
1000
0100
0010
,  // measure 51
0000
0000
0001
0100
0010
0000
0000
0000
1000
0000
0001
0000
0000
0000
0000
0000
1000
0000
0100
0000
0000
0000
0011
0000
0000
0000
2200
0000
0000
0000
3300
0000
,  // measure 52
1000
0010
0001
0010
1000
0001
0000
0020
0000
0000
0130
1000
0010
0100
0001
0010
,  // measure 53
0000
0000
0100
1000
0001
0000
0000
0000
0100
0000
0010
0000
0000
0000
0000
0000
1000
0000
0001
0000
0000
0000
0110
0000
0000
0000
2002
0000
0000
0000
3003
0000
,  // measure 54
0001
0100
1000
0100
0001
1000
0000
0200
0000
0000
0310
0001
0100
0010
1000
0100
,  // measure 55
0000
0000
0010
0001
1000
0000
0000
0000
0010
0000
0100
0000
0000
0000
0000
0000
0001
0000
1000
0000
0000
0000
0110
0000
0000
0000
2002
0000
0000
0000
3003
0000
;

//---------------dance-single - ----------------
#NOTES:
     dance-single:
     :
     Medium:
     10:
     0.496105,0.502283,0.190577,0.179989,0.137639,328.000000,310.000000,18.000000,17.000000,0.000000,0.000000,0.496105,0.502283,0.190577,0.179989,0.137639,328.000000,310.000000,18.000000,17.000000,0.000000,0.000000:
0000
0000
0000
0000
,
0000
0000
0000
0000
,
0000
0000
0000
0000
,
0000
0000
0000
0000
,
1000
0010
0100
0000
0001
1000
0000
1000
,
0002
1003
0020
0130
,
0001
0010
0100
0000
1000
0001
0000
0001
,
0100
0010
1000
1000
0100
0010
0001
0001
,
1000
0000
0010
0000
1000
0000
0000
0001
0000
0000
1000
0000
0100
0000
0010
0000
,
0000
0000
0001
0000
0100
0000
0000
0000
0010
0000
0000
1000
0000
0001
0000
0000
,
1000
0000
0100
0000
1000
0000
0000
0001
0000
0000
1000
0000
0010
0000
0100
0000
,
0000
0000
0001
0000
0010
0000
0000
0000
0100
0000
0000
1000
0000
0001
0000
0000
,
1000
0000
0010
0000
0001
0000
0000
0010
0000
0000
1000
0000
0001
0000
0100
0000
,
0000
0000
0001
0000
0010
0000
0000
0000
0100
0000
0000
1000
0000
0001
0000
0000
,
1000
0000
0100
0000
0001
0000
0000
0100
0000
0000
1000
0000
0001
0000
0010
0000
,
0000
0000
0001
0000
0100
0000
0000
0000
0010
0000
0000
1000
0000
0001
0000
0000
,
2000
0000
3100
0100
0020
0000
0031
0001
,
2000
3010
0101
1010
,
0002
0000
0013
0010
0200
0000
1300
1000
,
0002
0103
1010
0101
,
1000
0100
0001
0000
0100
1000
0001
0000
,
0200
0310
1010
0101
,
1000
0010
0001
0000
0010
1000
0001
1000
,
0000
0001
0001
0000
1000
0100
0010
0001
,
1000
0010
0100
0100
0001
0001
1000
1000
,
0100
0010
1001
0110
,
1001
0000
0001
0100
0010
1000
0010
0100
,
0001
1000
1100
0011
,
1000
0001
0010
0010
0100
0100
1000
0001
,
0100
0010
1010
0101
,
1000
0100
0001
0000
0001
0100
1000
0001
,
1000
0001
0101
1010
,
0010
1000
0100
0000
0010
0020
0000
0030
,
0001
0100
0010
1000
0001
0010
0100
1000
,
1010
0000
0101
0000
1000
0100
0001
0100
,
1000
0000
0000
1000
0000
0000
0001
0000
0000
0001
0000
0000
0100
0000
0010
0000
,
1000
1000
0100
0100
0010
0010
0001
0001
,
1000
1000
0010
0010
0100
0100
0001
0001
,
1000
1000
0100
0100
0001
0001
1000
1000
,
0010
0010
0001
1000
0002
0000
0003
0000
,
1000
0010
0100
0000
0001
0100
0010
1000
,
0002
0010
2003
0010
,
3001
0000
0100
1000
0100
0001
1000
0001
,
0020
0130
2000
3001
,
1000
0010
1000
0010
0001
0010
0001
0010
,
0200
0310
2000
3001
,
1000
0100
0001
0000
1000
0010
0001
1000
,
0001
0100
0010
0000
1000
0100
0010
0000
,
0001
0000
0100
0000
0001
0000
0000
1000
0000
0000
0001
0000
0010
0000
0100
0000
,
0000
0000
1000
0000
0010
0000
0000
0000
0100
0000
0000
0001
0000
1000
0000
0000
,
0001
0000
0010
0000
0001
0000
0000
1000
0000
0000
0001
0000
0100
0000
0010
0000
,
0000
0000
1000
0000
0100
0000
0000
0000
0010
0000
0000
0001
0000
1000
0000
0000
,
0001
0000
0100
0000
1000
0000
0000
0100
0000
0000
0001
0000
1000
0000
0010
0000
,
0000
0000
1000
0000
0100
0000
0000
0000
0010
0000
0000
0001
0000
1000
0000
0000
,
0001
0000
0010
0000
1000
0000
0000
0010
0000
0000
0001
0000
1000
0000
0100
0000
,
0000
0000
1000
0000
0010
0000
0000
0000
0100
0000
0000
0001
0000
1001
0000
0000
;

//---------------dance-single - ----------------
#NOTES:
     dance-single:
     :
     Easy:
     6:
     0.300991,0.325371,0.031763,0.010588,0.000000,199.000000,196.000000,3.000000,1.000000,0.000000,0.000000,0.300991,0.325371,0.031763,0.010588,0.000000,199.000000,196.000000,3.000000,1.000000,0.000000,0.000000:
0000
0000
0000
0000
,
0000
0000
0000
0000
,
0000
0000
0000
0000
,
0000
0000
0000
0000
,
1000
0010
0100
0001
,
1000
0000
0100
0100
,
1000
0100
0010
0001
,
1000
1000
0001
0001
,
1000
0100
0010
0100
,
0001
0100
1000
0001
,
1000
0010
0100
0010
,
0001
0010
1000
0001
,
1000
0100
0001
1000
,
0010
0001
1000
0001
,
1000
0010
0001
1000
,
0100
0001
1000
0001
,
1000
0010
0100
0100
,
0001
0000
1000
0000
,
0001
0010
0100
0100
,
1000
0000
0001
0000
,
1000
0010
0001
0010
,
1000
0000
0001
0000
,
1000
0100
0001
0100
,
1000
0000
0001
0001
,
1000
0010
0100
0100
,
0001
0000
1000
1000
,
1000
0001
0010
0100
,
1000
0000
0001
0001
,
0001
1000
0010
0001
,
0010
0000
0100
0100
,
0001
0001
1000
1000
,
0100
0000
0010
0010
,
0001
0100
0001
0001
,
1000
0100
0010
0001
,
1000
1000
0001
0001
,
0100
0100
0100
0010
,
1000
0100
0010
0010
,
0001
0100
0010
0010
,
1000
0001
0100
0100
,
0010
1000
0002
0003
,
1000
0100
0010
0001
,
1000
0010
0100
0001
,
1000
0010
0100
0001
,
1000
0001
0010
0100
,
1000
0010
0100
1000
,
0001
0010
0100
0001
,
1000
0100
0010
1000
,
0001
0100
0010
0001
,
1000
0010
0001
0010
,
1000
0001
0100
0101
,
0001
0010
1000
0010
,
0100
1000
0001
1001
,
1000
0010
0001
0100
,
0001
0010
1000
1001
,
0001
0010
1000
0100
,
1000
0000
0010
0000
0001
0000
0100
0100
;

//---------------dance-single - ----------------
#NOTES:
     dance-single:
     :
     Beginner:
     3:
     0.207215,0.236104,0.000000,0.000000,0.000000,137.000000,137.000000,0.000000,0.000000,0.000000,0.000000,0.207215,0.236104,0.000000,0.000000,0.000000,137.000000,137.000000,0.000000,0.000000,0.000000,0.000000:
0000
0000
0000
0000
,
0000
0000
0000
0000
,
0000
0000
0000
0000
,
0000
0000
0000
0000
,
1000
1000
1000
0000
,
0010
0000
0100
0000
,
0001
0001
0001
0000
,
0010
0010
0010
0010
,
0010
0000
0100
0000
,
1000
0000
0001
0001
,
0001
0000
0100
0000
,
0010
0000
1000
1000
,
1000
0000
0001
0000
,
0010
0000
0100
0100
,
0100
0000
1000
0000
,
0001
0000
0100
0100
,
0100
0000
0010
0000
,
1000
0000
0001
0001
,
0001
0000
1000
0000
,
0100
0000
0010
0010
,
0010
0000
0100
0000
,
1000
0000
0001
0001
,
0001
0000
0100
0000
,
0010
0000
1000
1000
,
1000
0000
0001
0000
,
0010
0000
0100
0100
,
0100
0000
1000
0000
,
0001
0000
0010
0010
,
0010
0000
0001
0000
,
0100
0000
0010
0010
,
0010
0000
1000
0000
,
0100
0000
0010
0010
,
0010
0000
0001
0000
,
1000
1000
1000
0000
,
0010
0000
0100
0000
,
0001
0001
0001
0000
,
0100
0000
0010
0000
,
1000
1000
1000
0000
,
0001
0000
0010
0000
,
0100
0100
0100
0000
,
0010
0010
0010
0000
,
0001
0000
1000
0000
,
0100
0100
0100
0000
,
1000
0000
0001
0000
,
0100
0100
0100
0000
,
0010
0000
1000
0000
,
0001
0001
0001
0000
,
0010
0000
0100
0000
,
1000
1000
1000
1000
,
1000
0000
0010
0000
,
0100
0100
0100
0100
,
0100
0000
0001
0000
,
0010
0010
0010
0010
,
0010
0000
0100
0000
,
1000
1000
1000
1000
,
1000
0000
0001
0001
;
