#VERSION:0.83;
#TITLE:Dove;
#SUBTITLE:(I'll Be Loving You);
#ARTIST:Moony;
#TITLETRANSLIT:;
#SUBTITLETRANSLIT:;
#ARTISTTRANSLIT:;
#GENRE:;
#ORIGIN:;
#TAGS:;
#CREDIT:;
#BANNER:Dove (I'll Be Loving You).png;
#BACKGROUND:Dove (I'll Be Loving You)-bg.png;
#PREVIEWVID:;
#JACKET:Dove (I'll Be Loving You)-jacket.png;
#CDIMAGE:;
#DISCIMAGE:;
#LYRICSPATH:;
#CDTITLE:;
#MUSIC:Dove (I'll Be Loving You).ogg;
#OFFSET:-0.304439;
#SAMPLESTART:81.561066;
#SAMPLELENGTH:15.000000;
#SELECTABLE:YES;
#BPMS:0.000000=126.999992
;
#STOPS:;
#DELAYS:;
#WARPS:;
#TIMESIGNATURES:0.000000=4=4
;
#TICKCOUNTS:0.000000=4
;
#COMBOS:0.000000=1
;
#SPEEDS:0.000000=1.000000=0.000000=0
;
#SCROLLS:0.000000=1.000000
;
#FAKES:;
#LABELS:0.000000=Song Start
;
#BGCHANGES:0.000=Dove (I'll Be Loving You).mp4=1.000=1=0=1===CrossFade==,
240.750=Dove (I'll Be Loving You)-bg.png=1.000=0=0=1=====,
99999=-nosongbg-=1.000=0=0=0 // don't automatically add -songbackground-
#KEYSOUNDS:;
#ATTACKS:
;

//---------------dance-single - ----------------
#NOTEDATA:;
#CHARTNAME:;
#CHARTHASH:2128152068;
#STEPSTYPE:dance-single;
#BANNER:;
#DESCRIPTION:;
#CHARTSTYLE:;
#DIFFICULTY:Beginner;
#METER:2;
#METERF:2.000000;
#LASTSECONDHINT:111.800507;
#RADARVALUES:0.093744,0.169383,0.024608,0.000000,0.000000,80.000000,77.000000,3.000000,0.000000,0.000000,0.000000,0.000000,0.000000,0.000000,0.093744,0.169383,0.024608,0.000000,0.000000,80.000000,77.000000,3.000000,0.000000,0.000000,0.000000,0.000000,0.000000,0.000000;
#CREDIT:;
#NOTES:
0000
0000
0000
0000
,
0000
0000
0000
0000
,
0000
0000
0000
0000
,
0000
0000
0000
0000
,
0000
0000
0000
0000
,
0000
0000
0000
0000
,
1000
0000
0000
0000
,
0001
0000
0000
0000
,
1000
0000
0000
0000
,
0001
0000
0000
0000
,
0100
0100
0100
0100
,
0001
0000
0001
0000
,
0000
0010
0000
0000
,
0100
0000
0000
0000
,
0000
0010
0000
0000
,
0001
0000
0100
0000
,
0000
0010
0000
0000
,
1000
0000
0000
0000
,
0000
0001
0000
0000
,
1000
0000
1000
0000
,
0000
0010
0000
0000
,
0100
0000
0000
0000
,
0000
0010
0000
0000
,
1000
0000
0100
0000
,
0000
0010
0000
0000
,
0001
0000
0000
0000
,
1000
0000
0000
0000
,
0110
0000
0000
0000
,
0000
0001
0000
0000
,
0000
1000
0000
0000
,
0000
0001
0000
0000
,
0000
0000
0000
1000
0000
0000
0000
0100
,
0000
0000
0000
1000
0000
0000
0000
0000
,
0000
0000
0001
0000
0100
0000
0000
0001
,
0000
0000
0000
0000
,
0000
0000
0000
1000
0000
0000
0000
0100
,
0000
0000
0000
0010
0000
0000
0000
0000
,
0000
0000
0000
0000
0001
0000
0000
0100
,
0000
0010
0000
0000
0000
0000
0000
1001
,
0000
0000
0000
0000
,
0000
0000
0000
0000
,
0000
0000
0000
0000
,
0001
1000
1000
0001
,
0010
0000
0000
0000
,
0001
0000
1000
0000
,
0010
0000
0000
0000
,
1000
0000
0001
0000
,
0010
0000
0000
0000
,
0001
0000
1000
0000
,
0100
0000
0000
0000
0100
0000
0000
0010
,
0000
0000
0000
0000
,
1001
0000
0000
0000
,
0001
0000
1000
0000
,
0100
0000
0000
0000
,
1000
0000
0001
0000
,
0100
0000
0000
0000
,
0001
0000
1000
0000
,
0010
0010
0010
0010
,
0100
0000
0001
0000
,
1000
0000
0000
0000
;

//---------------dance-single - ----------------
#NOTEDATA:;
#CHARTNAME:;
#CHARTHASH:3068786667;
#STEPSTYPE:dance-single;
#BANNER:;
#DESCRIPTION:;
#CHARTSTYLE:;
#DIFFICULTY:Easy;
#METER:6;
#METERF:6.000000;
#LASTSECONDHINT:111.800507;
#RADARVALUES:0.199205,0.266173,0.024608,0.205064,0.000000,170.000000,167.000000,3.000000,25.000000,0.000000,0.000000,0.000000,0.000000,0.000000,0.199205,0.266173,0.024608,0.205064,0.000000,170.000000,167.000000,3.000000,25.000000,0.000000,0.000000,0.000000,0.000000,0.000000;
#CREDIT:;
#NOTES:
0000
0000
0000
0000
,
0000
0000
0000
0000
,
0000
0000
0000
0000
,
0000
0000
0000
0000
,
0000
0000
0000
0000
,
0000
0000
0000
0000
,
1000
0001
0000
0100
,
0001
1000
0000
0100
,
1000
0001
0000
0100
,
0001
1000
0000
1000
,
0100
0100
0010
0010
,
0100
1000
0100
1000
,
0010
0200
0300
0100
,
0001
0020
0030
0002
,
0003
2000
0000
3000
,
0001
0100
0001
0100
,
0010
2000
3000
0100
,
0010
0002
0003
2000
,
3000
0020
0000
0030
,
1000
1000
0001
0001
,
0010
0200
0300
0010
,
0001
2000
3000
0020
,
0030
0200
0000
0300
,
0001
0001
1000
1000
,
0100
0020
0000
0030
,
0100
1000
0001
0100
,
0100
0010
0010
0100
,
0001
1000
0001
1000
,
0100
0200
0000
0300
,
0010
0020
0000
0030
,
0100
0200
0000
0300
,
0000
1000
0000
0001
0000
1000
0000
0100
,
0000
0010
0000
0200
0000
2300
0000
0000
,
3000
0000
0001
0000
0001
0000
0000
0200
,
0000
0320
0000
0000
0000
0000
0030
0000
,
0000
0100
0000
0001
0000
1000
0000
0100
,
0000
0010
0000
0001
0000
0200
0000
0000
,
0300
0000
0000
0001
0000
0100
0000
0010
,
0000
0100
0000
0000
0000
0000
0000
2002
,
0000
0000
0000
0000
0000
0000
0000
3003
,
0000
0000
0000
1000
0000
0100
0000
0010
,
0000
0200
0000
0000
0000
0000
0300
0000
,
1000
1000
1000
1001
,
0001
0100
0010
0001
,
0010
1000
0001
0010
,
0100
0100
0010
0001
,
1000
1000
0010
0100
,
0001
0100
0010
1000
,
0100
1000
0001
0010
,
0100
0000
0010
0100
0000
0100
0000
0200
,
0000
0000
0000
0300
,
1000
0100
0010
1000
,
0010
0001
1000
0010
,
0100
0100
0010
1000
,
0001
0001
0010
0100
,
1000
0100
0010
0001
,
0100
0001
1000
0010
,
0100
0000
0100
0010
0000
0010
0000
0010
,
1000
0001
1000
0001
,
1001
0000
0000
0000
;

//---------------dance-single - ----------------
#NOTEDATA:;
#CHARTNAME:;
#CHARTHASH:3224908483;
#STEPSTYPE:dance-single;
#BANNER:;
#DESCRIPTION:;
#CHARTSTYLE:;
#DIFFICULTY:Medium;
#METER:9;
#METERF:9.000000;
#LASTSECONDHINT:113.690269;
#RADARVALUES:0.269513,0.344508,0.172254,0.401926,0.057418,230.000000,209.000000,21.000000,49.000000,0.000000,0.000000,0.000000,0.000000,0.000000,0.269513,0.344508,0.172254,0.401926,0.057418,230.000000,209.000000,21.000000,49.000000,0.000000,0.000000,0.000000,0.000000,0.000000;
#CREDIT:;
#NOTES:
0000
0000
0000
0000
,
0000
0000
0000
0000
,
0000
0000
0000
0000
,
0000
0000
0000
0000
,
0000
0000
0000
0000
,
0000
0000
0000
0000
0000
0000
0000
1000
,
0000
1000
0100
0000
0010
0000
0000
0001
,
0000
0001
0100
0000
0010
0000
0000
1000
,
0000
1000
0010
0000
0100
0000
0000
0001
,
0000
0001
0010
0000
0200
0000
0300
0000
,
1100
1100
0101
0101
,
0001
0000
0000
0000
0100
0000
0000
0000
0010
0000
0000
0000
1000
0000
0000
0000
0001
0000
0000
0000
0000
0020
0000
0000
,
0000
0000
0130
0000
0100
0000
1000
0020
,
0000
0200
0030
0000
0310
0000
2010
0000
,
3001
0021
0130
0100
,
1000
0000
0000
0000
0010
0000
0000
0000
0100
0000
0000
0000
0001
0000
0000
0000
1000
0000
0000
0000
0000
0200
0000
0000
,
0000
0320
0000
0000
0030
0000
0100
2000
,
0000
3002
0000
0000
0003
0000
0100
0000
,
0001
0022
0000
0033
,
0001
0000
0000
0010
0000
0000
0100
0000
0010
0000
0000
0001
0000
0000
2000
0000
,
0000
0000
3020
0000
0030
0000
1000
0010
,
0100
0020
0000
0000
1030
0000
0002
0000
,
0010
2003
3100
0110
,
0100
0000
0000
1000
0000
0000
0010
0000
1000
0000
0000
0001
0000
0000
0200
0000
,
0000
0310
0100
0010
,
0100
0000
0000
0001
0000
0000
0010
0000
0001
0000
0000
1000
0000
0000
0200
0000
,
0000
0310
0000
0010
0001
0000
0001
2000
,
0000
0100
0100
3100
,
0002
0000
0023
0000
0000
0000
0031
1000
,
0000
1000
0020
0000
0000
0000
0030
1000
,
0000
0001
0020
0000
0000
0030
0000
1001
,
0000
0001
0000
0100
0000
0001
0000
1000
,
0000
0010
0000
0100
0000
0002
0000
0000
,
0003
0000
1000
0000
0100
0000
1000
0001
,
0000
0020
0000
0000
0030
0000
0000
1001
,
0000
1000
0000
0010
0000
1000
0000
0001
,
0000
0100
0000
0010
0000
2000
0000
3000
,
0000
0000
0000
0000
0000
0000
1000
0000
0001
0000
0000
0100
0000
0000
0001
0000
,
0000
0020
0000
0000
0000
0030
0000
2002
,
0000
0000
0000
0000
0000
0000
0000
3003
,
0000
0000
0000
0000
0000
0000
0001
0000
1000
0000
0000
0100
0000
0000
1000
0000
,
0000
0020
0000
0000
0030
0000
0000
0000
,
0110
1001
0110
1001
,
0002
0000
0203
0000
0302
0000
0013
0020
,
0000
0230
0000
2300
0000
3200
0000
0320
,
0000
0000
0031
0000
1000
0000
1000
0010
,
0000
0010
0000
0100
0000
0001
1000
0001
,
0000
1001
0000
1000
0000
0100
0010
0100
,
0000
0110
0000
0010
0001
0000
0010
0000
,
0100
0000
1000
1000
0000
0001
0000
0020
,
0000
0100
0031
1001
,
2000
0000
3200
0000
2300
0000
3010
0020
,
0000
0230
0000
0302
0000
0203
0000
0320
,
0000
0000
1030
0000
0001
0000
0001
0010
,
0000
0100
0000
1000
0000
0001
0100
0001
,
0000
0011
0000
0010
0000
0100
1000
0100
,
0000
1010
0000
0010
0100
0000
0100
0000
,
1001
0000
0001
0010
0000
1000
0000
0010
,
0000
0001
0010
0001
0000
1000
0001
1000
,
0020
0000
0000
0000
,
0030
0000
0000
0000
;

//---------------dance-single - ----------------
#NOTEDATA:;
#CHARTNAME:;
#CHARTHASH:1470157108;
#STEPSTYPE:dance-single;
#BANNER:;
#DESCRIPTION:;
#CHARTSTYLE:;
#DIFFICULTY:Hard;
#METER:11;
#METERF:11.000000;
#LASTSECONDHINT:113.690269;
#RADARVALUES:0.400754,0.565977,0.336305,0.270685,0.045114,342.000000,301.000000,41.000000,33.000000,0.000000,0.000000,0.000000,0.000000,0.000000,0.400754,0.565977,0.336305,0.270685,0.045114,342.000000,301.000000,41.000000,33.000000,0.000000,0.000000,0.000000,0.000000,0.000000;
#CREDIT:;
#NOTES:
// measure 0
0000
0000
0000
0000
,  // measure 1
0000
0000
0000
0000
,  // measure 2
0000
0000
0000
0000
,  // measure 3
0000
0000
0000
0000
,  // measure 4
0000
0000
0000
0000
,  // measure 5
0000
0000
0000
0000
0000
0000
0000
2000
,  // measure 6
0000
0001
3100
0000
0100
1000
0010
0200
,  // measure 7
0000
0010
0301
0000
0001
1000
0100
0020
,  // measure 8
0000
0001
0130
0000
0010
0100
1000
0020
,  // measure 9
0000
0100
1030
0000
1000
0010
0110
0000
,  // measure 10
0101
1100
0101
1001
,  // measure 11
0001
0000
0000
0000
0010
0000
0100
0000
0000
0010
0000
0000
0001
0000
0000
0000
1000
0000
0010
0000
0000
0200
0000
0000
,  // measure 12
0000
0001
0301
0000
0001
1000
0100
2000
,  // measure 13
0000
0010
3010
0000
1000
0001
0020
0000
,  // measure 14
0130
1000
1100
0000
0100
1000
0001
0100
,  // measure 15
0100
0000
0000
0000
0001
0000
0010
0000
0000
0100
0000
0000
1000
0000
0000
0000
0010
0000
0100
0000
0000
0020
0000
0000
,  // measure 16
0000
1000
1030
0000
1000
0001
0100
0002
,  // measure 17
0000
0010
0013
0000
0001
1000
0200
0000
,  // measure 18
1300
0000
1020
0000
1030
0001
1001
0000
,  // measure 19
1000
0000
0100
1000
0001
0000
0010
0000
0001
0000
0100
0001
1000
0000
0200
0000
,  // measure 20
0000
0310
0020
0000
0031
1000
0001
0100
,  // measure 21
0010
0100
0000
0001
0010
0100
2100
0000
,  // measure 22
3001
0000
1010
0000
1000
0010
0110
0000
,  // measure 23
0001
0100
1000
0100
0010
1000
0100
0010
,  // measure 24
0000
0010
0001
0000
1100
0000
0101
0100
,  // measure 25
0010
0000
0100
0001
0010
0000
0001
0000
0010
0000
0100
1000
0010
0000
0100
0000
,  // measure 26
0000
1001
0000
1000
0100
0000
0001
0100
,  // measure 27
0000
1000
0100
1000
0001
1000
0010
0100
,  // measure 28
0001
0010
0200
0000
0300
0000
0100
1000
,  // measure 29
0001
1000
0020
0000
0030
0000
0010
1000
,  // measure 30
0001
0010
0200
0000
0300
0000
0100
1000
,  // measure 31
0002
0100
0100
0100
0000
1000
0000
0100
,  // measure 32
0000
0100
0000
0010
0000
0013
0000
0001
,  // measure 33
2000
0100
0100
0000
0001
0000
0010
0010
,  // measure 34
0000
0002
0000
0000
0003
0000
0000
3200
,  // measure 35
0000
0010
0010
0010
0000
1000
0000
1000
,  // measure 36
0000
0001
0000
1000
0000
0010
0000
0320
,  // measure 37
0000
0000
0000
0000
0000
0000
0001
0000
0001
0000
0000
0100
0000
0000
1000
0000
,  // measure 38
0000
0002
0000
0000
0000
0033
0000
2002
,  // measure 39
0000
0000
0000
0000
,  // measure 40
0000
0000
0000
0000
3003
0000
0001
0000
1000
0000
0000
0010
0000
0000
0100
0000
,  // measure 41
0000
0220
0000
0000
0000
0000
0330
0000
,  // measure 42
0101
0000
1000
0000
1100
0000
0001
0000
0101
0000
0100
0010
1000
0000
1000
0000
,  // measure 43
0002
0000
0010
0000
0103
0001
0010
0100
,  // measure 44
0000
0100
1000
0010
0000
1010
0000
0021
,  // measure 45
0000
0130
0100
1000
0100
0010
0001
0010
,  // measure 46
0000
0101
0000
0110
0000
0100
0001
1000
,  // measure 47
0100
1000
0000
1000
1000
0001
0100
0010
,  // measure 48
0100
0001
0000
0001
0100
0010
1000
0001
,  // measure 49
0010
0000
0010
0011
0000
0110
0000
1100
,  // measure 50
0000
1000
1010
0000
0110
0100
0101
0000
,  // measure 51
2000
0000
0100
0000
3010
1000
0100
0010
,  // measure 52
0000
0010
0001
0100
0000
0101
0000
2100
,  // measure 53
0000
3010
0010
0100
0001
0100
0010
1000
,  // measure 54
0000
1010
0000
0110
0000
0010
1000
0001
,  // measure 55
0010
0001
0000
0001
0001
1000
0010
0100
,  // measure 56
0010
1000
0000
1000
0100
0010
0001
1000
,  // measure 57
1010
1000
1100
0001
0101
0001
0011
0010
,  // measure 58
0100
1000
1100
0000
0101
0000
0110
0001
,  // measure 59
2002
0000
0000
0000
,  // measure 60
3003
0000
0000
0000
;
