#VERSION:0.83;
#TITLE:Doritos & Fritos;
#SUBTITLE:;
#ARTIST:100 gecs;
#TITLETRANSLIT:;
#SUBTITLETRANSLIT:;
#ARTISTTRANSLIT:;
#GENRE:;
#ORIGIN:;
#CREDIT:;
#BANNER:;
#BACKGROUND:;
#PREVIEWVID:;
#JACKET:;
#CDIMAGE:;
#DISCIMAGE:;
#LYRICSPATH:;
#CDTITLE:;
#MUSIC:Doritos & Fritos.ogg;
#OFFSET:0.000000;
#SAMPLESTART:35.740002;
#SAMPLELENGTH:15.348800;
#SELECTABLE:YES;
#BPMS:0.000=172.000;
#STOPS:;
#DELAYS:;
#WARPS:;
#TIMESIGNATURES:0.000=4=4;
#TICKCOUNTS:0.000=4;
#COMBOS:0.000=1;
#SPEEDS:0.000=1.000=0.000=0;
#SCROLLS:0.000=1.000;
#FAKES:;
#LABELS:0.000=Song Start;
#BGCHANGES:0.000=Doritos & Fritos.mp4=1.000=0=0=1=====,
99999=-nosongbg-=1.000=0=0=0 // don't automatically add -songbackground-
;
#KEYSOUNDS:;
#ATTACKS:
;

//---------------dance-single - ----------------
#NOTEDATA:;
#CHARTNAME:;
#STEPSTYPE:dance-single;
#DESCRIPTION:;
#CHARTSTYLE:;
#DIFFICULTY:Hard;
#METER:12;
#RADARVALUES:0.525644,0.662057,0.251829,0.433706,0.006995,526.000000,490.000000,36.000000,62.000000,0.000000,0.000000,3.000000,0.000000,0.000000,0.525644,0.662057,0.251829,0.433706,0.006995,526.000000,490.000000,36.000000,62.000000,0.000000,0.000000,3.000000,0.000000,0.000000;
#CREDIT:Embrace;
#NOTES:
0000
0000
0000
0000
,
0000
0000
0000
0000
,
0000
0000
0000
0000
,
0000
0000
0000
0000
,
0001
0000
1000
0000
0100
0010
0001
0000
,
0100
0001
0010
0000
0100
0000
1000
0000
,
0010
0100
0010
0000
1000
0001
1000
0000
,
0100
0020
0000
0030
0001
1002
0000
0003
,
0010
0000
0001
1000
0010
0000
1000
0001
,
0010
0001
0010
0000
0001
0000
0110
0000
,
1000
0000
0001
0100
0010
0000
0100
0000
,
0001
1000
0001
1000
0100
0000
1002
0000
,
0013
0000
0001
0010
0100
0000
1000
0000
,
0010
1000
0010
0100
0001
0000
1020
0000
,
0130
0000
0001
0010
0001
0000
0100
0010
,
1000
0100
0010
0000
0001
1000
1000
0001
,
0100
0000
0001
1000
0100
0000
1000
0001
,
0100
0000
0010
1000
0001
0000
0010
0001
,
1000
0000
0100
0010
0001
0000
0100
0010
,
1000
0100
1000
0001
0100
0000
1001
1000
,
0020
0000
0030
1000
0001
0010
0000
0001
,
0100
0010
0000
1000
0100
0010
0001
1000
,
0010
0100
0000
0010
1000
0100
0000
1000
,
0010
0100
0000
0001
0010
0001
0100
0000
,
2001
0000
3100
0000
0010
0000
0010
0001
,
0000
0001
0000
1000
0000
1000
0010
1000
,
0010
0000
0100
0000
0100
0000
0010
1000
,
0000
1000
0000
0100
0000
0100
0010
0001
,
0000
1000
0000
0101
0000
1000
0000
0100
,
0000
0010
0000
1001
0000
0001
0000
1010
,
0000
1000
1010
0000
0110
0000
0101
0000
,
0011
0101
1010
0001
,
0020
0000
0000
0200
0000
0000
0330
1000
,
0010
0100
0010
1000
0002
0000
0013
0000
,
0002
0000
0000
0200
0000
0000
0303
0010
,
0100
0001
0100
0010
2000
0000
3100
0000
,
0020
0000
0000
0002
0000
0000
0033
1000
,
0010
0100
0010
1000
0002
0000
0013
0000
,
0200
0000
0000
2000
0000
0000
3300
0001
,
0200
0000
0020
0330
,
1000
0100
0000
1000
0010
1000
0000
0010
,
0001
0010
0000
0001
0100
0001
0000
0100
,
1000
0100
0000
1000
0010
1000
0000
0100
,
0010
0100
0000
0010
0001
0010
0100
0000
,
1000
0000
0010
0100
0001
0000
0010
0100
,
1000
0100
0000
0010
0001
0000
0100
0010
,
1000
0001
0000
0010
0001
1000
0000
0100
,
1000
0001
0000
0100
0001
0020
0030
0000
,
0001
0100
0000
0001
0010
0001
0000
0010
,
1000
0010
0000
1000
0100
1000
0000
0100
,
0001
0100
0000
0001
0010
0001
0000
0100
,
0010
0100
0000
0001
1000
0001
0010
0000
,
0100
1000
0000
0100
1000
0010
0000
1000
,
0010
0100
0000
0010
0100
0001
0000
0100
,
0001
0010
0000
0001
0100
0010
0000
1000
,
0200
0000
0320
0000
0031
0000
4002
0000
0000
0000
0000
0000
,
0000
0000
0000
3003
,
0000
0000
0000
0000
0000
0000
0110
1000
,
0001
0000
0100
0010
1000
0000
0001
0010
,
0100
1000
0100
1000
0010
0000
0101
1000
,
0001
0000
1001
0000
1000
0100
1000
0100
,
0010
0100
0001
0100
1000
0001
0100
0010
,
0001
0010
1000
0010
1000
0001
0010
0100
,
1000
0100
1000
0001
0100
0010
0010
1000
,
1000
0000
0001
0010
0100
0000
0010
0001
,
1000
0001
0100
0010
1000
0000
0011
1000
,
0001
0000
0100
0010
1000
0000
0100
0010
,
0001
0100
0001
0100
0010
0000
1002
0013
,
0100
0000
0110
0000
1000
0010
1000
0010
,
0100
1000
0100
0001
1000
0100
0010
0001
,
0010
1000
0010
0001
0100
0010
1000
0001
,
0100
0010
1000
0100
0000
0010
0001
0200
,
0000
0000
0320
0000
2030
0000
3100
0020
,
0000
0000
0032
0000
0003
1000
0010
2000
,
0000
0000
3002
0000
0023
0000
0031
0200
,
0000
0000
0320
0000
0030
1000
0100
2000
,
0000
3020
0000
2030
0000
3200
0000
0320
,
0000
0032
0000
0203
0000
0302
0000
0013
,
0000
0010
0010
0000
0010
0000
0010
0000
,
0010
0010
0010
1002
,
0203
0000
0310
0000
0100
1000
0100
0001
,
0000
1001
0000
0101
0000
1000
0100
0010
,
0002
0000
0023
0000
0130
0001
0100
1000
,
0000
1001
0000
1010
0000
0010
1000
0100
,
0000
0110
0000
0010
0001
0100
0001
0010
,
0000
0110
0000
0100
1000
0010
0000
0100
,
0110
0100
0101
0000
0011
0000
0101
0000
,
1100
0100
0110
0000
1002
0000
0013
0000
,
0200
0000
0000
2000
0000
0000
3300
0100
,
0010
1000
0010
0100
2000
0000
3001
0000
,
0200
0000
0000
0002
0000
0000
0303
0100
,
0010
0001
0010
0100
0002
0000
1003
0000
,
0002
0000
0000
0020
0000
0000
0033
0100
,
0010
1000
0010
0100
2000
0000
3100
0000
,
0020
0000
0000
0002
0000
0000
0033
1000
,
0010
0100
0010
2000
0002
0000
0003
0000
,
0000
0000
0000
0000
0200
3000
0000
0000
,
0000
0000
0000
0040
0300
0000
0000
0000
,
0000
0000
0000
0034
0000
0000
0000
0000
,
0000
0000
2000
0003
0000
3000
0000
0000
;

//---------------dance-single - ----------------
#NOTEDATA:;
#CHARTNAME:;
#STEPSTYPE:dance-single;
#DESCRIPTION:;
#CHARTSTYLE:;
#DIFFICULTY:Medium;
#METER:9;
#RADARVALUES:0.405725,0.627212,0.293801,0.230843,0.000000,406.000000,364.000000,42.000000,33.000000,0.000000,0.000000,0.000000,0.000000,0.000000,0.405725,0.627212,0.293801,0.230843,0.000000,406.000000,364.000000,42.000000,33.000000,0.000000,0.000000,0.000000,0.000000,0.000000;
#CREDIT:Embrace;
#NOTES:
0000
0000
0000
0000
,
0000
0000
0000
0000
,
0000
0000
0000
0000
,
0000
0000
0000
0000
,
1000
0001
0010
0000
,
0010
0001
0100
0000
,
0100
0010
1000
0001
,
0010
0100
0100
0000
,
1001
0000
0110
0000
,
0001
1000
0001
0000
0010
0000
0110
0000
,
0011
0000
1001
0000
,
1000
0010
1000
0010
1000
0000
1001
0000
,
0011
0000
1100
0000
,
0100
0010
0100
0010
0100
0000
1100
0000
,
1001
0000
1010
0000
,
0001
1000
0001
0000
0100
0000
0010
0000
,
2000
3100
0020
0031
,
2000
3010
0200
0301
,
0020
0130
2000
3010
,
0100
0010
0100
0010
0100
0000
0001
0000
,
0020
0130
2000
3010
,
2000
3100
0020
0031
,
0200
0301
0020
0130
,
2000
0000
3001
0000
0100
0010
1000
0000
,
1001
0001
0001
0001
,
0100
0000
0100
0000
0010
1000
0001
0000
,
0010
0010
0010
0010
,
0100
0000
0100
0000
1000
0010
0100
0000
,
0001
1000
0001
1000
,
0100
0010
0100
0010
,
0011
1010
0011
1010
,
1001
0110
1001
0001
,
2000
0000
0000
3100
0000
0000
0000
0010
,
0001
0010
0001
0010
0001
0000
0000
0000
,
2000
0000
0000
3010
0000
0000
0000
0100
,
0001
0100
0001
0100
0001
0000
0000
0000
,
0020
0000
0000
0130
0000
0000
0000
1000
,
0001
1000
0001
1000
0001
0000
0000
0000
,
0200
0000
0000
0310
0000
0000
0000
1000
,
0002
0000
1000
0000
,
0013
0001
0000
0000
1000
0100
0000
0000
,
0010
0001
0000
0000
1000
0100
0000
0000
,
1000
0010
0000
0000
0100
0001
0000
0000
,
1000
0010
0000
0010
1000
0010
0000
0000
,
1000
0000
0000
0001
0010
0000
0000
0001
,
0100
0000
0000
0001
0010
0000
0000
0100
,
1000
0000
0000
0010
1000
0000
0000
0100
,
1000
0000
0000
0010
1000
0000
1001
0000
,
0001
0010
0000
0000
0001
0100
0000
0000
,
0010
1000
0000
0000
0100
1000
0000
0000
,
0010
0100
0000
0000
0001
1000
0000
0000
,
0100
0010
0000
0000
0001
1000
0000
0000
,
0001
0100
0000
0001
0100
0001
0000
1000
,
0100
1000
0000
0100
1000
0100
0000
0010
,
0001
0010
0000
0001
0010
0001
0000
1000
,
0001
1000
2002
0000
,
0000
0000
0000
3003
,
0000
0000
0000
0110
,
1001
0000
0011
0000
,
1000
0100
1000
0000
0001
0000
0011
0000
,
1000
1000
0001
0100
,
0010
0000
1000
0001
0000
0001
1000
0000
,
0100
0010
0100
1000
,
0001
0000
0100
0010
0000
0010
0100
0000
,
0101
0000
1001
0000
,
0001
0010
0001
0000
1000
0000
1010
0000
,
0011
0000
1100
0000
,
0001
1000
0001
0100
0001
0000
0101
0000
,
1000
1000
0001
0010
,
0100
0000
0010
0001
0000
0001
1000
0000
,
0010
0100
0001
1000
,
0100
0000
0010
0001
0000
0000
1000
0002
,
0000
0000
0103
0000
0020
0000
0130
0002
,
0000
0000
1003
0000
0000
0000
0001
0020
,
0000
0000
0130
0000
2000
0000
3010
0200
,
0000
0000
0310
0000
0000
0000
1000
0001
,
0000
0010
0000
0100
0000
1000
0000
0100
,
0000
0010
0000
0001
0000
0100
0000
0001
,
0000
0001
0001
0000
0001
0000
0001
0000
,
0001
0001
0001
1000
,
0110
1000
1000
1000
,
0010
0000
0010
0000
0100
0001
0010
0000
,
0001
0001
0001
0001
,
0100
0000
0100
0000
0010
1000
0100
0000
,
0010
0001
1000
1010
,
0010
1000
1001
0011
,
0110
0110
1001
1001
,
0101
1010
1001
0001
,
0020
0000
0000
0130
0000
0000
0000
1000
,
0001
1000
0001
1000
0001
0000
0000
0000
,
0200
0000
0000
0301
0000
0000
0000
0010
,
0001
0010
0001
0010
0001
0000
0000
0000
,
2000
0000
0000
3100
0000
0000
0000
1000
,
0010
1000
0010
1000
0010
0000
0000
0000
,
0200
0000
0000
0301
0000
0000
0000
0010
,
0200
0000
0000
0000
0000
2300
0000
0000
,
0000
0000
0000
0000
,
0000
0000
0000
0000
,
0000
0000
0000
0000
,
0000
0000
0002
0000
0000
3003
0000
0000
;

//---------------dance-single - ----------------
#NOTEDATA:;
#CHARTNAME:;
#STEPSTYPE:dance-single;
#DESCRIPTION:;
#CHARTSTYLE:;
#DIFFICULTY:Easy;
#METER:6;
#RADARVALUES:0.271816,0.557522,0.160891,0.272815,0.000000,272.000000,249.000000,23.000000,39.000000,0.000000,0.000000,0.000000,0.000000,0.000000,0.271816,0.557522,0.160891,0.272815,0.000000,272.000000,249.000000,23.000000,39.000000,0.000000,0.000000,0.000000,0.000000,0.000000;
#CREDIT:Embrace;
#NOTES:
0000
0000
0000
0000
,
0000
0000
0000
0000
,
0000
0000
0000
0000
,
0000
0000
0000
0000
,
1000
0000
0001
0000
,
0100
0000
0010
0000
,
1000
0000
0100
0000
,
0010
0001
0001
0000
,
1001
0000
1000
0000
,
0010
0100
0001
1001
,
1000
0000
0100
0000
,
0010
0001
0100
0101
,
0001
0000
0010
0000
,
0100
1000
0010
0110
,
0100
0000
0001
0000
,
1000
0100
0010
0001
,
0002
0003
2000
3000
,
0020
0030
0200
0300
,
0002
0003
0002
0003
,
1000
0100
0010
0000
,
0002
0003
0200
0300
,
0020
0030
2000
3000
,
0200
0300
0020
0030
,
0002
0003
0100
0010
,
1010
1000
0000
0001
,
0000
0010
0000
0100
,
1000
0010
0000
0100
,
0000
0001
0000
0010
,
0001
0010
0001
1000
,
0010
1000
0010
0100
,
0001
0001
0001
0001
,
0001
0001
0001
1000
,
0200
0000
0000
0300
,
0010
0001
0200
0300
,
0020
0000
0000
0030
,
0100
0001
0020
0030
,
0220
0000
0000
0330
,
0010
1000
0200
0300
,
0020
0000
0000
0030
,
0100
1000
0002
0003
,
1000
0000
1000
0000
,
0001
0000
0001
0000
,
0100
0000
0100
0000
,
0010
0000
0010
0000
,
1001
0000
1001
0000
,
0110
0000
1001
0000
,
1000
0000
0100
0000
,
1000
0000
0010
0000
,
0100
0001
1000
0000
,
0100
0010
0001
0000
,
1000
0010
0100
0000
,
0001
0100
0010
0000
,
1000
0001
0010
0000
,
0100
1000
0001
0000
,
0010
0001
0100
0000
,
0010
1000
2002
0000
,
0000
0000
0000
3003
,
0000
0000
0000
1001
,
1000
0000
0100
0000
,
0010
0001
0100
0101
,
0001
0001
1000
1000
,
1000
1000
1000
0001
,
0010
0100
1000
0001
,
0100
0010
1000
0000
,
0001
0000
0001
0000
,
0100
0010
1000
1100
,
0001
0000
1000
0000
,
0010
0100
0001
0011
,
1000
1000
0001
0001
,
0001
0001
0001
0100
,
0010
1000
0100
0010
,
0001
0100
0010
1000
,
0200
0300
0020
0030
,
0002
0003
0000
1000
,
2000
3000
0020
0030
,
0200
0300
0000
0001
,
0001
0000
1000
0000
,
0100
0000
0010
0000
,
0001
0001
0001
0001
,
0001
0001
0001
1000
,
0110
0001
0000
0010
,
0001
0100
0000
0010
,
1000
0100
0000
1000
,
0010
0100
0000
0001
,
0010
0010
0100
1000
,
0010
0010
0100
0001
,
1001
1001
1001
1001
,
0110
1001
0110
0001
,
0200
0000
0000
0300
,
0010
1000
0200
0300
,
0020
0000
0000
0030
,
0001
0100
0020
0030
,
2000
0000
0000
3000
,
0100
1000
0020
0030
,
0200
0000
0000
0300
,
0001
0010
0001
0002
,
0000
0000
0000
0000
,
0000
0000
0000
0000
,
0000
0000
0000
0000
,
0000
0000
2000
0000
0000
3003
0000
0000
;

//---------------dance-single - ----------------
#NOTEDATA:;
#CHARTNAME:;
#STEPSTYPE:dance-single;
#DESCRIPTION:;
#CHARTSTYLE:;
#DIFFICULTY:Beginner;
#METER:3;
#RADARVALUES:0.179878,0.314000,0.069953,0.167886,0.000000,180.000000,170.000000,10.000000,24.000000,0.000000,0.000000,0.000000,0.000000,0.000000,0.179878,0.314000,0.069953,0.167886,0.000000,180.000000,170.000000,10.000000,24.000000,0.000000,0.000000,0.000000,0.000000,0.000000;
#CREDIT:Embrace;
#NOTES:
0000
0000
0000
0000
,
0000
0000
0000
0000
,
0000
0000
0000
0000
,
0000
0000
0000
0000
,
1000
0000
0000
0000
,
0001
0000
0000
0000
,
0100
0000
0000
0000
,
0010
0000
0010
0000
,
0110
0000
0000
0000
,
0001
0000
0001
0000
,
1001
0000
0000
0000
,
1000
0000
1000
0000
,
1001
0000
0000
0000
,
0001
0000
0001
0000
,
1001
0000
0000
0000
,
1000
0000
1000
0000
,
0010
0000
0010
0000
,
0100
0000
0100
0000
,
0001
0000
0001
0000
,
2000
0000
3000
0000
,
0001
0000
0010
0000
,
0001
0000
0010
0000
,
0100
0000
1000
0000
,
0010
0000
0100
0000
,
0110
0000
1000
0000
,
0001
0000
1000
0000
,
0100
0000
0010
0000
,
0001
0000
1000
0000
,
0010
0000
0010
0000
,
0100
0000
0100
0000
,
0001
0001
0001
0001
,
0001
0001
0001
0000
,
2000
0000
3000
0000
,
0010
0010
0010
0000
,
2000
0000
3000
0000
,
0100
0100
0100
0000
,
0200
0000
0300
0000
,
0010
0010
0010
0000
,
0002
0000
0003
0000
,
1000
1000
1000
0000
,
0001
0000
1000
0000
,
0010
0000
1000
0000
,
0001
0000
0010
0000
,
0100
0000
0010
0000
,
0001
0000
0001
0000
,
1000
0000
1000
0000
,
0010
0000
0100
0000
,
0001
0000
1000
0000
,
0200
0000
0300
0000
,
0010
0000
0001
0000
,
2000
0000
3000
0000
,
0010
0000
0100
0000
,
0002
0000
0003
0000
,
1000
0000
0100
0000
,
0020
0000
0030
0000
,
0001
0000
2002
0000
,
0000
0000
0000
3003
,
0000
0000
0000
0001
,
0001
0000
1000
0000
,
0010
0000
0000
1000
,
1000
0000
0001
0000
,
0010
0000
0100
0000
,
1000
0000
0010
0000
,
1000
0000
0100
0000
,
0010
0000
0010
0000
,
0001
0000
0000
1000
,
1000
0000
0010
0000
,
1000
0000
0000
0001
,
0001
0000
0010
0000
,
0100
0000
1000
0000
,
0010
0000
0100
0000
,
0001
0000
0100
0000
,
0020
0000
0030
0000
,
2000
0000
3000
0000
,
0002
0000
0003
0000
,
0020
0000
0030
0000
,
0100
0000
0100
0000
,
1000
0000
1000
0000
,
0001
0001
0001
0001
,
0001
0001
0001
0000
,
1000
0000
0010
0000
,
0100
0000
0001
0000
,
0010
0000
0100
0000
,
0010
0000
0001
0000
,
1000
0000
1000
0000
,
0010
0000
0010
0000
,
0100
0100
0100
0100
,
0100
0100
0100
0000
,
2002
0000
3003
0000
,
0001
0000
0010
0000
,
0220
0000
0330
0000
,
0100
0000
1000
0000
,
2002
0000
3003
0000
,
0001
0000
0100
0000
,
0220
0000
0330
0000
,
0010
0000
2000
0000
,
0000
0000
0000
0000
,
0000
0000
0000
0000
,
0000
0000
0000
0000
,
0000
0000
0000
3000
;

//---------------dance-double - ----------------
#NOTEDATA:;
#CHARTNAME:;
#STEPSTYPE:dance-double;
#DESCRIPTION:;
#CHARTSTYLE:;
#DIFFICULTY:Easy;
#METER:7;
#RADARVALUES:0.271816,0.557522,0.160891,0.272815,0.000000,272.000000,249.000000,23.000000,39.000000,0.000000,0.000000,0.000000,0.000000,0.000000,0.271816,0.557522,0.160891,0.272815,0.000000,272.000000,249.000000,23.000000,39.000000,0.000000,0.000000,0.000000,0.000000,0.000000;
#CREDIT:Embrace;
#NOTES:
// measure 0
00000000
00000000
00000000
00000000
,  // measure 1
00000000
00000000
00000000
00000000
,  // measure 2
00000000
00000000
00000000
00000000
,  // measure 3
00000000
00000000
00000000
00000000
,  // measure 4
00000001
00000000
00001000
00000000
,  // measure 5
00000010
00000000
00010000
00000000
,  // measure 6
00001000
00000000
00100000
00000000
,  // measure 7
00010000
10000000
10000000
00000000
,  // measure 8
10010000
00000000
00010000
00000000
,  // measure 9
00100000
00001000
00010000
00011000
,  // measure 10
00001000
00000000
00010000
00000000
,  // measure 11
00000010
00001000
00000001
00001001
,  // measure 12
00001000
00000000
00000100
00000000
,  // measure 13
00000010
00000100
00010000
00011000
,  // measure 14
00001000
00000000
01000000
00000000
,  // measure 15
00010000
01000000
00100000
10000000
,  // measure 16
20000000
30000000
02000000
03000000
,  // measure 17
00020000
00030000
00002000
00003000
,  // measure 18
00000020
00000030
00000002
00000003
,  // measure 19
00001000
00000010
00010000
00000000
,  // measure 20
00002000
00003000
00020000
00030000
,  // measure 21
00200000
00300000
20000000
30000000
,  // measure 22
02000000
03000000
00020000
00030000
,  // measure 23
00002000
00003000
00000100
00000001
,  // measure 24
00000101
00001000
00000000
00000001
,  // measure 25
00000000
00000010
00000000
00010000
,  // measure 26
00001000
01000000
00000000
00010000
,  // measure 27
00000000
00100000
00000000
01000000
,  // measure 28
10000000
01000000
10000000
00010000
,  // measure 29
00100000
00010000
00100000
00001000
,  // measure 30
00010000
00010000
00010000
00010000
,  // measure 31
00010000
00010000
00010000
00000010
,  // measure 32
00020000
00000000
00000000
00030000
,  // measure 33
00001000
00000100
00000002
00000003
,  // measure 34
00000020
00000000
00000000
00000030
,  // measure 35
00000001
00000100
00002000
00003000
,  // measure 36
00022000
00000000
00000000
00033000
,  // measure 37
00010000
00100000
20000000
30000000
,  // measure 38
02000000
00000000
00000000
03000000
,  // measure 39
00100000
00001000
00020000
00030000
,  // measure 40
00000100
00000000
00000100
00000000
,  // measure 41
00001000
00000000
00001000
00000000
,  // measure 42
00000001
00000000
00000001
00000000
,  // measure 43
00000100
00000000
00000100
00000000
,  // measure 44
00000110
00000000
00010010
00000000
,  // measure 45
00011000
00000000
00101000
00000000
,  // measure 46
00100000
00000000
00010000
00000000
,  // measure 47
01000000
00000000
00100000
00000000
,  // measure 48
10000000
01000000
00100000
00000000
,  // measure 49
00001000
00010000
00000100
00000000
,  // measure 50
00001000
00000010
00000100
00000000
,  // measure 51
00000001
00001000
00000100
00000000
,  // measure 52
00000010
00001000
00010000
00000000
,  // measure 53
01000000
10000000
00010000
00000000
,  // measure 54
00100000
01000000
10000000
00000000
,  // measure 55
01000000
00010000
00022000
00000000
,  // measure 56
00000000
00000000
00000000
00033000
,  // measure 57
00000000
00000000
00000000
00011000
,  // measure 58
00001000
00000000
01000000
00000000
,  // measure 59
00100000
10000000
01000000
11000000
,  // measure 60
10000000
10000000
00010000
10000000
,  // measure 61
01000000
00100000
01000000
00010000
,  // measure 62
00001000
00000010
00000001
00001000
,  // measure 63
00000001
00000100
00000010
00000000
,  // measure 64
00010000
00000000
00010000
00000000
,  // measure 65
00001000
00010000
00000100
00010100
,  // measure 66
00010000
00000000
00001000
00000000
,  // measure 67
01000000
00100000
10000000
10010000
,  // measure 68
00010000
00100000
00001000
00010000
,  // measure 69
00000100
00000010
00000001
00000100
,  // measure 70
00001000
00010000
00100000
10000000
,  // measure 71
01000000
00010000
00001000
00010000
,  // measure 72
00000020
00000030
00000200
00000300
,  // measure 73
00000002
00000003
00000000
00001000
,  // measure 74
00002000
00003000
00000200
00000300
,  // measure 75
00020000
00030000
00000000
00001000
,  // measure 76
00001000
00000000
01000000
00000000
,  // measure 77
00100000
00000000
10000000
00000000
,  // measure 78
00010000
00010000
00010000
00010000
,  // measure 79
00010000
00010000
00010000
10000000
,  // measure 80
00101000
00001000
00000000
00010000
,  // measure 81
00000100
00001000
00000000
00000001
,  // measure 82
00000100
00000010
00000000
00010000
,  // measure 83
00001000
00100000
00000000
00001000
,  // measure 84
00010000
00010000
00000010
00001000
,  // measure 85
00000001
00000001
00000010
00000100
,  // measure 86
00010100
00011000
00010100
00011000
,  // measure 87
00101000
00110000
10010000
10000000
,  // measure 88
02000000
00000000
00000000
03000000
,  // measure 89
00100000
00001000
00020000
00030000
,  // measure 90
00000020
00000000
00000000
00000030
,  // measure 91
00000100
00001000
00020000
00030000
,  // measure 92
00000200
00000000
00000000
00000300
,  // measure 93
00000010
00001000
00020000
00030000
,  // measure 94
00000200
00000000
00000000
00000300
,  // measure 95
00000010
00000001
00001000
00002000
,  // measure 96
00000000
00000000
00000000
00000000
,  // measure 97
00000000
00000000
00000000
00000000
,  // measure 98
00000000
00000000
00000000
00000000
,  // measure 99
00000000
00000000
00000002
00000000
00000000
00003003
00000000
00000000
;

//---------------dance-double - ----------------
#NOTEDATA:;
#CHARTNAME:;
#STEPSTYPE:dance-double;
#DESCRIPTION:;
#CHARTSTYLE:;
#DIFFICULTY:Medium;
#METER:9;
#RADARVALUES:0.407724,0.627212,0.300796,0.230843,0.000000,408.000000,365.000000,43.000000,33.000000,0.000000,0.000000,0.000000,0.000000,0.000000,0.407724,0.627212,0.300796,0.230843,0.000000,408.000000,365.000000,43.000000,33.000000,0.000000,0.000000,0.000000,0.000000,0.000000;
#CREDIT:Embrace;
#NOTES:
// measure 0
00000000
00000000
00000000
00000000
,  // measure 1
00000000
00000000
00000000
00000000
,  // measure 2
00000000
00000000
00000000
00000000
,  // measure 3
00000000
00000000
00000000
00000000
,  // measure 4
00001000
00010000
00000010
00000000
,  // measure 5
00000100
00000010
00001000
00000000
,  // measure 6
00000100
00000010
00000001
00001000
,  // measure 7
00000100
00010000
00010000
00001000
,  // measure 8
10010000
00000000
00110000
00000000
,  // measure 9
00010000
00100000
00001000
00000000
00010000
00000000
00011000
00000000
,  // measure 10
00001001
00000000
00000101
00000000
,  // measure 11
00000010
00001000
00000010
00001000
00000010
00000000
00011000
00000000
,  // measure 12
00110000
00000000
10100000
00000000
,  // measure 13
10000000
01000000
10000000
01000000
10000000
00000000
00101000
00000000
,  // measure 14
00010010
00000000
00001010
00000000
,  // measure 15
00000001
00001000
00000001
00000000
00000100
00000000
00000010
00000000
,  // measure 16
00020000
00031000
00000020
00000031
,  // measure 17
00000200
00000310
00020000
00031000
,  // measure 18
00200000
01300000
20000000
30100000
,  // measure 19
01000000
00001000
01000000
00001000
00010000
00000000
00000110
00000000
,  // measure 20
00000002
00000103
00002000
00013000
,  // measure 21
02000000
13000000
02000000
03010000
,  // measure 22
00002000
00003010
00002000
00013000
,  // measure 23
00200000
00000000
10300000
00000000
01000000
00100000
00001000
00000000
,  // measure 24
00011000
00010000
00010000
00010000
,  // measure 25
00000100
00000000
00000100
00000000
00001000
00000010
00000100
00000000
,  // measure 26
00000001
00000001
00000001
00000001
,  // measure 27
00000010
00000000
00000010
00000000
00001000
00010000
00000100
00000000
,  // measure 28
00010000
00001000
00100000
00010000
,  // measure 29
01000000
00100000
10000000
00010000
,  // measure 30
00110000
01100000
00110000
00101000
,  // measure 31
00011000
00001100
00000101
00001000
,  // measure 32
00000020
00000000
00000000
00000130
00000000
00000000
00000000
00010000
,  // measure 33
00001000
00010000
00001000
00010000
00001000
00000000
00000000
00000000
,  // measure 34
00200000
00000000
00000000
01300000
00000000
00000000
00000000
10000000
,  // measure 35
00100000
10000000
00100000
10000000
00100000
00000000
00000000
00000000
,  // measure 36
00020000
00000000
00000000
00031000
00000000
00000000
00000000
00000100
,  // measure 37
00000001
00000100
00000001
00000100
00000001
00000000
00000000
00000000
,  // measure 38
00000020
00000000
00000000
00000130
00000000
00000000
00000000
00010000
,  // measure 39
00002000
00000000
00010000
00000000
,  // measure 40
01003000
00100000
00000000
00000000
10000000
01000000
00000000
00000000
,  // measure 41
00100000
00001000
00000000
00000000
00010000
00000010
00000000
00000000
,  // measure 42
00000100
00000001
00000000
00000000
00000010
00000100
00000000
00000000
,  // measure 43
00001000
00000010
00000000
00000010
00001000
00000010
00000000
00000000
,  // measure 44
00010000
00000000
00000000
00001000
01000000
00000000
00000000
00010000
,  // measure 45
00100000
00000000
00000000
00010000
01000000
00000000
00000000
00100000
,  // measure 46
10000000
00000000
00000000
01000000
00100000
00000000
00000000
00001000
,  // measure 47
00010000
00000000
00000000
00000100
00000010
00000000
00000110
00000000
,  // measure 48
00000001
00000100
00000000
00000000
00000001
00000010
00000000
00000000
,  // measure 49
00001000
00010000
00000000
00000000
00000100
00010000
00000000
00000000
,  // measure 50
01000000
00100000
00000000
00000000
00001000
00010000
00000000
00000000
,  // measure 51
00000010
00000100
00000000
00000000
00001000
00010000
00000000
00000000
,  // measure 52
00000010
00001000
00000000
00000010
00001000
00000010
00000000
00010000
,  // measure 53
00001000
00010000
00000000
00001000
00010000
00001000
00000000
00100000
,  // measure 54
01000000
00100000
00000000
01000000
00100000
01000000
00000000
10000000
,  // measure 55
00100000
00010000
00022000
00000000
,  // measure 56
00000000
00000000
00000000
00033000
,  // measure 57
00000000
00000000
00000000
00000110
,  // measure 58
00001001
00000000
00010100
00000000
,  // measure 59
00010000
00001000
00010000
00000000
00001000
00000000
01010000
00000000
,  // measure 60
10000000
10000000
01000000
00010000
,  // measure 61
00001000
00000000
00100000
00010000
00000000
00010000
00100000
00000000
,  // measure 62
00001000
00010000
00000010
00000100
,  // measure 63
00000001
00000000
00000010
00000100
00000000
00000100
00000010
00000000
,  // measure 64
00000011
00000000
00010010
00000000
,  // measure 65
00000010
00010000
00001000
00000000
00010000
00000000
10010000
00000000
,  // measure 66
11000000
00000000
01001000
00000000
,  // measure 67
00001000
00010000
00000010
00001000
00000001
00000000
00001100
00000000
,  // measure 68
00010000
00010000
00001000
00000100
,  // measure 69
00000010
00000000
00010000
00001000
00000000
00001000
00010000
00000000
,  // measure 70
00100000
10000000
00100000
00010000
,  // measure 71
00001000
00000000
00000010
00000001
00000000
00000000
00000100
00000020
,  // measure 72
00000000
00000000
00001030
00000000
00000200
00000000
00010300
00002000
,  // measure 73
00000000
00000000
01003000
00000000
00000000
00000000
00100000
20000000
,  // measure 74
00000000
00000000
30100000
00000000
02000000
00000000
03001000
00020000
,  // measure 75
00000000
00000000
00030100
00000000
00000000
00000000
00000010
00000001
,  // measure 76
00000000
00000100
00000000
00000010
00000000
00010000
00000000
00001000
,  // measure 77
00000000
00100000
00000000
01000000
00000000
10000000
00000000
00010000
,  // measure 78
00000000
00010000
00010000
00000000
00010000
00000000
00010000
00000000
,  // measure 79
00010000
00010000
00010000
10000000
,  // measure 80
00011000
00001000
00001000
00001000
,  // measure 81
01000000
00000000
01000000
00000000
00001000
00010000
00000010
00000000
,  // measure 82
00000100
00000100
00000100
00000100
,  // measure 83
00000001
00000000
00000001
00000000
00000010
00001000
00010000
00000000
,  // measure 84
00001000
01000000
00010000
10010000
,  // measure 85
10000000
01000000
01100000
00101000
,  // measure 86
00011000
00011000
00010100
00010100
,  // measure 87
00001001
00000110
00001001
00010000
,  // measure 88
00002000
00000000
00000000
00103000
00000000
00000000
00000000
01000000
,  // measure 89
10000000
01000000
10000000
01000000
10000000
00000000
00000000
00000000
,  // measure 90
00200000
00000000
00000000
01300000
00000000
00000000
00000000
00001000
,  // measure 91
00010000
00001000
00010000
00001000
00010000
00000000
00000000
00000000
,  // measure 92
00000002
00000000
00000000
00000013
00000000
00000000
00000000
00001000
,  // measure 93
00010000
00001000
00010000
00001000
00010000
00000000
00000000
00000000
,  // measure 94
02000000
00000000
00000000
13000000
00000000
00000000
00000000
00100000
,  // measure 95
02000000
00000000
00000000
00000000
00000000
03002000
00000000
00000000
,  // measure 96
00000000
00000000
00000000
00000000
,  // measure 97
00000000
00000000
00000000
00000000
,  // measure 98
00000000
00000000
00000000
00000000
,  // measure 99
00000000
00000000
00020000
00000000
00000000
00033000
00000000
00000000
;

//---------------dance-double - ----------------
#NOTEDATA:;
#CHARTNAME:;
#STEPSTYPE:dance-double;
#DESCRIPTION:;
#CHARTSTYLE:;
#DIFFICULTY:Hard;
#METER:13;
#RADARVALUES:0.525644,0.662057,0.251829,0.398730,0.006995,526.000000,490.000000,36.000000,57.000000,0.000000,0.000000,3.000000,0.000000,0.000000,0.525644,0.662057,0.251829,0.398730,0.006995,526.000000,490.000000,36.000000,57.000000,0.000000,0.000000,3.000000,0.000000,0.000000;
#CREDIT:Embrace;
#NOTES:
// measure 0
00000000
00000000
00000000
00000000
,  // measure 1
00000000
00000000
00000000
00000000
,  // measure 2
00000000
00000000
00000000
00000000
,  // measure 3
00000000
00000000
00000000
00000000
,  // measure 4
00001000
00000000
00010000
00000000
00000100
00001000
00000010
00000000
,  // measure 5
00000100
00000001
00001000
00000000
00000100
00000000
00000010
00000000
,  // measure 6
00001000
00010000
00001000
00000000
00100000
00010000
10000000
00000000
,  // measure 7
00100000
02000000
00000000
03000000
00001000
00012000
00000000
00003000
,  // measure 8
01000000
00000000
00100000
10000000
01000000
00000000
00100000
00010000
,  // measure 9
10000000
00010000
10000000
00000000
10000000
00000000
00011000
00000000
,  // measure 10
00001000
00000000
00010000
00000100
00000010
00000000
00000001
00000000
,  // measure 11
00001000
00000010
00000100
00000010
00001000
00000000
00011000
00000000
,  // measure 12
00010000
00000000
01000000
10000000
00010000
00000000
00100000
00000000
,  // measure 13
01000000
00100000
00001000
01000000
00010000
00000000
00011000
00000000
,  // measure 14
00001000
00000000
00000010
00000001
00001000
00000000
00000010
00000100
,  // measure 15
00000001
00001000
00000100
00000000
00010000
00001000
00001000
00100000
,  // measure 16
01000000
00000000
10000000
00100000
01000000
00000000
00001000
00100000
,  // measure 17
00010000
00000000
01000000
00001000
00010000
00000000
00000100
00000010
,  // measure 18
00000001
00000000
00001000
00000010
00010000
00000000
00001000
00100000
,  // measure 19
01000000
10000000
01000000
10000000
00010000
00000000
00011000
00010000
,  // measure 20
00002000
00000000
00003000
00000100
00000001
00001000
00000000
00000001
,  // measure 21
00000010
00000100
00000000
00010000
00001000
01000000
00010000
00100000
,  // measure 22
01000000
10000000
00000000
00100000
00010000
00001000
00000000
00010000
,  // measure 23
01000000
10000000
00000000
01000000
00100000
00001000
00010000
00000000
,  // measure 24
00021000
00000000
00030010
00000000
00000100
00000000
00000100
00000001
,  // measure 25
00000000
00000001
00000000
00001000
00000000
00001000
00000100
00001000
,  // measure 26
00000100
00000000
00000010
00000000
00000010
00000000
00001000
00010000
,  // measure 27
00000000
00010000
00000000
00001000
00000000
00001000
00010000
00100000
,  // measure 28
00000000
10000000
00000000
01010000
00000000
10000000
00000000
01000000
,  // measure 29
00000000
00100000
00000000
11000000
00000000
00010000
00000000
00110000
,  // measure 30
00000000
00010000
00110000
00000000
00101000
00000000
00011000
00000000
,  // measure 31
01001000
00011000
00001010
00010000
,  // measure 32
00000020
00000000
00000000
00000200
00000000
00000000
00000330
00000001
,  // measure 33
00000010
00000100
00000010
00000001
00000200
00000000
00001300
00000000
,  // measure 34
00020000
00000000
00000000
00002000
00000000
00000000
00033000
01000000
,  // measure 35
00001000
00010000
00001000
01000000
00200000
00000000
00310000
00000000
,  // measure 36
00002000
00000000
00000000
02000000
00000000
00000000
03003000
00010000
,  // measure 37
00100000
01000000
00100000
00010000
00002000
00000000
00003100
00000000
,  // measure 38
00020000
00000000
00000000
00000020
00000000
00000000
00030030
00010000
,  // measure 39
02000000
00000000
00200000
03300000
,  // measure 40
00010000
10000000
00000000
01000000
10000000
01000000
00000000
00010000
,  // measure 41
01000000
00010000
00000000
00001000
00010000
00001000
00000000
00000010
,  // measure 42
00001000
00000010
00000000
00000001
00000010
00000001
00000000
00000100
,  // measure 43
00000001
00000100
00000000
00001000
00000100
00001000
00010000
00000000
,  // measure 44
00001000
00000000
00100000
00010000
01000000
00000000
00100000
10000000
,  // measure 45
01000000
10000000
00000000
00010000
00100000
00000000
00001000
00010000
,  // measure 46
00000010
00001000
00000000
00000100
00000010
00000001
00000000
00000100
,  // measure 47
00000010
00010000
00000000
00001000
00100000
02000000
03000000
00000000
,  // measure 48
10000000
00100000
00000000
00010000
00100000
00010000
00000000
00001000
,  // measure 49
00010000
00001000
00000000
00000100
00001000
00000100
00000000
00000001
,  // measure 50
00000100
00000001
00000000
00000010
00000001
00000010
00000000
00001000
,  // measure 51
00000010
00001000
00000000
00010000
00001000
00010000
01000000
00000000
,  // measure 52
00100000
00001000
00000000
00010000
00000010
00000100
00000000
00001000
,  // measure 53
00010000
00000100
00000000
00010000
01000000
00100000
00000000
00010000
,  // measure 54
01000000
00100000
00000000
00010000
00001000
00000010
00000000
00000100
,  // measure 55
00000002
00000000
00000203
00000000
00001300
00000000
00042000
00000000
00000000
00000000
00000000
00000000
,  // measure 56
00000000
00000000
00000000
00033000
,  // measure 57
00000000
00000000
00000000
00000000
00000000
00000000
00000110
00001000
,  // measure 58
00000001
00000000
00000100
00000010
00010000
00000000
00001000
01000000
,  // measure 59
00010000
00100000
01000000
00100000
00010000
00000000
00011000
00000100
,  // measure 60
00001000
00000000
00001100
00000000
00000100
00000010
00000100
00000010
,  // measure 61
00000001
00001000
00000010
00000100
00000010
00000001
00000010
00000100
,  // measure 62
00001000
00010000
00001000
00010000
01000000
10000000
01000000
00100000
,  // measure 63
00010000
01000000
00100000
10000000
01000000
00100000
00100000
00001000
,  // measure 64
00001000
00000000
00010000
00001000
00000100
00000000
00000010
00001000
,  // measure 65
00000001
00000010
00000100
00000000
00010000
00000000
00101000
00000100
,  // measure 66
00010000
00000000
00001000
01000000
00010000
00000000
00100000
00001000
,  // measure 67
00010000
00000010
00000100
00000010
00000100
00000000
00010010
00001000
,  // measure 68
01000000
00000000
01010000
00000000
01000000
00100000
01000000
00100000
,  // measure 69
10000000
00010000
00100000
01000000
00010000
00001000
00010000
00001000
,  // measure 70
00000100
00000001
00000010
00001000
00000010
00000100
00010000
00001000
,  // measure 71
00010000
00100000
10000000
00010000
00000000
00100000
01000000
20000000
,  // measure 72
00000000
00000000
32000000
00000000
03020000
00000000
00031000
00200000
,  // measure 73
00000000
00000000
00302000
00000000
00003000
00000010
00000001
00000020
,  // measure 74
00000000
00000000
00000230
00000000
00020300
00000000
00030010
00002000
,  // measure 75
00000000
00000000
00003002
00000000
00000003
00000010
00000100
00000020
,  // measure 76
00000000
00002030
00000000
00023000
00000000
00230000
00000000
20300000
,  // measure 77
00000000
30200000
00000000
00320000
00000000
00032000
00000000
00013000
,  // measure 78
00000000
00010000
00010000
00000000
00010000
00000000
00010000
00000000
,  // measure 79
00010000
00010000
00010000
00001001
,  // measure 80
00020000
00000000
00130000
00000000
10000000
00010000
10000000
01000000
,  // measure 81
00000000
01100000
00000000
00101000
00000000
00100000
00001000
00010000
,  // measure 82
02000000
00000000
23000000
00000000
30010000
01000000
00001000
00010000
,  // measure 83
00000000
00010010
00000000
00011000
00000000
00001000
00010000
00000100
,  // measure 84
00000000
00000110
00000000
00000010
00000001
00000100
00000010
00010000
,  // measure 85
00000000
00011000
00000000
00001000
00100000
00010000
00000000
10000000
,  // measure 86
10010000
10000000
10010000
00000000
00011000
00000000
00001001
00000000
,  // measure 87
00011000
00001000
01001000
00000000
01020000
00000000
10030000
00000000
,  // measure 88
02000000
00000000
00000000
00200000
00000000
00000000
03300000
00001000
,  // measure 89
00010000
01000000
00010000
00001000
00000020
00000000
00000130
00000000
,  // measure 90
00020000
00000000
00000000
00002000
00000000
00000000
00033000
00000100
,  // measure 91
00001000
00010000
00001000
00000100
00000020
00000000
00010030
00000000
,  // measure 92
00002000
00000000
00000000
00020000
00000000
00000000
00033000
00100000
,  // measure 93
00010000
00001000
00010000
00100000
02000000
00000000
03001000
00000000
,  // measure 94
00020000
00000000
00000000
00000200
00000000
00000000
00030300
00000010
,  // measure 95
00001000
00010000
00001000
00000010
00000001
00002000
00000000
00000000
,  // measure 96
00000000
00000000
00000000
00000000
00000020
00003000
00000000
00000000
,  // measure 97
00000000
00000000
00000000
00040000
00000030
00000000
00000000
00000000
,  // measure 98
00000000
00000000
00000000
00034000
00000000
00000000
00000000
00000000
,  // measure 99
00000000
00000000
00020000
00003000
00000000
00030000
00000000
00000000
;
