#VERSION:0.83;
#TITLE:ドーピングダンス;
#SUBTITLE:;
#ARTIST:STEAKA feat. 初音ミク;
#TITLETRANSLIT:Doping Dance;
#SUBTITLETRANSLIT:;
#ARTISTTRANSLIT:STEAKA feat. Hatsune Miku;
#GENRE:;
#CREDIT:;
#MUSIC:Doping Dance.ogg;
#BANNER:Doping Dance.png;
#BACKGROUND:Doping Dance-bg.png;
#CDTITLE:;
#SAMPLESTART:40.825;
#SAMPLELENGTH:15.000;
#SELECTABLE:YES;
#OFFSET:0.000;
#BPMS:0.000=194.000;
#STOPS:;
#BGCHANGES:4.000=Doping Dance.avi=1.000=1=0=0=StretchNoLoop====,
99999.000=-nosongbg-=0.000=0=0=0=StretchNoLoop====;
#FGCHANGES:;

//--------------- dance-single - chrononical ----------------
#NOTEDATA:;
#STEPSTYPE:dance-single;
#DESCRIPTION:chrononical;
#DIFFICULTY:Beginner;
#METER:5;
#RADARVALUES:0,0,0,0,0;
#NOTES:
0000
0000
0000
0000
,
0000
0000
0000
0000
,
0000
0000
0000
0000
,
0000
0000
0000
0000
,
0000
0000
0000
0000
,
0001
0000
0010
0000
,
0100
0000
1000
0000
,
0001
0000
0100
0000
,
0010
0010
0010
0010
,
1000
0000
0100
0000
,
0010
0010
0001
0000
,
1000
0000
0010
0000
,
0100
0001
1000
0000
,
0001
0000
0010
0000
,
0100
0100
1000
0000
,
0001
0000
0100
0000
,
0010
1000
0001
1000
,
0001
0000
0000
0000
0010
0000
0000
0100
,
0000
0000
0000
0010
0000
0000
0000
0000
,
0001
0000
0000
0000
0100
0000
0000
0010
,
0000
0000
0000
0010
0000
0000
0000
0000
,
1000
0000
0000
0000
0100
0000
0000
0010
,
0000
0000
0000
0100
0000
0000
0000
0000
,
1000
0000
0000
0000
0010
0000
0000
0100
,
0000
0000
0000
0100
0000
0000
0000
0000
,
0001
0100
0010
0000
,
0010
0100
0001
0000
,
1000
0100
0010
0000
,
0010
0100
1000
0000
,
0001
1000
0010
0000
,
0010
1000
0001
0000
,
1000
1000
0100
0100
,
0010
0010
0010
0001
,
1000
0000
0010
0000
,
0100
0100
0001
0000
,
0001
0000
0010
0000
,
0010
0100
0100
0000
,
1000
0000
0100
0000
,
0001
0000
0010
0000
,
1000
1000
0001
0000
,
0001
0001
1000
0000
,
0001
0000
0100
0000
,
0010
0010
1000
0000
,
1000
0000
0100
0000
,
0100
0010
0010
0000
,
0001
0000
0010
0000
,
1000
0000
0100
0000
,
0001
0001
1000
0000
,
1000
1000
0001
0000
,
1000
0000
0000
0000
0010
0000
0000
0100
,
0000
0100
0020
0030
,
1000
0000
0000
0000
0100
0000
0000
0010
,
0000
0010
0100
0010
,
0001
0000
0000
0000
0100
0000
0000
0010
,
0000
0010
0200
0300
,
0001
0000
0000
0000
0010
0000
0000
0100
,
0000
0100
0000
0100
0000
0000
1000
0000
,
0002
0000
0000
0000
,
0203
0000
0320
0000
,
2030
0000
0000
0000
,
3002
0000
0000
0000
,
2003
0000
0000
0000
,
3200
0000
0320
0000
,
0032
0000
0000
0000
,
2003
0000
3002
0000
,
1003
0000
0010
0000
,
0100
0000
0001
0000
,
1000
0000
0100
0000
,
0010
0000
0001
0000
,
1000
1000
1000
0000
,
0001
0001
0001
0000
,
0020
0000
0000
0000
,
0030
0000
0000
0000
,
0001
0100
0010
0100
,
0001
0000
1000
0000
,
1000
0100
0010
0100
,
1000
0000
0001
0000
,
1000
0000
0010
0000
,
0001
0000
0100
0000
,
1000
1000
0001
0000
,
0001
0001
1000
0000
,
1000
0010
0100
0010
,
1000
0000
0001
0000
,
0001
0010
0100
0010
,
0001
0000
1000
0000
,
0001
0000
0100
0000
,
1000
0000
0010
0000
,
0001
0001
1000
0000
,
1000
1000
0001
0000
,
1000
0000
0010
0000
,
0100
0000
0100
0000
,
0001
0000
0000
0000
0010
0000
0000
0100
,
0000
0000
0000
0100
0000
0000
0000
0000
,
1000
0000
0010
0000
,
0100
0000
0100
0000
,
0001
0000
0000
1000
0000
0000
0001
0000
,
0000
1000
0000
0000
0001
0000
0000
0000
;

//--------------- dance-single - chrononical ----------------
#NOTEDATA:;
#STEPSTYPE:dance-single;
#DESCRIPTION:chrononical;
#DIFFICULTY:Easy;
#METER:9;
#RADARVALUES:0,0,0,0,0;
#NOTES:
0000
0000
0000
0000
,
0000
0000
0000
0000
,
0000
0000
0000
0000
,
0000
0000
0000
0000
,
0000
0000
0000
0000
,
1000
0000
0000
0020
0000
0000
0000
0230
,
0000
0301
1000
0100
,
1000
0000
0000
0200
0000
0000
0320
0000
,
0001
0001
0031
1001
,
1000
0000
0010
0100
0000
0100
0001
0000
,
1000
0100
0010
0001
,
1000
0000
0100
0010
0000
0010
0001
0000
,
1000
0001
1000
1001
,
0001
0000
0010
0100
0000
0100
1000
0000
,
0001
0100
0010
1000
,
0001
0000
0100
0010
0000
0010
1000
0000
,
0001
1000
0001
1001
,
1000
0000
0100
0000
0120
0000
0000
0031
,
0000
0100
0000
0110
0000
0000
1001
0000
,
0001
0000
0100
0000
0110
0000
0000
1001
,
0000
0101
0000
0021
0000
0000
0130
0000
,
0010
0000
0001
0000
0201
0000
0000
0310
,
0000
1000
0000
1100
0000
0000
1002
0000
,
0103
0000
0001
0000
0011
0000
0000
1001
,
0000
1010
0000
1200
0000
0000
0310
0000
,
0001
1000
0001
0000
0100
0010
0100
0000
,
0001
0010
0100
1000
,
1000
0001
1000
0000
0010
0100
0010
0000
,
1000
0100
0001
0010
,
1000
0100
0010
0000
0001
0100
0010
0000
,
1000
0010
0100
0001
,
0010
0100
1100
1002
,
1000
1000
1003
1001
,
0001
0100
0010
1000
,
0001
0010
0100
0100
,
0010
0100
0010
0000
0001
1000
0001
0000
,
0100
0100
0100
0010
,
0001
0110
0010
0100
,
1000
0110
0010
0100
,
0010
0010
1000
1000
,
0100
0100
0100
0100
,
1000
0010
0100
0001
,
1000
0100
0010
0010
,
0100
0010
0100
0000
1000
0001
1000
0000
,
0010
0010
0010
0100
,
1000
0110
0100
0010
,
0001
0110
0100
0010
,
0100
0100
0001
0001
,
0010
0100
1000
0001
,
1000
0000
0010
0000
0010
0000
0000
0001
,
0000
0010
0100
0100
,
0001
0000
0010
0000
0010
0000
0000
1000
,
0000
0010
0100
0100
,
1000
0000
0100
0000
0100
0000
0000
0001
,
0000
0100
0010
0010
,
0001
0000
0100
0000
1000
0000
0000
0100
,
0000
0100
0000
0100
0000
0000
0002
0000
,
2003
0000
0000
0000
,
3200
0000
0320
0000
,
0032
0000
0000
0000
,
2003
0000
0000
0000
,
3002
0000
0000
0000
,
0203
0000
0320
0000
,
2030
0000
0000
0000
,
3002
0000
2003
0000
,
3001
0001
0001
0000
,
1000
1000
1000
0000
,
0010
0010
0010
0000
,
0100
0100
0100
0000
,
0001
0010
0100
1000
,
0001
0100
0010
1000
,
0001
0010
0100
0000
1000
0010
0100
0000
,
0002
0000
0000
0003
,
1000
0010
0100
0010
,
1000
0100
0010
0100
,
1000
0100
1000
0000
0001
0100
0001
0000
,
0100
0100
0010
0100
,
1000
0110
0100
0010
,
0001
0110
0010
1000
,
0100
0100
0010
0001
,
0100
0100
0100
0100
,
0001
0010
0100
0010
,
0001
0100
0010
0100
,
0001
0100
0001
0000
1000
0100
1000
0000
,
0100
0100
0100
0010
,
1000
0110
0010
0100
,
0001
0110
0100
1000
,
0010
0010
0100
0001
,
1000
0001
0100
0001
,
1000
0100
0010
0000
,
0001
0000
0000
0100
0000
0000
0010
0000
,
1000
0000
0010
0000
0100
0000
0000
0010
,
0000
0010
0000
0010
0000
0010
0000
0000
,
1000
0010
0100
0000
,
0001
0000
0000
0010
0000
0000
0100
0000
,
1000
1000
0000
0001
0001
0000
0100
0100
,
0000
0010
0010
0000
1000
1000
0000
0000
;

//--------------- dance-single - chrononical ----------------
#NOTEDATA:;
#STEPSTYPE:dance-single;
#DESCRIPTION:chrononical;
#DIFFICULTY:Medium;
#METER:13;
#RADARVALUES:0,0,0,0,0;
#NOTES:
0000
0000
0000
0000
,
0000
0000
0000
0000
,
0000
0000
0000
0000
,
0000
0000
0000
0000
,
0000
0000
0000
0000
,
0001
0000
0010
0200
0000
1300
0001
0200
,
0000
0310
1000
0000
0010
0000
1000
0100
,
1000
0000
0100
0020
0000
0031
1000
0020
,
0100
0100
0130
1001
,
1000
0000
0010
0100
0010
1000
0001
0010
,
0100
0010
0001
0000
0010
0001
0100
0000
,
0100
0000
0001
1000
0001
0010
0100
0010
,
0001
1000
0010
0000
0100
0020
0001
0000
,
1030
0000
0100
0010
0100
1000
0001
0100
,
0010
0100
0001
0000
0100
0001
0010
0000
,
0010
0000
0001
1000
0001
0100
0010
0100
,
0001
1000
0100
0000
0010
0100
0001
0000
,
1100
0000
1020
0000
0130
0000
0000
0101
,
0000
0021
0000
0130
0000
0010
0001
0000
,
0011
0000
0201
0000
0310
0000
0000
1010
,
0000
0120
0000
0001
0000
0000
0130
0000
,
0101
0000
0021
0000
0130
0000
0000
1100
,
0000
1020
0000
0130
0000
0010
1000
0000
,
1010
0000
1200
0000
0310
0000
0000
0011
,
0000
0210
0000
0001
0000
0000
1300
0000
,
0001
0100
0010
0000
0100
0010
1000
0001
,
0010
0100
0000
0010
0100
1000
0001
0000
,
1000
0010
0100
0000
0010
0100
0001
1000
,
0100
0010
0100
0002
0000
0103
1000
0000
,
0001
0010
0100
0000
0010
0100
1000
0001
,
0100
0010
0000
0100
0010
1000
0001
1000
,
1001
0101
1001
1200
,
0010
0010
0310
1001
,
2000
0000
3010
0000
0100
0000
0010
1000
,
0000
1000
0001
1000
0000
1000
0100
0010
,
0001
1000
0001
0000
0100
0010
0100
0000
,
0110
0000
0110
0000
0010
1000
0100
0000
,
1100
0000
0110
0000
0010
0001
0100
0000
,
0101
0000
0110
0000
0010
1000
0100
0000
,
1100
0110
0011
1002
,
0100
0100
0100
0103
,
0002
0000
0013
0000
0100
0000
0010
0001
,
0000
0001
1000
0001
0000
0001
0100
0010
,
1000
0001
1000
0000
0100
0010
0100
0000
,
0110
0000
0110
0000
0010
0001
0100
0000
,
0101
0000
0110
0000
0010
1000
0100
0000
,
1100
0000
0110
0000
0010
0001
0100
0000
,
0101
0110
1010
1001
,
2000
0100
3002
0100
,
1003
0010
0100
0000
0100
0001
0000
0010
,
0000
0010
0100
0000
0001
0000
0100
0000
,
1000
0100
0010
0000
0100
0000
1000
0010
,
0000
0010
0100
0000
1000
0000
0100
0000
,
0001
0010
0100
0000
1000
0010
0100
0001
,
0000
0010
0100
0000
0001
0000
0100
0000
,
1000
0010
0100
0000
0010
0100
0000
0110
,
0000
0110
0000
0110
0000
0010
0020
0000
,
2030
0000
0000
0000
,
3200
0000
0320
0000
,
0032
0000
0000
0000
,
2003
0000
0000
0000
,
3002
0000
0000
0000
,
0203
0000
0320
0000
,
2030
0000
0000
0000
,
3002
0000
2003
0000
,
3001
0010
0100
1000
,
0001
0100
0010
1000
,
1000
0100
0010
0001
,
1000
0010
0100
0001
,
1000
0100
0010
0000
0010
0100
1000
0000
,
0001
0100
0010
0000
0010
0100
0001
0000
,
1000
0100
0010
0001
1000
0010
0100
0001
,
2000
0000
0000
3001
,
0002
0000
0103
0000
0010
0000
0100
0001
,
0000
0001
1000
0001
0000
0001
0010
0100
,
1000
0001
0100
0000
0100
0010
0100
0000
,
0110
0000
1001
0000
1000
0100
0100
0000
,
0001
0000
2100
0000
3001
0100
0100
0000
,
1000
0000
0102
0000
1003
0100
0100
0000
,
0001
0110
1100
2001
,
0010
0010
0010
3010
,
2000
0000
3100
0000
0010
0000
0100
1000
,
0000
1000
0001
1000
0000
1000
0010
0100
,
0001
1000
0100
0000
0100
0010
0100
0000
,
0110
0000
1001
0000
1000
0010
0010
0000
,
0001
0000
2010
0000
3001
0010
0010
0000
,
1000
0000
0012
0000
1003
0010
0010
0000
,
0001
0110
0101
1001
,
0002
0010
2003
0010
,
3001
0000
0100
0000
0010
1000
0000
1000
,
0100
0000
0100
0010
0000
0010
0001
0000
,
1000
0000
0010
0000
0100
0000
0001
1000
,
0000
1000
0010
1000
0000
1000
0100
0000
,
1000
0000
0100
0000
0010
0001
0000
0001
,
0100
0000
0100
0010
0000
0010
1000
0000
,
0001
0001
0000
0010
0010
0000
0100
0100
,
0000
1000
1000
0000
0001
0001
0000
0000
;

//--------------- dance-single - chrononical ----------------
#NOTEDATA:;
#STEPSTYPE:dance-single;
#DESCRIPTION:chrononical;
#DIFFICULTY:Hard;
#METER:15;
#RADARVALUES:0,0,0,0,0;
#NOTES:
0000
0000
0000
0000
,
0000
0000
0000
0000
,
0000
0000
0000
0000
,
0000
0000
0000
0000
,
0000
0000
0000
0000
,
1000
0010
1000
0200
0000
0310
0001
0200
,
0000
0301
0100
0001
1000
0100
0001
0100
,
1000
0100
1000
0020
0000
0130
0001
0020
,
0100
0100
0130
1001
,
0001
0010
0001
0100
0010
0100
0001
0010
,
0100
0000
1000
0100
0010
0000
0001
0000
1000
0000
0010
0000
0001
0000
0010
0000
,
1000
0010
1000
0100
0010
0100
1000
0010
,
0100
0000
0001
0100
0010
0000
1000
0000
0100
0010
0001
1000
0020
0000
0000
0000
,
1030
0100
1000
0010
0100
0010
1000
0100
,
0010
0000
0001
0010
0100
0000
1000
0000
0001
0000
0100
0000
1000
0000
0100
0000
,
0001
0100
0001
0010
0100
0010
0001
0100
,
0010
0000
1000
0010
0100
0000
0001
0000
0010
0100
1000
0001
0100
0000
0010
0000
,
1010
0000
0000
0000
1100
0000
0000
0100
0010
0000
0001
0000
0100
0000
0101
0000
,
0000
0011
0000
0010
0100
1000
0010
0000
,
1010
0000
0000
0000
1100
0000
0000
0100
0010
0000
0001
0000
0100
0000
0101
0000
,
0000
0000
0210
0000
0000
0000
1000
0000
0000
0000
0310
0100
0001
0000
0000
0000
,
0101
0000
0000
0000
0011
0000
0000
0010
0100
0000
1000
0000
0010
0000
1010
0000
,
0000
1100
0000
0100
0010
0001
0100
0000
,
0101
0000
0000
0000
0011
0000
0000
0010
0100
0000
1000
0000
0010
0000
1010
0000
,
0000
0000
0110
0000
0000
0000
1001
0000
0000
0000
1000
0001
1000
0000
0001
0000
,
1000
0100
0010
0100
0001
1000
0010
0001
,
0100
0010
0100
1000
0001
0010
1000
0001
,
1000
0100
0010
0100
0001
0100
0010
0011
,
0000
0000
0120
0000
0000
0000
1000
0000
0000
0000
0130
0000
1000
0001
1000
0000
,
0001
0100
0010
0100
1000
0001
0010
1000
,
0100
0010
0100
0001
1000
0010
0001
0100
,
0101
0110
1010
1100
,
0210
0010
0310
1001
,
1010
0000
0101
0000
0001
0010
0100
1100
,
0000
0011
0000
0001
0100
0010
0100
0001
,
1000
0100
0010
0100
1000
0100
0001
0100
,
0110
0000
0011
0000
0001
0100
0010
0100
,
1000
0000
0102
0000
1003
0100
0010
0100
,
0001
0000
2100
0000
3001
0100
0010
0100
,
1000
0110
0101
0011
,
1001
0000
1010
0010
1000
0000
1000
0100
,
1100
0000
0011
0000
0001
0100
0010
1010
,
0000
0000
0101
0000
0000
0100
0001
0000
0010
0000
0100
0000
0010
0000
0001
0000
,
1000
0010
0100
0010
1000
0010
0001
0010
,
0110
0000
0101
0000
0001
0010
0100
0010
,
1000
0000
0012
0000
1003
0010
0100
0010
,
0001
0000
2010
0000
3001
0010
0100
0010
,
1000
0110
1001
0011
,
2001
3010
1002
0013
,
0100
1000
0010
0000
0100
0010
1000
0100
,
0000
0100
0010
0000
1000
0010
0100
0000
,
0010
0001
0100
0000
0010
0100
0001
0010
,
0000
0000
0010
0000
0100
0000
0000
0000
0001
0100
0000
0010
0100
0000
1000
0000
,
0010
1000
0001
1000
0100
0010
0001
0100
,
0000
0100
0010
0000
0001
0010
0100
0000
,
0010
1000
0100
0000
0010
0100
1000
1010
,
0000
0110
0000
1001
1000
0100
0120
0000
,
0031
0000
1000
0000
0010
0100
0001
0000
,
1000
0000
0001
0000
0010
0100
1000
0000
,
0001
1000
0001
0000
0100
0010
0100
0000
,
0001
0000
1000
0000
0010
1000
0100
0000
,
0010
0000
0001
0000
0010
0001
0100
0000
,
0010
0000
1000
0000
0010
1000
0100
0000
,
0010
0001
1000
0010
,
0100
0001
1000
0001
,
1000
0100
0110
0011
,
0001
0100
0110
1010
,
1000
0001
0101
1010
,
1000
0001
0011
1100
,
1000
0001
1000
0010
0100
0001
1000
1000
,
0001
1000
0001
0010
0100
1000
0001
0001
,
1000
0010
0100
0010
1000
0100
0001
0100
,
1000
0000
0001
0100
0010
0000
0010
0000
1000
0001
1000
0100
0020
0000
0000
0000
,
0031
0100
0010
0100
0001
1000
0100
0010
,
1000
0001
0100
1000
0001
0010
0100
0010
,
0001
1000
0001
0100
0010
0100
1000
0100
,
0110
0000
1001
0000
1100
0100
0010
0100
,
0001
0000
1100
1000
0001
0100
0010
0100
,
1000
0000
0101
0001
1000
0100
0010
0100
,
0001
0100
0110
0000
0100
1000
1001
0000
,
1010
0000
0101
0100
0010
0000
0100
0010
,
1000
0010
0100
0010
1000
0001
0010
0100
,
0001
1000
0010
0001
1000
0100
0010
0100
,
1000
0001
1000
0010
0100
0010
0001
0010
,
0110
0000
1001
0000
0011
0010
0100
0010
,
1000
0000
0011
0001
1000
0010
0100
0010
,
0001
0000
1010
1000
0001
0010
0100
0010
,
1000
0010
0110
0000
0010
0001
1001
0000
,
0102
0013
2100
3010
,
1000
0010
0100
0000
0100
0001
0000
0001
,
0010
0000
0010
0100
0000
0100
0002
0000
,
0103
0010
0001
0000
0001
0000
0100
0010
,
0000
0010
1000
0010
0100
0001
0010
0100
,
1000
0100
0010
0000
0010
0001
0000
0001
,
0100
0000
0100
0010
0000
0010
0002
0000
,
0013
0110
0000
0100
0101
0000
0001
1001
,
0000
1000
1100
0000
0100
0110
0000
0000
;
