#VERSION:0.83;
#TITLE:Don't You (Forget About Me);
#SUBTITLE:;
#ARTIST:Simple Minds;
#TITLETRANSLIT:;
#SUBTITLETRANSLIT:;
#ARTISTTRANSLIT:;
#GENRE:BRIT POP;
#ORIGIN:;
#CREDIT:;
#BANNER:dontyou.png;
#BACKGROUND:dontyou_bg.png;
#PREVIEWVID:;
#JACKET:dontyou_jacket.png;
#CDIMAGE:;
#DISCIMAGE:;
#LYRICSPATH:;
#CDTITLE:;
#MUSIC:dontyou.ogg;
#OFFSET:0.000000;
#SAMPLESTART:86.470001;
#SAMPLELENGTH:17.294001;
#SELECTABLE:YES;
#BPMS:0.000=111.021;
#STOPS:;
#DELAYS:;
#WARPS:;
#TIMESIGNATURES:0.000=4=4;
#TICKCOUNTS:0.000=4;
#COMBOS:0.000=1;
#SPEEDS:0.000=1.000=0.000=0;
#SCROLLS:0.000=1.000;
#FAKES:;
#LABELS:0.000=Song Start;
#BGCHANGES:0.000=dontyou.mp4=1.000=0=0=0=StretchNoLoop====,
193.000=dontyou_bg.png=1.000=0=0=1=====,
99999=-nosongbg-=1.000=0=0=0 // don't automatically add -songbackground-
;
#KEYSOUNDS:;
#ATTACKS:
;

//---------------dance-single - ----------------
#NOTEDATA:;
#CHARTNAME:;
#STEPSTYPE:dance-single;
#DESCRIPTION:;
#CHARTSTYLE:;
#DIFFICULTY:Hard;
#METER:10;
#RADARVALUES:0.377551,0.402446,0.207653,0.226530,0.179337,280.000000,258.000000,22.000000,24.000000,0.000000,0.000000,0.000000,0.000000,0.000000,0.377551,0.402446,0.207653,0.226530,0.179337,280.000000,258.000000,22.000000,24.000000,0.000000,0.000000,0.000000,0.000000,0.000000;
#CREDIT:TonyAkita;
#NOTES:
// measure 0
0000
0000
0000
0000
,  // measure 1
0000
0000
0000
0000
,  // measure 2
0000
0000
0000
0000
,  // measure 3
0000
0000
0000
0000
,  // measure 4
1010
0000
0000
0202
0000
0000
0303
0000
,  // measure 5
0100
0000
0000
0001
1000
0000
0100
0000
0001
0000
0000
0000
1100
0000
0000
0000
,  // measure 6
0011
0000
0000
2002
0000
0000
3003
0000
,  // measure 7
1010
0000
0000
0000
0000
0000
0202
0000
0000
0000
0303
0000
1000
0001
1000
0001
,  // measure 8
0020
0000
0031
0010
0001
0000
1100
0000
,  // measure 9
1000
0000
0000
0001
0100
0000
1000
0000
0100
0000
0000
0000
0110
0000
0000
0000
,  // measure 10
0010
1000
0100
1000
0000
0000
0011
0000
,  // measure 11
0010
0000
0000
0001
1000
0000
0010
0000
0001
0000
0010
0000
0100
0000
0000
0000
,  // measure 12
0020
0000
1030
0010
1000
0000
0101
0000
,  // measure 13
0001
0000
0000
1000
0100
0000
0001
0000
0100
0000
0000
0000
0110
0000
0000
0000
,  // measure 14
0010
0001
0100
0001
0000
0000
1010
0000
,  // measure 15
0010
0000
0000
1000
0001
0000
0010
0000
1000
0000
0010
0000
0100
0000
0000
0000
,  // measure 16
2000
0000
3100
0010
0100
0000
0011
0000
,  // measure 17
0001
0000
0000
0100
0010
0000
0100
0000
1000
0000
0000
0000
0101
0000
0000
0000
,  // measure 18
0100
0001
0010
0001
0000
0000
1100
0000
,  // measure 19
1000
0000
0000
0100
0001
0000
0100
0000
1000
0000
0100
0000
0010
0000
0000
0000
,  // measure 20
0002
0000
0103
0010
0100
0000
1010
0000
,  // measure 21
1000
0000
0000
0100
0010
0000
0100
0000
0001
0000
0000
0000
1100
0000
0000
0000
,  // measure 22
0000
1000
0010
1000
0000
0001
0100
0001
,  // measure 23
0000
0000
0001
0000
0010
0000
0001
0000
0000
0000
1000
0000
0001
1000
0001
1000
,  // measure 24
0001
0000
0000
0000
0022
0000
0000
0000
0033
0000
0001
1000
0000
1000
0000
0010
,  // measure 25
0100
0100
0000
0001
0010
0100
1000
0010
,  // measure 26
0100
0010
1000
0002
0000
0000
0003
0000
,  // measure 27
0010
1000
0010
0001
0010
1000
0010
0100
,  // measure 28
1000
0000
0000
0000
2200
0000
0000
0000
3300
0000
1000
0001
0000
0001
0000
0100
,  // measure 29
0010
0010
0000
1000
0100
0010
0001
0100
,  // measure 30
0010
0000
1000
0100
1000
0100
1000
0000
0000
0000
0000
0000
0000
0000
0100
0000
,  // measure 31
0010
0000
0001
0100
0001
0100
0001
0000
0000
0000
0000
0000
0000
0000
0000
0000
,  // measure 32
0002
0000
0010
0000
0013
0000
0001
2000
,  // measure 33
0000
0000
3000
0010
0100
0001
0000
1000
,  // measure 34
0100
1000
0000
0200
0000
0000
0310
0001
,  // measure 35
0100
0001
0000
0200
0000
0000
0310
0000
,  // measure 36
1000
0010
0000
0000
1000
0010
0000
0000
1000
0000
0100
0000
1000
0000
0000
0000
,  // measure 37
0001
0010
0000
0000
0001
0010
0000
0000
0001
0000
0100
0000
0001
0000
0000
0000
,  // measure 38
1000
0010
1000
0000
1000
0100
1000
0000
,  // measure 39
0001
0000
0010
0000
0001
0000
0000
0000
0100
0000
0001
1000
0001
1000
0001
0000
,  // measure 40
0000
0000
0000
0000
0022
0000
0000
0000
0033
0000
0001
1000
0000
1000
0000
0010
,  // measure 41
0100
0100
0000
0001
0010
0100
1000
0010
,  // measure 42
0100
0010
1000
0002
0000
0000
0003
0000
,  // measure 43
0010
1000
0010
0001
0010
1000
0010
0100
,  // measure 44
1000
0000
0000
0000
2200
0000
0000
0000
3300
0000
1000
0001
0000
0001
0000
0100
,  // measure 45
0010
0010
0000
1000
0100
0010
0001
0100
,  // measure 46
0010
0000
1000
0100
1000
0100
1000
0000
0000
0000
0000
0000
0000
0000
0100
0000
,  // measure 47
0010
0000
0001
0100
0001
0100
0001
0000
0000
0000
0000
0000
0000
0000
0000
0000
;

//---------------dance-single - ----------------
#NOTEDATA:;
#CHARTNAME:;
#STEPSTYPE:dance-single;
#DESCRIPTION:;
#CHARTSTYLE:;
#DIFFICULTY:Medium;
#METER:7;
#RADARVALUES:0.242711,0.269005,0.094388,0.188775,0.000000,180.000000,170.000000,10.000000,20.000000,0.000000,0.000000,0.000000,0.000000,0.000000,0.242711,0.269005,0.094388,0.188775,0.000000,180.000000,170.000000,10.000000,20.000000,0.000000,0.000000,0.000000,0.000000,0.000000;
#CREDIT:TonyAkita;
#NOTES:
0000
0000
0000
0000
,
0000
0000
0000
0000
,
0000
0000
0000
0000
,
0000
0000
0000
0000
,
1010
0000
0000
0202
0000
0000
0303
0000
,
1000
0000
0001
1000
0001
0000
0010
0000
,
0011
0000
0000
2200
0000
0000
3300
0000
,
1010
0000
0000
0101
0000
0000
0001
1000
,
0001
2000
3010
1000
,
0100
1000
0100
1000
0000
0000
0000
0000
,
0001
0010
0001
0000
,
1000
0000
0010
0100
0001
0000
0100
0000
,
0000
0002
0013
0001
,
0100
0001
0100
0001
0000
0000
0000
0000
,
1000
0010
1000
0000
,
0001
0000
0010
0100
1000
0000
0001
0000
,
0000
0200
0310
0100
,
0001
0100
0001
0100
0000
0000
0000
0000
,
0001
1000
0100
0000
,
0010
0000
0001
1000
0001
0000
1000
0000
,
0000
0200
0310
0100
,
1000
0100
1000
0100
0000
0000
0000
0000
,
1000
0001
0100
0001
,
1000
0000
0001
0000
0010
0100
1000
0000
,
2020
0000
0000
0000
3030
0000
1000
0100
,
1000
0000
0001
0000
1000
0010
0100
0010
,
1000
0010
1000
0000
,
0001
0010
1000
0010
,
0022
0000
0000
0000
0033
0000
0001
0100
,
0001
0000
1000
0000
0001
0100
0010
0100
,
0001
0010
0001
0000
,
1000
0010
1000
0000
,
0002
0000
0010
0000
0013
0000
0001
2000
,
0000
0000
3000
0000
0100
0010
0000
0100
,
0010
0001
0001
0000
,
1000
1000
0010
0000
,
0200
0000
0301
0000
0100
0010
1000
0000
,
0200
0000
1300
0000
0100
0010
0001
0000
,
1000
0001
1000
0010
,
1000
0000
0001
0000
1000
0100
0010
0000
,
0022
0000
0000
0000
0033
0000
0001
0100
,
0001
0000
1000
0000
0001
0100
0010
0100
,
0001
0010
0001
0000
,
1000
0010
0001
0010
,
2020
0000
0000
0000
3030
0000
1000
0100
,
1000
0000
0001
0000
1000
0010
0100
0010
,
1000
0010
1000
0000
,
0001
0010
0001
0000
;

//---------------dance-single - ----------------
#NOTEDATA:;
#CHARTNAME:;
#STEPSTYPE:dance-single;
#DESCRIPTION:;
#CHARTSTYLE:;
#DIFFICULTY:Easy;
#METER:3;
#RADARVALUES:0.169898,0.179337,0.056633,0.056633,0.000000,126.000000,120.000000,6.000000,6.000000,0.000000,0.000000,0.000000,0.000000,0.000000,0.169898,0.179337,0.056633,0.056633,0.000000,126.000000,120.000000,6.000000,6.000000,0.000000,0.000000,0.000000,0.000000,0.000000;
#CREDIT:TonyAkita;
#NOTES:
0000
0000
0000
0000
,
0000
0000
0000
0000
,
0000
0000
0000
0000
,
0000
0000
0000
0000
,
2000
0000
0000
3000
0000
0000
0000
0000
,
0010
0100
0010
1000
,
0002
0000
0000
0003
0000
0000
0000
0000
,
0020
0000
0000
0030
0000
0000
0000
0000
,
0000
0001
1000
0000
,
1000
0010
1000
0000
,
0001
0100
0001
0000
,
0010
0001
0100
0001
,
0000
1000
0001
0000
,
0001
0010
0001
0000
,
1000
0100
1000
0000
,
0010
1000
0100
1000
,
0000
0010
0100
0000
,
1000
0100
0001
0000
,
0001
0100
0001
0000
,
0010
0001
0100
0001
,
0000
0010
0100
0000
,
0001
0100
1000
0000
,
1000
0100
1000
0000
,
0010
0000
1000
0001
,
0000
0010
0010
0001
,
1000
0000
0010
0010
,
0010
0000
0101
0000
,
0001
0100
1000
0100
,
0000
0010
0010
1000
,
0001
0000
0010
0010
,
0010
0000
1100
0000
,
0010
0000
0101
0000
,
0001
0010
0001
0100
,
0020
0000
1030
0000
,
1000
0010
1000
0000
,
0100
0010
0001
0000
,
1000
1000
2000
3000
,
0001
0001
0002
0003
,
0100
0000
0010
0000
,
0100
0000
0001
0000
,
0000
0010
0010
0001
,
1000
0000
0010
0010
,
0010
0000
0101
0000
,
0001
0100
1000
0100
,
0000
0010
0010
1000
,
0001
0000
0010
0010
,
0010
0000
1100
0000
,
0010
0000
0101
0000
;

//---------------dance-single - ----------------
#NOTEDATA:;
#CHARTNAME:;
#STEPSTYPE:dance-single;
#DESCRIPTION:;
#CHARTSTYLE:;
#DIFFICULTY:Beginner;
#METER:2;
#RADARVALUES:0.133491,0.156920,0.037755,0.037755,0.000000,99.000000,95.000000,4.000000,4.000000,0.000000,0.000000,0.000000,0.000000,0.000000,0.133491,0.156920,0.037755,0.037755,0.000000,99.000000,95.000000,4.000000,4.000000,0.000000,0.000000,0.000000,0.000000,0.000000;
#CREDIT:TonyAkita;
#NOTES:
0000
0000
0000
0000
,
0000
0000
0000
0000
,
0000
0000
0000
0000
,
0000
0000
0000
0000
,
2000
0000
0000
3000
0000
0000
0000
0000
,
0010
0010
0010
0000
,
0002
0000
0000
0003
0000
0000
0000
0000
,
0020
0000
0000
0030
0000
0000
0000
0000
,
0000
0001
0001
0000
,
0010
0000
0001
0000
,
0100
0000
0001
0000
,
0010
0010
0010
0000
,
0000
1000
1000
0000
,
0010
0000
1000
0000
,
0100
0000
1000
0000
,
0010
0010
0010
0000
,
0000
0100
0100
0000
,
0001
0000
1000
0000
,
1000
0000
0001
0000
,
0010
0010
0010
0000
,
0000
0100
0100
0000
,
1000
0000
0001
0000
,
0100
0000
0010
0000
,
0100
0000
0001
0000
,
0000
0010
0010
0000
,
1001
0000
0001
0001
,
0001
0000
1000
0000
,
0100
0000
1000
0000
,
0000
0010
0010
0000
,
1001
0000
1000
1000
,
1000
0000
0001
0000
,
0010
0000
0001
0000
,
0100
0100
0100
0000
,
0020
0000
0030
0000
,
1000
0000
0010
0000
,
0100
0000
0001
0000
,
1000
1000
1000
0000
,
0001
0001
0001
0000
,
0010
0000
0100
0000
,
1000
0000
0001
0000
,
0000
0010
0010
0000
,
1001
0000
0001
0001
,
0001
0000
0010
0000
,
0001
0000
0100
0000
,
0000
0010
0010
0000
,
1001
0000
1000
1000
,
1000
0000
0100
0000
,
1000
0000
0010
0000
;
