#TITLE:Dog of Wisdom;
#SUBTITLE:RED VERSION;
#ARTIST:THE LIVING TOMBSTONE feat. Joe Gran;
#TITLETRANSLIT:;
#SUBTITLETRANSLIT:;
#ARTISTTRANSLIT:;
#GENRE:;
#CREDIT:KAYSTAR;
#MUSIC:Dog of Wisdom (RED Version).ogg;
#BANNER:dog of wisdom (red version) bn.png;
#BACKGROUND:dog of wisdom (red version) bg.png;
#CDTITLE:;
#SAMPLESTART:105.604;
#SAMPLELENGTH:10.000;
#SELECTABLE:YES;
#OFFSET:-0.004;
#BPMS:0.000=150.000
,8.000=300.000
,64.000=150.000
,91.000=300.000
,279.000=150.000
,304.000=75.000
,305.000=300.000
,363.000=600.000
,369.000=300.000
,491.000=75.000
,506.000=37.500
,507.000=150.000
;
#STOPS:64.000=1.200
,67.000=0.400
,70.000=0.400
,81.000=0.400
,84.000=0.400
,279.000=1.200
,282.000=0.400
,285.000=0.400
,296.000=0.400
,299.000=0.400
,305.000=0.400
,363.000=0.067
,363.667=0.067
,364.333=0.067
,365.000=0.067
,365.667=0.067
,366.333=0.067
,367.000=0.067
,367.667=0.067
,368.333=0.067
,491.000=0.800
;
#DISPLAYBPM:37.500:300.000;
#BGCHANGES:0.000=dog of wisdom (red version).avi=1.000=1=0=0=StretchNoLoop==CrossFade==;
#FGCHANGES:;

//--------------- dance-single - KAYSTAR ----------------
#NOTES:
     dance-single:
     KAYSTAR:
     Beginner:
     3:
     0,0,0,0,0:
0000
0000
0000
0000
,
0000
0000
0000
0000
,
0000
0000
0000
0000
,
0000
0000
0000
0000
,
0000
0000
0000
0000
,
0000
0000
0000
0000
,
0000
0000
0000
0000
,
0000
0000
0000
0000
,
0000
0000
0000
0000
,
0000
0000
0000
0000
,
1000
0000
0000
0000
,
1000
0000
0000
0000
,
0010
0000
0000
0000
,
0010
0000
0000
0000
,
0100
0000
0100
0000
,
0100
0000
0100
0000
,
0100
0000
0000
0001
,
0000
0000
0001
0000
,
0000
0001
0000
0000
,
0000
0000
0000
0000
,
0000
1000
0000
0000
,
1000
0000
0000
1000
,
0000
0000
0000
0000
,
0000
0000
0000
0010
,
0000
0010
0000
0000
,
0000
0010
0000
0000
,
0000
0100
0000
0000
,
0000
0100
0000
0000
,
0000
0001
0000
0000
,
0000
0001
0000
0000
,
0000
1000
0000
0000
,
0000
1000
0000
0000
,
0000
0100
0000
0000
,
0000
0100
0000
0000
,
0000
0010
0000
0000
,
0000
0010
0000
0000
,
0000
0001
0000
0000
,
0000
0000
0000
0100
,
0000
0100
0000
0100
,
0000
0100
0000
0100
,
0000
0000
0000
0010
,
0000
0000
0000
1000
,
0000
0000
0000
0001
,
0000
0000
0000
0010
,
0000
0000
0000
0100
,
0000
0000
0000
1000
,
0000
0000
0000
0001
,
0000
0000
0000
0100
,
0000
0100
0000
0100
,
0000
0000
0000
0010
,
0000
0010
0000
0010
,
0000
0000
0000
1000
,
0000
0000
0000
0001
,
0000
0000
0000
1001
,
0000
0000
0000
0000
,
0000
0000
0000
1000
,
0000
0000
0000
1000
,
0000
0000
0000
0100
,
0000
0000
0000
0100
,
0000
0000
0000
0001
,
0000
0000
0000
0001
,
0000
0000
0000
0100
,
0000
0000
0000
0100
,
0000
0000
0000
1000
,
0000
0000
0000
1000
,
0000
0000
0000
0010
,
0000
0000
0000
0010
,
0000
0000
0000
0100
,
0000
0100
0000
0100
,
0000
0100
0000
0100
,
0000
0000
0001
0000
,
0000
0001
0000
0000
,
0001
0000
0000
0000
,
0000
0000
0000
0000
,
1000
0000
0000
1000
,
0000
0000
1000
0000
,
0000
0000
0000
0010
,
0000
0010
0000
0010
,
0000
0000
0000
0100
,
0000
0100
0000
0100
,
0000
0000
0000
0010
,
0000
0010
0000
0010
,
0000
0000
0000
0100
,
0000
0100
0000
0100
,
0000
0000
0000
0001
,
0000
0001
0000
0001
,
0000
0000
0000
1000
,
0000
1000
0000
1000
,
0000
0000
0000
0001
,
0000
0001
0000
0001
,
0000
0000
0000
1001
,
0000
0000
0000
0000
,
0000
0000
0000
2000
,
0000
0000
0000
0000
,
0000
3000
0000
0020
,
0000
0000
0000
0000
,
0000
0030
0000
0200
,
0000
0000
0000
0000
,
0300
0000
0000
0002
,
0000
0000
0000
0000
,
0000
0003
0000
2000
,
0000
0000
0000
0000
,
0000
3000
0000
0200
,
0000
0000
0000
0000
,
0000
0300
0000
0020
,
0000
0000
0000
0000
,
0030
0000
0000
0002
,
0000
0000
0000
0000
,
0000
0003
0000
1000
,
0000
0000
0000
1000
,
0000
0000
0000
0010
,
0000
0000
0000
0010
,
0000
0000
0000
1000
,
0000
0000
0000
1000
,
0000
0000
0000
0100
,
0000
0000
0000
0100
,
0000
0000
0000
0010
,
0000
0010
0000
0010
,
0000
0000
0000
0001
,
0000
0001
0000
0001
,
0000
0000
0000
0100
,
0000
0100
0000
0100
,
0000
0100
0000
0100
,
0000
0000
0010
0000
,
1000
0000
0001
0000
,
0100
0000
0100
0000
,
0100
0000
0002
0003
;

//--------------- dance-single - KAYSTAR ----------------
#NOTES:
     dance-single:
     KAYSTAR:
     Easy:
     7:
     0,0,0,0,0:
0000
0000
0000
0000
,
0000
0000
0000
0000
,
0000
0000
0000
0000
,
0000
0000
0000
0000
,
0000
0000
0000
0000
,
0000
0000
0000
0000
,
0000
0000
0000
0000
,
0000
0000
0000
0000
,
0000
0000
0000
0000
,
0000
0000
0000
0000
,
1000
0000
0100
0000
,
1000
0000
0001
0000
,
0100
0000
0001
0000
,
1000
0000
0100
0000
,
0010
0000
0001
0000
,
1000
0001
1000
0001
,
1000
0002
0000
0103
,
0020
1000
1030
0200
,
0010
0310
0001
1000
,
0010
0100
0000
0002
,
0000
0013
0200
1000
,
1300
0020
0100
0130
,
0001
1000
0100
1000
,
0000
0000
0000
0001
,
0000
0100
0000
0010
,
0000
1000
0000
0100
,
0000
0010
0000
0001
,
0000
1000
0000
0001
,
0000
0100
0000
0010
,
0000
1000
0000
0100
,
0000
0010
0000
0001
,
0000
1000
0000
0001
,
0000
0100
0000
0010
,
0000
1000
0000
0100
,
0000
0010
0000
0001
,
0000
1000
0000
0001
,
0000
0100
0000
0010
,
0000
0000
0000
1000
,
0000
0001
0000
1000
,
0000
0001
0000
1000
,
0010
0000
0000
0100
,
0000
0100
0000
0001
,
0000
1000
0000
0100
,
0000
0010
0000
0001
,
0000
0100
0000
0001
,
0000
0100
0000
0001
,
0000
0100
0000
0010
,
0000
1000
0000
0100
,
0000
0000
1000
0000
,
0000
0001
0000
0000
,
0100
0000
0000
0010
,
0000
0010
0000
1000
,
0000
0000
0001
0000
,
0000
0010
0000
0100
,
0000
0000
0100
0000
,
0000
0100
0000
1000
,
0000
0001
0000
0100
,
0000
0001
0000
1000
,
0000
0100
0000
0010
,
0000
0001
0000
1000
,
0000
0100
0000
1000
,
0000
0001
0000
0100
,
0000
0010
0000
1000
,
0000
0001
0000
1000
,
0000
0100
0000
1000
,
0000
0001
0000
0100
,
0000
0001
0000
1000
,
0000
0000
0000
1000
,
0000
0001
0000
0100
,
0010
0100
0010
0100
,
0002
0000
1003
0200
,
0010
0310
0002
0100
,
0103
0010
1000
0100
,
0010
0000
2000
0000
,
3001
0200
0010
0310
,
2000
0100
3100
0010
,
0002
1003
0000
1000
,
0000
0001
0000
1000
,
0000
1001
0000
0001
,
0000
1000
0000
0001
,
0000
1001
0000
1000
,
0000
0001
0000
1000
,
0000
1001
0000
0001
,
0000
1000
0000
0010
,
0000
0100
0000
0001
,
0000
1000
0000
0001
,
0000
1001
0000
1000
,
0000
0001
0000
1000
,
0000
1001
0000
0001
,
0000
1000
0000
0001
,
0000
1001
0000
0020
,
0000
0000
0000
0000
,
0000
0030
0000
0100
,
0000
0000
0100
0000
,
0100
0000
0000
0010
,
0000
0000
0010
0000
,
0010
0000
0000
1000
,
0000
0000
1000
0000
,
1000
0000
0000
0001
,
0000
0000
0001
1000
,
0000
1001
0000
0001
,
0000
0000
0001
0000
,
0001
0000
0000
0010
,
0000
0000
0010
0000
,
0010
0000
0000
0100
,
0000
0000
0100
0000
,
0100
0000
0000
2000
,
0000
0000
0000
0000
,
0000
3000
0000
0001
,
0000
0100
0000
0010
,
0000
1000
0000
0100
,
0000
0010
0000
0001
,
0000
1000
0000
0001
,
0000
0100
0000
0010
,
0000
1000
0000
0100
,
0000
0010
0000
0001
,
0000
1000
0000
0001
,
0000
0100
0000
1000
,
0000
0010
0000
0001
,
0000
0100
0000
1000
,
0000
0010
0000
0001
,
0000
1000
0000
0100
,
0010
0100
0010
0100
,
1000
0000
0000
0001
0001
0000
0100
0000
,
0010
1000
0001
0010
,
0100
1000
0010
0100
,
0001
0010
0200
1300
;

//--------------- dance-single - KAYSTAR ----------------
#NOTES:
     dance-single:
     KAYSTAR:
     Medium:
     11:
     0,0,0,0,0:
0000
0000
0000
0000
,
0000
0000
0000
0000
,
0000
0000
0000
0000
,
0000
0000
0000
0000
,
0000
0000
0000
0000
,
0000
0000
0000
0000
,
0000
0000
0000
0000
,
0000
0000
0000
0000
,
0000
0000
0000
0000
,
0000
0000
0000
0000
,
1000
0001
0000
1000
0001
0000
0000
0000
,
0010
0001
0100
0000
,
0001
1000
0000
0001
1000
0000
0000
0000
,
0010
1000
0100
0000
,
1000
0001
1000
0001
,
1000
0010
0100
0001
,
0010
0000
0001
0000
0000
0001
1000
0000
,
0010
0100
0001
0000
1000
0000
0010
0100
,
0001
0000
1000
0000
0100
0000
0010
0001
,
1000
0010
0100
0000
0000
0000
0010
0000
,
0000
0010
1000
0000
0100
0010
0001
0000
,
1000
0000
0100
0010
0001
0000
1000
0000
,
0010
0000
0100
0001
0010
0100
1000
0000
,
0000
0000
0000
0001
,
0000
0001
1000
0000
0100
0000
0000
0000
,
0100
1000
0000
0001
,
0000
0001
1000
0000
0100
0000
0000
0000
,
0100
0010
0001
1000
,
0000
1000
0001
0000
0100
0000
0000
0000
,
0100
0001
0000
1000
,
0000
1000
0001
0000
0100
0000
0000
0000
,
0100
0010
1000
0100
,
0000
0100
0010
0000
0001
0000
0000
0000
,
0001
1000
0000
0010
,
0000
0010
0100
0000
0001
0000
0000
0000
,
0001
1000
0100
0010
,
0000
0010
0001
0000
1000
0000
0000
0000
,
1000
0010
0000
0101
,
0000
1100
0000
0101
,
0000
1001
0000
1000
,
0010
0100
0001
0010
,
0100
0001
0100
1000
,
0001
0100
0001
1000
,
0010
1000
0000
0001
,
0010
0100
0001
0010
,
0100
0001
0010
0100
,
0010
0001
0100
0010
,
1000
0001
0000
0020
,
0000
0032
0000
0000
2003
0000
0000
3100
,
0000
0000
0002
0000
0000
0023
0000
0000
,
0032
0000
0000
0103
0000
0000
1000
0000
,
0000
0100
0000
0000
0010
0000
0002
0000
,
0000
0203
0000
0320
,
0000
1030
0100
0010
,
0000
0000
0001
0000
,
0000
1001
0000
1000
,
0010
1000
0100
0010
,
0001
0100
0001
0010
,
0100
1000
0010
0100
,
0001
0010
0000
0100
,
1000
0001
0100
0010
,
1000
0100
1000
0010
,
0100
0001
0010
0100
,
1000
0010
0000
0100
,
1000
0100
0001
0010
,
1000
0010
0001
0100
,
1000
0100
0010
1000
,
0001
0010
0000
0100
,
0010
0100
0010
0001
,
0100
0010
1000
0100
,
1000
0000
0000
1000
0001
0000
0010
0100
,
1000
0010
0100
0000
0010
0100
0001
0010
,
0100
0000
1000
0001
0100
0001
1000
0100
,
0010
0000
0000
0000
0001
0000
0000
0001
,
1000
0000
0010
0100
0001
0010
0100
0000
,
0010
0100
1000
0010
0100
0001
1000
0000
,
0002
0013
0000
0001
,
0000
0001
0000
0100
0000
0000
0000
0100
0000
0010
0000
0000
,
0000
0010
0000
1000
0000
0000
0000
0000
0000
0001
0000
0000
,
0000
0001
0000
0010
0000
0000
0000
0010
0000
0100
0000
0000
,
0000
0100
0000
1000
0000
0000
0000
0000
0000
0001
0000
0000
,
0000
0001
0000
0100
0000
0000
0000
0100
0000
0010
0000
0000
,
0000
0010
0000
1000
0000
0000
0000
0000
0000
0001
0000
0000
,
0000
0001
0000
0010
0000
0000
0000
0010
0000
0100
0000
1000
,
0000
0100
0000
1000
0000
0000
0000
0000
0000
1000
0000
0000
,
0000
1000
0000
0010
0000
0000
0000
0010
0000
0100
0000
0000
,
0000
0100
0000
0001
0000
0000
0000
0000
0000
1000
0000
0000
,
0000
1000
0000
0100
0000
0000
0000
0100
0000
0010
0000
0000
,
0000
0010
0000
0001
0000
0000
0000
0000
0000
1000
0000
0000
,
0000
1000
0000
0010
0000
0000
0000
0010
0000
0100
0000
0000
,
0000
0100
0000
0001
0000
0000
0000
0000
0000
2000
0000
0000
,
0000
0000
3000
0000
,
0000
0000
0000
0001
,
0010
0100
1000
0100
,
0001
0100
0000
1000
,
0010
0100
0001
0100
,
1000
0100
0000
0001
,
0010
0100
1000
0100
,
0001
0100
0000
1000
,
0010
0100
1000
0100
,
0001
0010
0000
0100
,
0001
0100
1000
0100
,
0001
0100
0000
0010
,
1000
0010
0001
0010
,
1000
0010
0000
0001
,
0100
0001
0010
0001
,
0100
0001
0000
2000
,
0000
0000
0000
0000
,
0000
0000
3000
0000
0000
0000
0010
0100
,
0000
0010
0100
0000
0000
0000
0001
0000
,
1000
0100
0000
0010
,
0100
0110
0000
1000
,
0001
0000
1000
0000
0000
0000
0100
0010
,
0000
0100
0010
0000
0000
0000
0001
0000
,
1000
0010
0000
0100
,
0010
0110
0000
0010
,
1000
0001
0000
0010
,
0000
0010
0100
0000
0000
0100
1000
0000
,
0000
1000
0010
0000
0000
0010
0100
0000
,
0000
0100
0001
0000
0000
0001
0010
0000
,
0000
0010
0100
0000
0000
0000
1000
0000
,
0001
1000
0001
1000
,
0010
0100
0001
0010
,
0100
0000
0000
1000
1000
0000
0001
0000
,
0100
0000
0010
0000
1000
0000
0001
0001
,
0010
0100
1000
0010
,
0100
0001
2000
3100
;

//--------------- dance-single - KAYSTAR ----------------
#NOTES:
     dance-single:
     KAYSTAR:
     Hard:
     14:
     0,0,0,0,0:
0000
0000
0000
0000
,
0000
0000
0000
0000
,
0000
0000
0000
0000
,
0000
0000
0000
0000
,
0000
0000
0000
0000
,
0000
0000
0000
0000
,
0000
0000
0000
0000
,
0000
0000
0000
0000
,
0000
0000
0000
0000
,
0000
0000
0000
0000
,
1000
0001
0000
0001
0010
0000
0001
0000
,
1000
0100
1000
0000
0001
0000
0100
0000
,
0010
1000
0001
0010
,
0100
1000
0001
0000
0000
0000
0000
0000
,
1000
0010
0100
0001
,
1000
0000
0001
1000
0001
1000
0001
1000
,
0001
0000
0000
0000
0000
0000
1000
0000
0000
0000
0000
0000
0000
0000
0000
1000
0000
0000
0020
0030
0000
0000
0000
0000
,
1000
0000
0000
0100
0000
0000
1000
0000
0000
0000
0000
0000
0M20
0030
0000
0000
0000
0000
0001
0000
0000
0100
0000
0000
,
0001
0000
0010
0100
1000
0100
0010
0001
,
0100
0010
1000
0000
0000
0000
0001
0000
,
0000
0000
0000
0001
0000
0000
0020
0030
0000
0000
0000
0000
0001
0000
0000
0100
0000
0000
0001
0000
0000
0000
0000
0000
,
0M20
0030
0000
0000
0000
0000
1000
0000
0000
0100
0000
0000
1000
0000
0000
0000
0000
0000
0010
0000
0000
0100
0000
0000
,
0001
0100
0010
1000
0100
0010
0001
0000
,
0000
0000
0000
1000
,
0000
0010
0100
0000
0001
0000
0000
0000
,
1000
0001
0010
0001
,
0000
0010
0100
0000
1000
0000
0000
0000
,
0010
0000
1000
0100
1000
0000
0001
0000
,
0000
0100
0010
0000
1000
0000
0000
0000
,
0001
1000
0100
1000
,
0000
0010
0100
0000
0001
0000
0000
0000
,
1000
0000
0001
0010
0001
0000
1000
0000
,
0000
0100
0010
0000
1000
0000
0000
0000
,
0010
0001
1000
0001
,
0000
0100
0010
0000
0001
0000
0000
0000
,
0010
0000
1000
0010
1000
0000
0001
0000
,
0000
0010
0100
0000
1000
0000
0000
0000
,
0010
0000
0000
0100
0000
0000
0001
0000
0000
1000
0000
0100
,
0000
1000
0000
0001
0000
0100
0000
0001
0000
1000
0000
0100
,
0000
0010
0000
0001
0000
0000
0000
0000
0000
0100
0000
0000
,
0001
0100
0001
0000
1000
0100
0010
0000
,
0100
0010
0001
0000
1000
0010
2000
0000
,
3020
0130
0002
2003
,
3100
0020
0000
1030
,
0020
0032
1003
0020
,
0032
1003
0002
0023
,
1030
0100
0002
0203
,
2300
3020
0230
0302
,
0000
0023
0000
0000
0230
0000
0000
2300
,
0000
0000
3020
0000
0000
0230
0000
0000
,
0302
0000
0000
0203
0000
0000
1300
0000
,
0000
0100
0000
0000
0001
0000
2000
0000
,
0000
3200
0000
0302
,
0000
0103
0010
0001
,
0000
0000
0101
0000
,
0000
1100
0000
1001
,
0001
0000
1000
0100
1000
0000
0100
1000
,
0001
0100
0010
0100
,
0100
0000
0001
1000
0001
0000
1000
0100
,
1000
0000
0200
00M0
0000
0000
0301
1000
,
0000
1000
0001
0100
0001
0000
0100
0001
,
1000
0100
0010
0100
,
0100
0000
1000
0001
0100
0000
0001
1000
,
0001
1000
0200
00M0
0000
0000
0301
1000
,
0000
1000
0010
0100
0010
0000
0100
0001
,
1000
0100
0001
0100
,
0100
0000
1000
0001
0100
0000
0010
0100
,
0010
0100
0010
0000
0000
0000
0100
0000
,
0001
1000
0100
1000
,
0001
1000
0001
1000
0001
1000
0001
0000
,
0100
0000
0000
0000
0000
0000
0000
0000
0000
0001
0000
0000
0020
0030
0000
0000
0000
0000
0100
0000
0000
0010
0000
0000
,
0001
0000
0000
0000
0000
0000
0M20
0030
0000
0000
0000
0000
1000
0000
0000
0010
0000
0000
0100
0000
0000
0000
0000
0000
,
0010
1000
0010
0100
0001
0010
0100
1000
,
0001
0000
0000
0000
1000
0000
0000
0001
,
0200
0300
0000
0000
0000
0000
0010
0000
0000
0100
0000
0000
0001
0000
0000
0000
0000
0000
02M0
0300
0000
0000
0000
0000
,
1000
0100
0010
0000
0001
0100
0010
1000
,
0002
0000
0000
1003
0000
0000
0000
0000
0000
1000
0000
0100
,
0000
1000
0000
0001
0000
0100
0000
0001
0000
1000
0000
0100
,
0000
0010
0000
0001
0000
0000
0000
0000
0000
0100
0000
0001
,
0000
0100
0000
0010
0000
1000
0000
0010
0000
0100
0000
0001
,
0000
1000
0000
0100
0000
0000
0000
0000
0000
1000
0000
0010
,
0000
1000
0000
0001
0000
0010
0000
0001
0000
1000
0000
0010
,
0000
0100
0000
0001
0000
0000
0000
0000
0000
0010
0000
0001
,
0000
0010
0000
0100
0000
1000
0000
0100
0000
0010
0000
0001
,
0000
0100
0000
0010
0000
0000
0000
0000
0000
1000
0000
0100
,
0000
0010
0000
0001
0000
1000
0000
0001
0000
0100
0000
0010
,
0000
1000
0000
0010
0000
0000
0000
0000
0000
1000
0000
0010
,
0000
0100
0000
0001
0000
1000
0000
0001
0000
0010
0000
0100
,
0000
1000
0000
0100
0000
0000
0000
0000
0000
1000
0000
0010
,
0000
0100
0000
0001
0000
1000
0000
0100
0000
1000
0000
0001
,
0000
0100
0000
0010
0000
0000
0000
0000
0000
2000
0000
0000
,
0000
0000
0000
0000
,
0000
0000
0000
3001
,
0010
0100
1100
0000
,
0101
0000
0110
1000
,
0010
0100
0101
0000
,
1100
0000
0110
0010
,
0001
1000
1010
0000
,
0011
0000
0000
0000
0000
0000
0110
0000
0000
1000
0000
0100
,
0000
1000
0000
0001
0000
0100
0000
0001
0000
1000
0000
0100
,
0000
0010
0000
0001
0000
0000
0100
0000
0000
0010
0000
0000
,
1000
0100
0110
0000
,
1001
0000
0101
0100
,
0001
0010
0110
0000
,
1001
0000
1100
0100
,
1000
0010
0110
0000
,
1001
0000
0002
0200
,
0000
0000
0000
0000
,
0000
0000
0303
0000
0000
0000
1000
0001
,
0000
0001
0010
0000
0100
0000
1000
0001
,
0100
0100
0010
1000
,
0100
0000
0001
0000
0100
0000
1000
0001
,
1000
0000
0200
00M0
0000
0000
0301
1000
,
0000
1000
0010
0000
0100
0000
0001
1000
,
0100
0100
0010
0001
,
0100
0000
1000
0000
0100
0000
0001
1000
,
0001
0000
0020
0M00
0000
0000
1030
0001
,
0100
0000
0001
1000
0100
0000
1000
0001
,
0100
0000
0001
1000
0100
0000
0010
0001
,
1000
0000
0010
1000
0001
0000
0010
0001
,
1000
0100
0000
0010
,
0001
1000
0010
1000
,
0001
1000
0001
1000
0001
1000
0001
0000
,
0010
0000
0000
0100
0100
0000
0010
0001
,
1000
0010
0100
0001
1000
0000
0010
0010
,
0100
0001
0010
0001
1000
0010
1000
0100
,
0010
1000
0010
0001
2000
0000
3001
0000
;

//--------------- dance-single - KAYSTAR ----------------
#NOTES:
     dance-single:
     KAYSTAR:
     Challenge:
     17:
     0,0,0,0,0:
0000
0000
0000
0000
,
0000
0000
0000
0000
,
0000
0000
0000
0000
,
0000
0000
0000
0000
,
0000
0000
0000
0000
,
0000
0000
0000
0000
,
0000
0000
0000
0000
,
0000
0000
0000
0000
,
0000
0000
0000
0000
,
0000
0000
0000
0000
,
1000
0100
0000
0100
0010
0000
0100
0000
,
1000
0001
0100
0000
0010
0000
1010
0000
,
1000
0001
0010
0000
0011
0000
0001
0000
,
1000
0100
1000
0000
0001
0000
0000
0000
,
0100
0010
0100
0010
,
1000
0000
0001
0100
0010
1000
0100
0010
,
0001
0000
0000
0000
0000
0000
1000
0000
0000
1000
0000
0000
0001
0000
0000
0001
0000
0000
0020
0030
0000
0000
0000
0000
,
0100
0000
0000
0100
0000
0000
1000
0000
0000
1000
0000
0000
0M20
0030
0000
0000
0000
0000
0100
0000
0000
0100
0000
0000
,
1000
1000
0010
0100
0001
0010
0100
0001
,
0100
1000
0001
0000
0000
0000
1000
1000
,
0001
0000
0000
0001
0000
0000
0200
0300
0000
0000
0000
0000
0010
0000
0000
0010
0000
0000
1000
0000
0000
1000
0000
0000
,
02M0
0300
0000
0000
0000
0000
0010
0000
0000
0010
0000
0000
1000
0000
0000
1000
0000
0000
0100
0000
0000
0010
0000
0000
,
0001
0100
0010
0001
0010
1000
0001
0000
,
0000
0000
0000
0000
0000
0000
1000
0010
,
0100
0000
0001
0100
0001
0010
0000
0010
,
0100
0000
1000
0100
1000
0010
0000
0010
,
0100
0000
0001
0010
0001
0100
0010
1000
,
0010
0000
0001
0010
1000
0000
0001
0010
,
0100
0000
1000
0100
1000
0010
0000
0010
,
0100
0000
0001
0100
0001
0010
0000
0010
,
0100
0000
1000
0001
0100
0010
0100
0001
,
0010
0100
1000
0000
1100
0000
0001
0100
,
0010
0000
0100
0001
0010
0100
0000
0100
,
0010
0000
0100
1000
0010
0100
0000
0100
,
0010
0000
0100
0001
0010
0100
1000
0001
,
0010
0000
1000
0010
0001
0000
1000
0100
,
0010
0000
0001
1000
0010
0100
0000
0100
,
0010
0000
0000
1001
0000
0000
1000
0000
0000
0001
0000
1000
,
0000
0100
0000
0010
0000
0100
0000
0001
0000
0100
0000
0010
,
0000
0100
0000
1000
0000
0000
0000
0000
0000
0010
0000
0000
,
1000
0200
0000
0000
0301
0100
0010
0001
,
1000
0001
0100
0010
1000
0001
0020
0000
,
0031
0100
0001
0000
1000
0000
0020
0000
,
1030
0100
1000
0001
0100
0000
2000
0000
,
3100
0010
0100
0000
0002
0000
1003
0100
,
0010
0000
2000
0000
3010
0100
1000
0000
,
0001
0100
0010
0000
2000
0000
3100
0000
,
0001
0100
0010
0000
0001
0000
0200
0000
,
0000
0310
1000
0000
0200
0000
0000
0301
,
1000
0000
0020
0000
0000
0031
0100
0000
,
0020
0000
0000
0031
1000
0000
0200
0000
,
0000
0320
0000
0000
1030
0000
0002
0000
,
0000
0023
0000
0230
,
0000
0000
0000
1300
0000
0000
0010
0000
0000
0100
0000
0001
,
0000
0100
0000
0010
0000
1000
0000
0001
0000
0010
0000
1000
,
0000
0000
0010
0000
0000
0000
0001
0000
0000
0000
0000
0000
0000
0000
0000
0000
0000
0000
1000
0000
0000
0100
0000
0000
,
0010
0000
0001
1000
0010
0100
0000
0100
,
0010
0000
0100
1000
0100
0010
0000
0010
,
1000
0000
0001
0010
0100
0001
0100
0010
,
0001
1000
0200
00M0
0000
0000
0301
0100
,
0010
0000
1000
0001
0100
0010
0000
0010
,
0100
0000
0010
0001
0010
0100
0000
0100
,
0001
0000
1000
0100
0010
1000
0010
0100
,
1000
0001
0200
00M0
0000
0000
1300
0010
,
0100
0000
1000
0100
0010
1000
0000
1000
,
0100
0000
0001
0100
0010
0001
0000
0001
,
0100
0000
0010
1000
0001
0010
0001
1000
,
0010
0100
0001
0000
0000
0000
0010
0000
,
0100
0010
0100
1000
,
0001
0100
0010
1000
0001
0100
0010
0000
,
1000
0000
0000
1000
0000
0000
0100
0000
0000
0100
0000
0000
0020
0030
0000
0000
0000
0000
0001
0000
0000
0100
0000
0000
,
0010
0000
0000
1000
0000
0000
0001
0000
0000
0000
0000
0000
0M20
0000
0030
0000
0000
0000
0000
0000
0000
0000
0000
0000
1000
0000
0000
0000
0000
0000
0100
0000
0000
0000
0000
0000
0010
0000
0000
0001
0000
0000
1000
0000
0000
0000
0000
0000
,
0010
0100
0010
1000
0100
0001
0100
1000
,
0001
0000
0000
0000
1000
1000
0010
0010
,
0200
0000
0300
0000
0000
0000
0000
0000
0000
0000
0000
0000
0001
0000
0000
0000
0000
0000
0100
0000
0000
0000
0000
0000
0010
0000
0000
1000
0000
0000
0001
0000
0000
0000
0000
0000
0M20
0000
0030
0000
0000
0000
0000
0000
0000
0000
0000
0000
,
1000
0000
0100
0000
0010
0001
1000
0000
0010
0000
0100
0000
0001
0000
0010
0000
,
0200
0000
0000
1300
0000
0000
0000
0000
0000
0001
0000
0010
,
0000
1000
0000
0001
0000
0100
0000
1000
0000
0001
0000
0100
,
0000
0010
0000
1010
0000
0000
0000
0000
0000
0001
0000
0100
,
0000
1000
0000
0001
0000
0010
0000
1000
0000
0001
0000
0010
,
0000
0100
0000
1100
0000
0000
0000
0000
0000
0001
0000
0010
,
0000
1000
0000
0001
0000
0100
0000
1000
0000
0001
0000
0100
,
0000
0010
0000
1010
0000
0000
0000
0000
0000
0001
0000
0100
,
0000
1000
0000
0001
0000
0010
0000
1000
0000
0001
0000
1000
,
0000
0000
0100
0000
0000
0000
0020
0000
0000
000M
0000
0000
0000
0000
0000
0000
0000
0000
1030
0000
0000
0000
0100
0000
,
0000
0001
0000
1000
0000
0010
0000
0001
0000
1000
0000
0010
,
0000
0100
0000
0101
0000
0000
0000
0000
0000
1000
0000
0010
,
0000
0001
0000
1000
0000
0100
0000
0001
0000
1000
0000
0100
,
0000
0010
0000
0011
0000
0000
0000
0000
0000
1000
0000
0100
,
0000
0001
0000
1000
0000
0010
0000
0001
0000
1000
0000
0010
,
0000
0100
0000
0101
0000
0000
0000
0000
0000
0021
0000
0000
,
0M00
0000
0000
0000
,
0000
0000
0000
0000
0000
0000
0000
0000
0000
1030
0000
0001
,
0000
0100
0000
1000
0000
0000
0001
0000
0000
0010
0000
1000
,
0000
0100
0000
0010
0000
0000
0120
0000
0000
0031
0000
1000
,
0000
0100
0000
0001
0000
0000
1000
0000
0000
0010
0000
0001
,
0000
0100
0000
0010
0000
0000
0120
0000
0000
1030
0000
0001
,
0000
0010
0000
1000
0000
0000
0001
0000
0000
0100
0000
1000
,
0000
0010
0000
0100
0000
0000
0210
0000
0000
0301
0000
1000
,
0000
0010
0000
0001
0000
0000
1000
0000
0000
0100
0000
0001
,
0000
1000
0000
0010
0000
0000
1001
0000
0000
1000
0000
0100
,
0000
0001
0000
0100
0000
0000
0110
0000
0000
0010
0000
0001
,
0000
0100
0000
0010
0000
0000
0120
0000
0000
0031
0000
0010
,
0000
1000
0000
0010
0000
0000
0110
0000
0000
0100
0000
0001
,
0000
0010
0000
0100
0000
0000
0210
0000
0000
0301
0000
0100
,
0000
1000
0000
0100
0000
0000
0110
0000
0000
0010
0000
0001
,
0000
0100
0000
0010
0000
0000
0110
0000
0000
1020
0000
0000
,
0M00
0000
0000
0000
,
0000
0000
0000
0000
0000
0000
0031
0100
,
0000
0100
0010
0000
1000
0000
0100
0010
,
1000
0000
0010
0000
0011
0000
0001
1000
,
0010
0000
1010
0000
1000
0000
0001
0100
,
1000
0000
0200
00M0
0000
0000
1300
0100
,
0000
0100
0010
0000
0001
0000
0100
0010
,
0001
0000
0010
0000
1010
0000
1000
0001
,
0010
0000
0011
0000
0001
0000
1000
0100
,
0001
0000
0200
00M0
0000
0000
0301
0100
,
0010
1000
0100
0010
0100
1000
0001
0100
,
1000
0100
0001
1000
0100
0010
0001
1000
,
0010
0100
0001
0010
1000
0010
0100
1000
,
0001
0100
0010
0000
0000
0000
1000
0010
,
0001
0010
1000
0001
0100
0010
1000
0100
,
0001
0100
1000
0010
0100
0001
0010
0000
,
0100
0000
0000
1000
1000
0000
0001
0001
,
0100
0010
1000
0100
0010
0000
0001
0001
,
0100
0010
1000
0100
0001
0100
1000
0010
,
0100
1000
0100
0001
2000
0000
3100
0000
;
