#VERSION:0.83;
#TITLE:Do That Thang;
#SUBTITLE:;
#ARTIST:MASAI;
#TITLETRANSLIT:;
#SUBTITLETRANSLIT:;
#ARTISTTRANSLIT:;
#GENRE:;
#ORIGIN:;
#TAGS:;
#CREDIT:;
#BANNER:Do That Thang.png;
#BACKGROUND:Do That Thang - BG.png;
#PREVIEWVID:;
#JACKET:Do That Thang - jacket.png;
#CDIMAGE:;
#DISCIMAGE:;
#LYRICSPATH:;
#CDTITLE:;
#MUSIC:Do That Thang.ogg;
#OFFSET:-2.308000;
#SAMPLESTART:60.014408;
#SAMPLELENGTH:12.000000;
#SELECTABLE:YES;
#BPMS:0.000000=103.988998
,36.000000=103.992996
,37.000000=103.985001
,38.000000=103.988998
,72.000000=103.992996
,73.000000=103.988998
,78.000000=103.985001
,79.000000=103.988998
,138.000000=51.995998
,139.000000=103.992996
,140.000000=103.988998
,143.000000=103.992996
,144.000000=103.988998
,147.000000=103.992996
,148.000000=103.988998
,151.000000=103.992996
,152.000000=103.988998
,155.000000=103.992996
,156.000000=103.988998
,160.000000=103.992996
,161.000000=103.988998
,164.000000=103.992996
,165.000000=103.988998
,168.000000=103.992996
,169.000000=103.988998
,172.000000=103.992996
,173.000000=103.988998
,176.000000=103.992996
,177.000000=103.988998
,181.000000=103.992996
,182.000000=103.988998
,185.000000=103.992996
,186.000000=103.988998
,189.000000=103.992996
,190.000000=103.988998
,193.000000=103.992996
,194.000000=103.988998
,197.000000=103.992996
,198.000000=103.988998
,201.000000=103.992996
,202.000000=103.988998
,205.000000=103.992996
,206.000000=103.988998
,209.000000=103.992996
,210.000000=103.988998
,213.000000=103.992996
,214.000000=103.988998
,217.000000=103.992996
,218.000000=103.988998
;
#STOPS:;
#DELAYS:;
#WARPS:;
#TIMESIGNATURES:0.000000=4=4
;
#TICKCOUNTS:0.000000=4
;
#COMBOS:0.000000=1
;
#SPEEDS:0.000000=1.000000=0.000000=0
;
#SCROLLS:0.000000=1.000000
;
#FAKES:;
#LABELS:0.000000=Song Start
;
#BGCHANGES:;
#KEYSOUNDS:;
#ATTACKS:
;

//---------------dance-single - ----------------
#NOTEDATA:;
#CHARTNAME:;
#CHARTHASH:890855402;
#STEPSTYPE:dance-single;
#BANNER:;
#DESCRIPTION:;
#CHARTSTYLE:Pad;
#DIFFICULTY:Beginner;
#METER:4;
#METERF:0.000000;
#LASTSECONDHINT:129.244049;
#RADARVALUES:0.125159,0.145987,0.022855,0.000000,0.000000,115.000000,112.000000,3.000000,0.000000,0.000000,0.000000,0.000000,0.000000,0.000000,0.125159,0.145987,0.022855,0.000000,0.000000,115.000000,112.000000,3.000000,0.000000,0.000000,0.000000,0.000000,0.000000,0.000000;
#CREDIT:AlienSix;
#NOTES:
0000
0000
0000
0000
,
1000
0000
1000
0000
,
0001
0000
0001
0000
,
1000
0000
0001
0000
,
1000
0000
1000
0000
,
0001
0000
0001
0000
,
1000
1000
1000
0000
,
0001
0000
1000
0000
,
0001
0000
0001
0000
,
1000
0000
0100
0000
,
0010
0000
0001
0000
,
1000
0000
0001
0000
,
1000
1000
0000
0000
,
0001
0000
0001
0000
,
0010
0000
0100
0000
,
1000
0000
0001
0000
,
0100
0000
0010
0000
,
1000
1000
0000
0000
,
0001
0000
0000
0000
,
1000
0000
0001
0000
,
1000
0000
0000
0001
,
0000
0000
1000
0000
,
0001
0001
0000
1000
,
0000
0001
0000
1000
,
0000
0100
0000
0010
,
0000
0001
0000
1000
,
0000
1000
0000
0001
,
0000
1000
0000
0001
,
1000
0000
0001
0000
,
1001
0000
0000
1000
,
0001
1000
0000
0001
,
1000
0000
0000
0001
,
1000
0000
0001
0000
,
1000
0001
1001
0000
,
0000
1000
1000
0001
,
0000
1000
0000
0001
,
0000
1000
0000
0010
,
0000
0100
0000
0001
,
0000
1000
0000
0001
,
0000
0010
0000
0100
,
0000
1000
0000
0001
,
0000
0100
0000
0010
,
0000
0001
0000
1000
,
0000
0010
0000
0100
,
0000
1000
0000
0001
,
0000
1000
0000
0001
,
0000
1000
0000
0001
,
0000
0010
0000
0100
,
0000
0010
0000
0100
,
0000
1000
0000
0001
,
0000
1000
0000
0001
,
0000
1000
0000
0001
,
0001
0000
1000
0000
,
0010
0000
0100
0000
,
1000
0000
0001
1001
;

//---------------dance-single - ----------------
#NOTEDATA:;
#CHARTNAME:;
#CHARTHASH:856803994;
#STEPSTYPE:dance-single;
#BANNER:;
#DESCRIPTION:;
#CHARTSTYLE:Pad;
#DIFFICULTY:Easy;
#METER:7;
#METERF:0.000000;
#LASTSECONDHINT:129.244049;
#RADARVALUES:0.196989,0.229408,0.030473,0.000000,0.000000,181.000000,177.000000,4.000000,0.000000,0.000000,0.000000,0.000000,0.000000,0.000000,0.196989,0.229408,0.030473,0.000000,0.000000,181.000000,177.000000,4.000000,0.000000,0.000000,0.000000,0.000000,0.000000,0.000000;
#CREDIT:AlienSix;
#NOTES:
0000
0000
0000
0000
,
1000
0100
1000
0000
,
0001
0100
0001
0000
,
1000
0001
1000
0000
,
1000
0001
1000
0000
,
0010
1000
0100
0000
,
0010
0001
0100
0000
,
1000
0100
1000
0000
0010
0100
0010
0000
,
0001
1000
0000
0000
1000
0001
0000
0000
,
1000
0100
0000
0000
0001
0000
0000
0000
,
0010
0100
0000
0000
1000
0000
0000
0000
,
1000
0000
0001
0000
,
1000
0100
0010
0001
,
0010
0000
0100
0000
1000
0001
0000
0000
,
1000
0000
0001
0000
,
0100
0000
1000
0000
0100
0001
0000
0000
,
0100
0000
1000
0000
,
0001
0000
1000
0000
,
0001
0010
0100
1000
,
0001
0000
1000
0000
,
1000
0100
0010
0001
,
1000
1000
0000
0000
0001
0001
0000
0000
,
1000
0001
1000
0001
,
0001
0001
0000
0000
1000
1000
0000
0000
,
1000
0100
0010
0100
,
1000
1000
0000
0000
0001
0001
0000
0000
,
0001
0010
0100
1000
,
1000
1000
0000
0000
0001
0001
0000
0000
,
0010
0100
1000
0001
,
1001
0000
0000
0000
,
1000
0100
0000
0000
0001
0000
1000
0000
,
0001
1001
0000
1000
,
0001
0000
1000
0001
,
0100
0000
1000
0000
,
0001
0000
0000
0000
1001
0000
0001
1000
,
0000
0001
0000
1000
,
0000
1000
0001
0010
,
0100
1000
0000
0001
,
0000
1000
0000
0001
,
1000
0100
0000
0010
,
0000
0001
0000
1000
,
0100
0010
0000
0001
,
0010
0100
0000
1000
,
0001
0000
1000
0000
0001
0000
1000
0100
,
0000
0000
0010
0001
0000
0000
1000
0000
,
1000
0000
0001
0000
0001
0000
1000
0100
,
0000
0000
0010
0001
0000
0000
0100
0000
,
1000
0100
0001
0100
,
1000
0100
0001
1000
,
0100
0000
0001
1000
,
0100
0000
0010
0001
,
0100
0000
0000
0000
0001
0000
1000
0100
,
0000
0000
0010
0001
0000
0000
1000
0000
,
1000
0001
0000
0001
,
0001
1000
0000
1001
;

//---------------dance-single - ----------------
#NOTEDATA:;
#CHARTNAME:;
#CHARTHASH:4059892230;
#STEPSTYPE:dance-single;
#BANNER:;
#DESCRIPTION:;
#CHARTSTYLE:Pad;
#DIFFICULTY:Medium;
#METER:12;
#METERF:0.000000;
#LASTSECONDHINT:131.551987;
#RADARVALUES:0.379829,0.403487,0.068565,0.060947,0.171413,349.000000,340.000000,9.000000,8.000000,0.000000,0.000000,0.000000,0.000000,0.000000,0.379829,0.403487,0.068565,0.060947,0.171413,349.000000,340.000000,9.000000,8.000000,0.000000,0.000000,0.000000,0.000000,0.000000;
#CREDIT:Alien-ade;
#NOTES:
0000
0000
0000
0000
,
0001
0000
1000
0000
0000
0001
0000
0000
1000
0000
0000
0100
0000
0000
1000
0000
,
0000
0000
0001
0000
0000
1000
0000
0000
0001
0000
0000
0010
0000
0000
0100
0000
,
1000
0000
0001
0000
0000
0010
0000
0000
0001
0000
0000
1000
0000
0000
0010
0000
,
0000
0000
0100
0000
0000
0010
0000
0000
1000
0000
0001
0000
1000
0000
0000
0001
,
1000
0000
0100
0000
0010
0000
0001
0000
0100
0000
0000
0000
1000
0000
0000
0100
,
0001
0000
0010
0000
0100
0000
1000
0000
0001
0000
0000
0000
1000
0000
0000
0100
,
0010
0000
0001
0000
0100
0000
0001
0000
0010
0000
0100
0000
1000
0000
0100
0010
,
0000
0000
0001
0000
1000
0000
0010
0100
0000
0000
0001
0000
1000
0000
0010
0000
,
1001
0110
0001
0010
0001
0000
1000
0000
,
0100
0010
0001
0000
1000
0000
0010
0000
,
0100
0001
0010
0000
0100
1000
0010
0000
,
1000
0100
1000
0100
0010
0001
0010
0001
,
0010
0100
0010
0001
0100
0010
0000
0000
,
1000
0001
1000
0000
0000
0000
0000
0000
0001
1000
0000
0000
0000
0000
0000
0000
,
1000
0100
0010
0001
1000
0000
0001
0000
,
0010
0100
0000
0000
1000
0000
0000
0000
0100
0010
0000
0000
0001
0000
0100
0000
,
1000
0100
0001
1000
0001
0000
1000
0010
,
1000
0100
1000
0010
1000
0000
0001
0000
,
1000
0010
0100
0000
0001
0100
0010
0000
,
1000
0100
1100
0100
0000
0010
0011
0000
,
1000
0100
1000
0100
0000
0000
0010
0000
0001
0000
0000
0000
0100
0000
0000
0000
,
0001
1000
0001
0000
0001
1000
0010
0000
,
0100
0001
0100
0001
0000
0000
1000
0000
0010
0000
0000
0000
0100
0000
0000
0000
,
0001
0010
0100
0000
2000
0000
3020
0000
,
0130
0010
0100
0010
0000
0000
1000
0000
0001
0000
0000
0000
0100
0000
0000
0000
,
0010
1000
0100
0000
0010
0001
0010
0000
,
0100
1000
0010
0100
0000
0000
0001
0000
1000
0000
0000
0000
0100
0000
0000
0000
,
0010
0001
0100
0001
0010
0000
0100
0000
1000
0000
0010
0000
0100
0000
0001
0000
,
1001
0000
0000
0000
,
1000
0010
0100
0001
2000
0000
3002
0000
,
0103
0000
1001
0000
1000
0100
1000
0000
,
0010
1000
0100
0010
0000
0000
0001
0000
0100
0000
0010
0000
1000
0000
0001
0000
,
0000
0000
1000
0000
0100
0010
0000
0000
0001
0000
0010
0100
0000
0000
1000
0000
,
0010
0100
0001
0000
1001
0000
0001
1000
,
0100
0000
0010
0001
0100
0000
0001
0010
,
0100
0010
0001
1000
0010
0001
0010
0100
,
0010
0000
1000
0000
0010
0000
0100
0000
0000
0000
0000
0000
0001
1000
0000
0000
,
0000
0000
0000
0000
0001
1000
0000
0000
0000
0000
0000
0000
1000
0000
0100
0000
,
0010
0000
0001
0000
1000
0000
0000
0000
0001
0000
0000
0000
0010
0100
0000
0000
,
1000
0000
0000
0000
0100
0010
0000
0000
0001
0000
0000
0000
0100
0000
0010
0000
,
1000
0001
0100
0000
0001
0100
0001
0010
,
0001
0100
0001
0000
0001
0000
1000
0010
,
0100
0000
0001
0100
0010
0000
1000
0100
,
1100
0000
0100
0000
0000
0000
0010
0000
0011
0000
0000
0000
1000
0100
1000
0100
,
0000
0010
0001
0000
0100
0000
0001
1000
,
0001
0000
0000
0000
0001
0000
1000
0000
0010
0000
0000
0000
0100
0001
0100
0001
,
0000
1000
0010
0000
0100
0000
0001
0010
,
0100
0000
0000
0000
2000
0000
0000
0000
3020
0000
0000
0000
0130
0010
0100
0010
,
0000
1000
0001
0000
0100
0000
0010
1000
,
0100
0000
0000
0000
0010
0000
0001
0000
0010
0000
0000
0000
0100
1000
0010
0100
,
0000
0000
0001
0000
1000
0000
0000
0000
0100
0000
0000
0000
0010
0001
0100
0001
,
0010
0100
1000
0010
0100
0001
1000
0000
,
0100
0000
0010
0100
0010
0000
0001
0000
,
0100
0000
0010
2000
0000
0000
0000
0000
3000
0000
0000
0000
0002
0000
0000
0000
,
0000
0000
0000
0003
;

//---------------dance-single - ----------------
#NOTEDATA:;
#CHARTNAME:;
#CHARTHASH:1389497859;
#STEPSTYPE:dance-single;
#BANNER:;
#DESCRIPTION:;
#CHARTSTYLE:Pad;
#DIFFICULTY:Hard;
#METER:14;
#METERF:0.000000;
#LASTSECONDHINT:131.551987;
#RADARVALUES:0.548521,0.637085,0.053328,0.281879,0.678033,504.000000,497.000000,7.000000,37.000000,13.000000,0.000000,0.000000,0.000000,0.000000,0.548521,0.637085,0.053328,0.281879,0.678033,504.000000,497.000000,7.000000,37.000000,13.000000,0.000000,0.000000,0.000000,0.000000;
#CREDIT:Alien-ade;
#NOTES:
// measure 0
0000
0000
0000
0000
,  // measure 1
1000
0000
0001
0000
0010
0100
1000
0000
,  // measure 2
0100
0010
0001
0100
1000
0100
0001
0000
,  // measure 3
1000
0000
0001
0000
0100
0010
0001
0000
,  // measure 4
0100
0010
1000
0100
0001
0100
1000
0000
,  // measure 5
1000
0010
0100
0001
1000
0100
0010
0100
1000
0100
0000
0010
0001
0100
0001
1000
,  // measure 6
0010
1000
0100
0010
0001
0010
0100
0000
1000
0000
0000
0000
0000
1000
0100
0010
,  // measure 7
0001
0010
0100
0010
1000
0010
0001
1000
0100
1000
0001
0010
0100
0010
0001
1000
,  // measure 8
0000
0100
0010
0001
0010
2000
0000
3000
0001
0100
0010
0002
0000
1003
0100
0000
,  // measure 9
0100
0000
2000
0000
3001
0100
0010
1000
0001
0010
0100
0002
0003
0100
1000
0001
,  // measure 10
1000
0200
0300
0000
0010
0001
0100
0010
0100
0001
0010
2000
3000
0010
0001
0000
,  // measure 11
1000
0000
1000
0000
0100
0010
0001
0010
0100
0000
1000
0100
0000
1000
0010
0000
,  // measure 12
0100
0001
0000
0100
1000
0100
0010
0001
1000
0000
0100
0000
0001
0000
1000
0000
,  // measure 13
0001
0000
0001
0000
1000
0000
1000
0000
0002
0000
2003
0000
0000
3000
0000
1000
,  // measure 14
0100
1000
0010
1000
0100
1000
0010
1000
0100
0000
0010
0001
0000
0000
0010
0000
,  // measure 15
0100
0000
0100
0000
0010
0000
0010
0000
0200
0000
0320
0000
0000
0030
0100
1000
,  // measure 16
0010
0000
0100
0001
0010
0000
0100
1000
0010
0001
0000
0010
0000
0000
1000
0000
,  // measure 17
0001
0000
0001
0000
1000
0000
1000
0020
0000
1030
0100
0000
0010
0000
0001
2000
,  // measure 18
0000
3001
0100
0000
0010
0000
1000
0000
0100
0010
0100
0000
0010
0000
0100
0000
,  // measure 19
2000
0000
0000
0000
0100
0000
0000
0000
3002
0000
0000
0000
0100
0000
0003
1000
,  // measure 20
0001
0000
1000
0000
0100
0000
1001
0000
1001
0000
0001
0010
0001
0000
1001
0000
,  // measure 21
1000
0100
1000
0100
0000
0M00
0001
0100
0001
0100
0000
0000
0001
0000
1000
0000
,  // measure 22
0001
0010
0100
0M00
0001
0010
0100
0M00
,  // measure 23
0001
0010
0001
0010
0000
00M0
1000
0010
1000
0010
0000
0000
0100
0000
0001
0000
,  // measure 24
1000
0100
0010
00M0
2000
0000
3200
0000
,  // measure 25
1300
0000
0001
0000
1000
0000
0100
0000
0000
0M00
0000
0000
0100
0000
0001
0000
1000
0000
0100
0000
0000
0000
0000
0000
1000
0000
0000
0000
0001
0000
0000
0000
,  // measure 26
1000
0100
0001
0000
1000
0010
0001
0000
,  // measure 27
0100
0000
0001
0000
1000
0000
0010
0000
0000
00M0
0000
0000
0010
0000
0001
0000
1000
0000
0010
0000
0000
0000
0000
0000
0000
0000
0000
0000
0000
0000
0000
0000
,  // measure 28
1000
0100
1000
0100
0010
0001
0010
0001
0100
0000
0001
0000
0010
0000
0000
0000
,  // measure 29
1001
0000
0000
0000
,  // measure 30
1000
0000
0001
1000
0001
0000
0010
0000
0001
0000
1000
0100
0000
1000
0001
1000
,  // measure 31
0000
0000
0001
0010
MMMM
0000
1000
0010
0100
0000
0001
0010
0000
0100
1000
0001
,  // measure 32
1000
0100
0010
0001
1000
0010
1000
0000
0001
0010
0100
1000
0001
0100
0010
1000
,  // measure 33
0001
0000
0001
0010
0100
0010
0000
00M0
1000
0100
0010
0100
0000
0M00
0001
0010
,  // measure 34
0100
0010
0000
0000
0001
0000
0000
0000
1000
0000
0000
0000
1000
0000
0010
0000
,  // measure 35
1000
0100
0010
0001
1000
0000
0010
0100
0000
0001
0100
0000
0010
1000
0000
0100
,  // measure 36
1000
0100
0010
0001
1000
0000
0100
0000
1000
0000
0001
0000
1000
0000
1000
0000
,  // measure 37
0010
0000
0010
0000
0200
0000
0302
0000
0000
0003
0000
2000
0000
0200
0000
0000
,  // measure 38
0000
0000
3000
0320
0000
0002
0000
0030
1003
0000
1000
0000
0010
0000
0010
0000
,  // measure 39
0100
0000
0100
0000
0002
0000
2003
0000
3000
0000
1000
0002
0000
0020
0000
0000
,  // measure 40
0000
0003
0030
0200
0000
2000
0000
0300
0000
3000
0000
0000
0001
0000
0001
0000
,  // measure 41
1000
0000
1000
0020
0000
1030
0100
0000
0010
0000
0001
2000
0000
3001
0100
0000
,  // measure 42
0010
0000
1000
0000
0100
0010
0100
0000
0010
0000
0100
0000
2000
0000
0000
0000
,  // measure 43
0100
0000
0000
0000
3002
0000
0000
0000
0100
0000
0000
0003
1000
0000
0100
0000
,  // measure 44
0010
0000
0110
0000
0010
0000
0011
0000
0010
0000
0110
0000
1000
0010
1000
0010
,  // measure 45
0100
0000
0001
0100
0001
0100
0010
0000
1000
0000
0001
0000
0010
0000
0001
0000
,  // measure 46
1000
0000
0000
0100
1000
0000
0010
0000
0100
0010
1000
0001
1000
0010
1000
0010
,  // measure 47
0100
0000
0001
0100
0001
0100
0010
0000
1000
0000
0001
0000
0010
0000
0001
0000
,  // measure 48
1000
0000
0000
0000
0100
1000
0100
1000
0001
0100
0001
0100
0010
1000
0010
1000
,  // measure 49
0001
0000
1000
0010
1000
0010
0100
0000
0001
0000
0010
0000
0100
0000
1000
0000
,  // measure 50
0001
0000
0000
0000
1000
0010
1000
0001
1000
0100
1000
0001
0010
0100
0010
0100
,  // measure 51
1000
0000
0001
0100
0001
0100
0010
0000
1000
0000
0001
0010
0001
1000
0001
0100
,  // measure 52
0001
1000
0010
0100
0001
0000
1000
0100
0010
0100
1000
0001
1000
0000
0001
0000
,  // measure 53
0010
0001
0200
0000
0320
0000
1030
0100
,  // measure 54
1000
0010
2000
0000
3002
0000
0023
0000
,  // measure 55
0000
0000
0000
0030
;
