#TITLE:Divine Intervention;
#SUBTITLE:;
#ARTIST:DM DOKURO;
#TITLETRANSLIT:;
#SUBTITLETRANSLIT:;
#ARTISTTRANSLIT:;
#GENRE:;
#CREDIT:;
#BANNER:bn.png;
#BACKGROUND:bg.png;
#LYRICSPATH:;
#CDTITLE:;
#MUSIC:Divine Intervention.ogg;
#OFFSET:-0.094000;
#SAMPLESTART:61.066002;
#SAMPLELENGTH:12.000000;
#SELECTABLE:YES;
#BPMS:0.000000=200.000000
,119.000000=180.000000
,131.000000=220.000000
,143.000000=200.000000
,268.000000=200.373337
,273.333344=200.000000
,284.000000=150.000000
,380.000000=74.000000
,382.000000=76.000000
,384.000000=74.000000
,386.000000=76.000000
,388.020844=74.000000
,390.000000=76.000000
,392.000000=74.250000
;
#STOPS:
;
#BGCHANGES:;
#KEYSOUNDS:;
#ATTACKS:;

//---------------dance-single - ----------------
#NOTES:
     dance-single:
     :
     Hard:
     15:
     0.602277,0.958950,0.120455,0.921130,0.382623,595.000000,578.000000,17.000000,130.000000,12.000000,0.000000,0.602277,0.958950,0.120455,0.921130,0.382623,595.000000,578.000000,17.000000,130.000000,12.000000,0.000000:
// measure 0
0000
0000
0000
0000
,  // measure 1
0000
0000
0000
0000
,  // measure 2
0000
0000
0000
0000
,  // measure 3
0000
0000
0000
0000
,  // measure 4
0002
0000
0000
0000
,  // measure 5
2003
0000
0000
0000
,  // measure 6
3100
0100
0100
0100
,  // measure 7
0010
0010
0010
0010
,  // measure 8
MMMM
0000
0000
0000
,  // measure 9
0000
0000
0000
0000
0000
0000
0000
0000
1000
0001
1000
0001
2000
0000
0000
0000
,  // measure 10
0001
3002
0000
0013
0000
0202
0300
1000
,  // measure 11
2003
0000
3010
0100
0202
0300
0010
0023
,  // measure 12
0000
0130
0000
0022
0030
1000
2003
0000
,  // measure 13
3010
0000
2200
0300
0001
3002
0000
0013
,  // measure 14
0000
0000
0202
0000
0003
0000
0010
0000
0320
0000
0000
0000
0031
0000
0010
0100
,  // measure 15
0020
0000
1000
1030
0010
0220
0300
1030
,  // measure 16
0100
0010
2000
3010
0002
0013
0022
0030
,  // measure 17
0100
0203
0000
1300
0100
0002
0000
0013
,  // measure 18
0200
0000
0301
0100
2200
0300
3010
0020
,  // measure 19
0000
0031
0010
2000
0000
3100
0020
0000
,  // measure 20
0130
1000
1020
0000
0001
0032
0000
0013
,  // measure 21
1000
0200
0000
0301
0200
0000
0310
0001
,  // measure 22
0201
0000
1000
1000
0000
0010
0020
0000
,  // measure 23
0000
0000
0330
0000
0002
0000
0013
0100
,  // measure 24
0010
0100
1000
0100
0002
0000
0103
0000
,  // measure 25
1000
0000
2000
0000
3001
0100
0000
0010
,  // measure 26
1000
0000
0000
0010
0001
0000
0010
0100
,  // measure 27
0010
0100
0001
0100
2000
0000
3100
0000
,  // measure 28
0001
0000
1000
0000
1000
0100
0000
0010
,  // measure 29
0001
1000
0000
1000
0001
0001
0020
0000
,  // measure 30
0031
0100
1000
0000
0200
0000
0301
0010
,  // measure 31
0100
1000
0020
0000
1030
0100
0001
0000
,  // measure 32
0200
0000
0301
0100
1000
0010
0100
0001
,  // measure 33
0100
0001
1000
0100
0010
0100
1000
0001
,  // measure 34
0010
0100
0001
0100
0010
0001
1000
0010
,  // measure 35
0200
0310
0010
2000
3001
0001
0010
0100
,  // measure 36
0020
0000
0000
0130
0000
01M0
0001
0000
,  // measure 37
0010
0220
0330
2200
,  // measure 38
3300
0000
0001
0100
0002
0000
0103
0010
,  // measure 39
0000
0M10
0001
0000
0100
0000
0220
0000
,  // measure 40
0330
0000
2002
3000
1003
0010
2000
0000
,  // measure 41
3100
0010
0100
0010
2000
0000
3010
0000
,  // measure 42
0012
0000
1003
0010
0001
0010
0200
0000
,  // measure 43
1300
0000
1200
0000
0010
0000
0301
0010
,  // measure 44
1000
0001
0100
1000
0001
0100
010M
1000
,  // measure 45
0000
0010
0100
0010
2000
0000
0010
0010
,  // measure 46
0000
0001
0001
0000
0100
0100
0000
0001
,  // measure 47
0001
0000
0010
0010
0000
310M
1000
0010
,  // measure 48
0100
0010
2000
3000
0002
0003
0020
0030
,  // measure 49
0200
0300
2000
3000
0020
0030
0100
0100
,  // measure 50
0001
0001
1000
1000
0100
0010
0100
0010
,  // measure 51
0002
0103
0010
0002
0013
0100
0002
1003
,  // measure 52
2000
3100
0010
2000
3010
0100
2000
3001
,  // measure 53
0002
0013
0100
0002
0103
0010
0002
1003
,  // measure 54
2000
0000
3010
0000
0100
0000
1000
0100
1000
0000
0100
0000
0002
0000
0000
0000
,  // measure 55
0023
0130
1000
0020
0130
1000
0200
0301
,  // measure 56
0020
0130
2000
3100
0002
0103
0020
0031
,  // measure 57
0200
0310
0002
0013
2000
3001
0020
0130
,  // measure 58
2000
3010
0100
0001
0020
1030
0010
0001
,  // measure 59
2000
0000
0000
0000
3010
0100
0010
0000
1000
0000
0002
0000
0000
0000
0010
0000
,  // measure 60
0023
0000
0000
0000
0130
0010
0100
0000
1000
0000
0020
0000
0000
0000
0100
0000
,  // measure 61
0230
0000
0000
0000
0301
0100
0001
0000
0010
0000
0200
0000
0000
0000
1000
0000
,  // measure 62
2300
0000
0000
0000
3100
1000
0100
0000
0010
0000
0002
0000
0000
0000
1000
0000
,  // measure 63
2003
0000
0000
0000
3010
0100
0010
0000
0001
0000
0000
0010
0000
0000
1000
0000
,  // measure 64
0200
0000
0000
0000
0310
0100
0010
0000
1000
0000
0000
0010
0000
0000
0001
0000
,  // measure 65
0200
0000
0000
0000
0310
0100
0010
0000
0001
0000
0000
0010
0000
0000
1000
0000
,  // measure 66
0100
0000
0001
0000
0100
0000
0010
0100
1000
0000
0010
0000
0001
0000
0010
0000
,  // measure 67
2000
0000
0000
0000
,  // measure 68
0000
0000
0000
0000
,  // measure 69
0000
0000
0000
0000
,  // measure 70
0000
0000
0000
0000
,  // measure 71
3002
0000
0000
0000
,  // measure 72
0000
0000
0000
0000
,  // measure 73
0103
0000
0000
0000
0100
0000
0000
0000
0100
0000
0000
0000
,  // measure 74
0010
0000
0000
1000
,  // measure 75
0001
0000
0010
0000
,  // measure 76
0100
0000
0100
0000
1000
0000
0010
0000
0000
0100
0000
0000
,  // measure 77
0001
0000
0001
0000
0000
1000
0000
0000
0001
0000
0100
0010
0100
0010
0100
0000
,  // measure 78
0001
0010
0001
0000
1000
0100
1000
0000
1001
0000
0000
0000
MMMM
0000
0000
0000
,  // measure 79
1000
0000
0000
0100
0000
0000
1000
0000
0000
0100
0000
0000
0010
0000
0000
0001
0000
0000
0010
0000
0000
0001
0000
0000
1000
0000
0000
0000
0000
0000
0000
0000
0010
0000
0000
0000
0000
0000
0000
0000
1000
0000
0000
0000
0000
0000
0000
0000
,  // measure 80
0001
0000
0100
0000
0010
0000
0001
0000
0010
0000
0100
0000
0001
0000
0000
1000
0000
0000
0000
0000
0000
1000
0000
0000
,  // measure 81
0001
0000
0000
0010
0000
0000
0001
0000
0000
0010
0000
0000
0100
0000
0000
1000
0000
0000
0100
0000
0000
1000
0000
0000
0001
0000
0000
0000
0000
0000
0000
0000
0100
0000
0000
0000
0000
0000
0000
0000
0001
0000
0000
0000
0000
0000
0000
0000
,  // measure 82
1000
0000
0010
0000
0100
0000
1000
0000
0100
0000
0010
0000
1000
0000
0000
0001
0000
0000
0000
0000
0000
0001
0000
0000
,  // measure 83
1000
0000
0000
0010
0000
0000
1000
0000
0000
0010
0000
0000
0100
0000
0000
0001
0000
0000
0100
0000
0000
0001
0000
0000
1000
0000
0000
0000
0000
0000
0000
0000
0100
0000
0000
0000
0000
0000
0000
0000
1000
0000
0000
0000
0000
0000
0000
0000
,  // measure 84
0001
0000
0010
0000
0100
0000
0001
0000
0100
0000
0010
0000
0001
0000
0000
0100
0000
0000
0010
0000
0000
0100
0000
0000
,  // measure 85
0010
0000
0000
1000
0000
0000
0010
0000
0000
1000
0000
0000
0001
0000
0000
0100
0000
0000
0001
0000
0000
0100
0000
0000
0010
0000
0000
0000
0000
0000
0000
0000
1000
0000
0000
0000
0000
0000
0000
0000
0100
0000
0000
0000
0010
0000
0000
0000
,  // measure 86
0002
0000
1000
0000
1003
0000
0002
0103
0002
0000
1003
0100
,  // measure 87
0010
0000
0000
0000
0000
0000
0100
0000
0000
0001
0000
0000
0100
0000
0000
0000
0000
0000
1000
0000
0000
0000
0000
0000
0020
0000
0000
0000
0000
0000
0000
0000
0130
0000
0000
0000
0001
0000
0000
0000
0020
0000
0000
0000
0000
0000
0000
0000
,  // measure 88
0000
0130
1000
0100
0001
0100
0020
0000
0031
1000
0010
0000
,  // measure 89
0100
0000
0000
0000
0000
0000
0010
0000
0000
0000
0000
0000
0100
0000
0000
1000
0000
0000
0100
0000
0000
0000
0000
0000
0002
0000
0000
0000
0000
0000
0000
0000
0013
0000
0000
0000
0100
0000
0000
0000
2000
0000
0000
0000
0000
0000
0000
0000
,  // measure 90
0000
0000
0000
0000
3010
0000
0000
0000
0100
0000
0000
0000
1000
0000
0000
0000
0100
0000
0000
0000
0001
0000
0000
0000
0200
0000
0000
0000
0000
0000
0310
0000
0000
0000
0000
0000
2000
0000
0000
0000
0000
0000
3001
0000
0000
0010
0000
0000
,  // measure 91
0100
0000
0000
1000
0000
0000
0100
0000
0000
1000
0000
0000
0001
0000
0000
0100
0000
0000
0001
0000
0000
0100
0000
0000
0020
0000
0000
0000
0000
0000
0000
0000
1030
0000
0000
0000
0001
0000
0000
0000
0020
0000
0000
0000
0000
0000
0000
0000
,  // measure 92
0000
0130
0001
0100
1000
0100
0020
0130
1000
0020
0130
0020
,  // measure 93
1030
0000
0001
0100
1000
0000
0100
0010
1000
0000
0100
0010
0001
0000
1000
0100
,  // measure 94
0001
0000
0100
0010
0001
0000
1000
0010
0100
0001
0100
0001
0010
0100
0010
0100
,  // measure 95
2000
0000
0000
0000
0100
0100
0000
0000
,  // measure 96
3002
0000
0000
0000
0100
0100
0000
0000
,  // measure 97
0023
0000
0000
0000
0100
0100
0000
0000
,  // measure 98
0230
0000
0000
2300
,  // measure 99
0000
0000
3020
0000
,  // measure 100
0000
0030
0000
0000
;

//---------------dance-single - ----------------
#NOTES:
     dance-single:
     :
     Medium:
     13:
     0.479797,0.603783,0.106284,0.595192,0.131084,474.000000,459.000000,15.000000,84.000000,10.000000,0.000000,0.479797,0.603783,0.106284,0.595192,0.131084,474.000000,459.000000,15.000000,84.000000,10.000000,0.000000:
// measure 0
0000
0000
0000
0000
,  // measure 1
0000
0000
0000
0000
,  // measure 2
0000
0000
0000
0000
,  // measure 3
0000
0000
0000
0000
,  // measure 4
2000
0000
0000
0000
,  // measure 5
3002
0000
0000
0000
,  // measure 6
0103
0100
0100
0100
,  // measure 7
0010
0010
0010
0010
,  // measure 8
MMMM
0000
0000
0000
,  // measure 9
0000
0000
0000
0000
0001
1000
0002
0000
,  // measure 10
1003
0002
0000
0010
0000
2003
0000
3100
,  // measure 11
2000
0000
0010
0000
3002
0000
0103
0002
,  // measure 12
0000
0010
0000
2003
0000
3100
2000
0000
,  // measure 13
0001
0000
3020
0000
1030
0020
0000
0001
,  // measure 14
0000
0230
0000
0310
0200
0000
1000
0000
,  // measure 15
0302
0000
1003
0001
0000
0002
0000
0023
,  // measure 16
0000
0130
0020
0000
0032
0000
2003
0000
,  // measure 17
3100
0020
0000
0031
1000
0002
0000
0103
,  // measure 18
0020
0000
0130
0001
0020
0000
0130
2000
,  // measure 19
0000
3001
1000
0002
0000
0103
0002
0000
,  // measure 20
0013
0001
2000
0000
3100
0020
0000
0130
,  // measure 21
1000
0200
0000
1300
0020
0000
0130
0001
,  // measure 22
2000
0000
3001
0020
0000
0230
0020
0000
,  // measure 23
0000
0000
0330
0000
2000
0000
3010
0100
,  // measure 24
0010
0100
0001
1000
0200
0000
0310
0000
,  // measure 25
0001
0000
0001
0000
1000
0010
0000
0100
,  // measure 26
0001
0000
0000
0010
0001
0000
1000
0010
,  // measure 27
0100
0010
1000
0100
0020
0000
0031
0000
,  // measure 28
1000
0000
0001
0000
0001
0100
0000
0010
,  // measure 29
1000
0001
0000
0001
1000
0100
0020
0000
,  // measure 30
0031
0011
0200
1300
,  // measure 31
1100
0001
0200
0000
0310
0000
1010
0000
,  // measure 32
0200
0000
0301
0010
0100
1000
0002
0000
,  // measure 33
0103
0010
1000
0000
0001
0000
0010
0100
,  // measure 34
1000
0000
0020
0000
0130
0001
0010
0000
,  // measure 35
0200
0000
0000
2300
0000
0000
3001
0100
,  // measure 36
0020
0000
0000
0130
000M
0100
2000
0000
,  // measure 37
3010
0220
0330
2020
,  // measure 38
3030
0000
0001
0010
0002
0000
1003
0100
,  // measure 39
00M0
0100
0001
0000
0010
0000
0220
0000
,  // measure 40
0330
0000
2002
3000
1003
0100
2000
0000
,  // measure 41
3010
0100
0010
1000
0200
0000
0320
0000
,  // measure 42
0032
0000
0103
0010
0100
1000
0200
0000
,  // measure 43
0320
0000
0032
0000
0013
0100
0001
1000
,  // measure 44
0100
0010
0100
1000
1100
0000
0000
1010
,  // measure 45
0000
0000
0110
0000
0102
0000
0000
0100
,  // measure 46
0000
0000
1000
0000
0000
1000
0000
0000
,  // measure 47
0010
0000
0000
0010
0000
0000
1000
0000
,  // measure 48
1003
0001
0001
0100
,  // measure 49
0100
0000
0010
0000
1000
0000
0001
0010
,  // measure 50
0001
0010
0100
1000
0100
0010
0001
1000
,  // measure 51
0010
0100
0010
1000
0000
0001
0010
0000
,  // measure 52
0100
0010
0001
0010
0000
0001
1000
0000
,  // measure 53
0001
0100
0010
0100
0000
0001
1000
0000
,  // measure 54
0001
0100
1000
0100
0010
0100
0002
0000
,  // measure 55
0013
0100
1000
0010
0000
1000
0001
0010
,  // measure 56
0001
0100
0010
0000
1000
0100
0010
0000
,  // measure 57
0001
0010
1000
0000
1000
0010
0001
0000
,  // measure 58
1000
0010
0100
0000
0001
0010
0100
1000
,  // measure 59
0020
0000
0130
0010
0100
0002
0000
0000
,  // measure 60
0023
0000
0130
0010
0100
2000
0000
0000
,  // measure 61
3002
0000
0103
0010
0100
2000
0000
0000
,  // measure 62
3200
0000
0301
0010
0001
2000
0000
0000
,  // measure 63
3200
0000
0000
0000
1300
0000
0001
0000
0010
0000
0000
0010
0000
0000
0100
0000
,  // measure 64
0010
0000
0000
0000
0001
0000
0100
0000
0010
0000
0000
0010
0000
0000
0100
0000
,  // measure 65
0010
0000
0000
0000
1000
0000
0001
0000
0010
0000
0000
0010
0000
0000
0100
0000
,  // measure 66
1000
1100
1010
0011
,  // measure 67
0102
0000
0000
0000
,  // measure 68
0000
0000
0000
0000
,  // measure 69
0000
0000
0000
0000
,  // measure 70
0000
0000
0000
0000
,  // measure 71
2003
0000
0000
0000
,  // measure 72
0000
0000
0000
0000
,  // measure 73
3100
0000
0000
0000
0100
0000
0000
0000
0100
0000
0000
0000
,  // measure 74
0010
0000
0000
0001
,  // measure 75
1000
0000
0010
0000
,  // measure 76
0100
0000
0100
0000
0001
0000
0010
0000
0000
0100
0000
0000
,  // measure 77
1000
0000
1000
0000
0000
0001
0000
0000
1000
0000
0100
0000
0010
0000
0001
0000
,  // measure 78
0010
1000
0010
0001
0100
0000
MMMM
0000
,  // measure 79
1000
0000
0000
0100
0000
0000
0010
0000
0000
0001
0000
0000
1000
0000
0000
0000
0010
0000
0000
0000
1000
0000
0000
0000
,  // measure 80
0001
0000
0000
0000
0100
0000
0010
0000
0000
0000
0100
0000
0001
0000
0000
1000
0000
0000
0000
0000
0000
1000
0000
0000
,  // measure 81
0001
0000
0000
0010
0000
0000
0100
0000
0000
1000
0000
0000
0001
0000
0000
0000
0100
0000
0000
0000
0001
0000
0000
0000
,  // measure 82
1000
0000
0000
0000
0010
0000
0100
0000
0000
0000
0010
0000
1000
0000
0000
0001
0000
0000
0000
0000
0000
0001
0000
0000
,  // measure 83
1000
0000
0000
0010
0000
0000
0100
0000
0000
0001
0000
0000
1000
0000
0000
0000
0100
0000
0000
0000
1000
0000
0000
0000
,  // measure 84
0001
0000
0000
0000
0010
0000
0100
0000
0000
0000
0010
0000
0001
0000
0000
1000
0000
0000
0010
0000
0000
1000
0000
0000
,  // measure 85
0001
0000
0000
0100
0000
0000
0010
0000
0000
1000
0000
0000
0001
0000
0000
0000
0010
0000
0000
0000
0001
0000
1000
0000
,  // measure 86
0100
0000
1000
0000
0010
0100
0010
0000
0001
0000
0010
0000
,  // measure 87
1000
0000
0000
0100
0000
0000
1000
0000
0000
0100
0000
0000
0001
0000
0000
0000
0100
0000
0000
0000
1000
0000
0000
0000
,  // measure 88
0001
0000
0000
0100
0000
0000
0001
0000
0000
0100
0000
0000
1000
0000
0000
0000
0100
0000
0000
0000
0100
0000
0000
0000
,  // measure 89
0001
0000
0000
0010
0000
0000
0001
0000
0000
0010
0000
0000
1000
0000
0000
0000
0010
0000
0000
0000
0001
0000
0000
0000
,  // measure 90
1000
0010
1000
0010
0001
0010
1000
0000
,  // measure 91
0002
0000
0000
0000
0000
0000
1003
0000
0010
0000
0001
0000
,  // measure 92
0010
0000
0000
1000
0000
0000
0010
0000
0000
0100
0000
0000
0001
0000
0000
0010
0000
0000
1000
0000
0000
0000
0010
0000
,  // measure 93
0100
1000
0010
1000
0100
0001
0100
1000
,  // measure 94
0010
0001
0010
1000
0001
0010
0100
1000
,  // measure 95
0002
0000
0000
0000
0100
0100
0000
0000
,  // measure 96
2003
0000
0000
0000
0100
0100
0000
0000
,  // measure 97
3020
0000
0000
0000
0100
0100
0000
0000
,  // measure 98
0230
0000
0000
0302
,  // measure 99
0000
0000
0023
0000
,  // measure 100
0000
0030
0000
0000
;

//---------------dance-single - ----------------
#NOTES:
     dance-single:
     :
     Challenge:
     17:
     0.707549,1.065500,0.467651,0.814846,0.513707,699.000000,633.000000,66.000000,115.000000,14.000000,0.000000,0.707549,1.065500,0.467651,0.814846,0.513707,699.000000,633.000000,66.000000,115.000000,14.000000,0.000000:
// measure 0
0000
0000
0000
0000
,  // measure 1
0000
0000
0000
0000
,  // measure 2
0000
0000
0000
0000
,  // measure 3
0000
0000
0000
0000
,  // measure 4
2000
0000
0000
0000
,  // measure 5
3002
0000
0000
0000
,  // measure 6
0103
0100
0100
0100
,  // measure 7
0010
0010
0010
0010
,  // measure 8
MMMM
0000
0000
0000
,  // measure 9
0000
0000
0000
0000
0000
0000
0000
0000
1000
0010
1000
0010
0200
0000
0000
0000
,  // measure 10
0310
2010
0000
3001
0000
0012
0000
0013
,  // measure 11
0210
0000
1300
0010
0120
0000
1030
2001
,  // measure 12
0000
3010
0000
1200
0000
0310
0012
0000
,  // measure 13
0103
0010
0120
0000
1030
2100
0000
3010
,  // measure 14
0000
0000
0120
0000
0000
0000
0031
0000
0021
0000
0000
0000
0130
0000
0100
0010
,  // measure 15
2000
0000
3100
0002
0103
1002
0000
0013
,  // measure 16
0010
0100
1000
0000
2010
0000
3001
0100
0002
0000
1003
0000
2100
0000
0000
0000
,  // measure 17
3010
0100
0020
0000
0000
0000
1030
0000
0001
0000
0020
0000
0000
0000
1030
0000
,  // measure 18
0020
0000
0000
0000
0031
0000
1000
0000
2010
0000
0000
0000
3100
0010
0200
0000
,  // measure 19
0000
0301
0100
2000
0000
3010
0002
0000
,  // measure 20
0013
0000
0100
0000
0102
0000
0000
0000
0013
0100
0020
0000
0000
0000
0031
0000
,  // measure 21
1000
0020
0000
0031
0020
0000
1030
0100
,  // measure 22
0120
0000
0032
0100
0000
2003
0020
0000
,  // measure 23
0000
0000
0000
0000
3030
0000
0000
0000
1000
0002
0000
0000
0013
0000
0100
0000
,  // measure 24
0010
0100
1000
0100
0002
0000
0103
0000
,  // measure 25
1000
0000
2000
0000
3001
0100
0000
0010
,  // measure 26
1010
0000
0000
0000
0000
0000
1000
0000
0001
0000
0000
0000
0100
0010
0100
0000
,  // measure 27
0010
0100
0001
0100
2000
0000
3100
0000
,  // measure 28
0001
0000
1000
0000
1000
0100
0000
0010
,  // measure 29
0011
1000
0000
1000
0001
0001
0020
0000
,  // measure 30
0031
0100
1000
0100
0020
0000
0031
0010
,  // measure 31
0100
0001
0020
0000
1030
0010
0001
1000
,  // measure 32
0200
0000
0301
0100
1000
0010
0100
0001
,  // measure 33
0100
0000
0010
1000
0010
0000
0100
0000
0001
0000
0010
0000
0100
0000
0001
0000
,  // measure 34
0100
1000
0001
0100
0010
1000
0001
0010
,  // measure 35
0020
0100
0130
2000
0010
3010
0100
0001
,  // measure 36
0201
0000
0310
1000
0100
0010
0002
0103
,  // measure 37
2000
3100
0220
0000
0330
0000
0202
0000
,  // measure 38
0303
0000
0000
0000
0001
0000
1000
0000
2010
0000
0000
0000
3100
0010
0001
0000
,  // measure 39
0100
0010
2000
3100
0002
0103
0220
0000
,  // measure 40
0330
0000
2100
0000
3100
0010
1002
0000
,  // measure 41
1003
0010
0100
0010
0002
0000
0013
0000
,  // measure 42
2010
0000
3001
0010
1000
0010
0200
0000
,  // measure 43
0301
0000
0201
0000
0010
0000
1300
0010
,  // measure 44
0001
0000
1000
0000
0100
0000
0001
0000
0010
0000
0100
1000
0100
0000
0020
0000
,  // measure 45
0000
0000
0031
0000
0101
0000
1000
0000
1010
0000
0010
0M00
0010
0000
0001
0000
,  // measure 46
0010
0M00
0010
0000
1000
0000
0010
0M00
0010
0000
0001
0000
0010
0M00
0010
0000
,  // measure 47
1000
0000
0100
00M0
0100
0000
0001
0000
0100
00M0
0100
0000
1000
0000
0010
0000
,  // measure 48
0001
0010
2000
3000
0002
0003
0020
0030
,  // measure 49
2000
3000
0002
0003
0200
0300
1000
1000
,  // measure 50
0010
0010
0100
0100
0001
0010
1000
0010
,  // measure 51
0001
0000
0100
0000
0010
0000
1000
0000
0100
1000
0100
1000
0001
0000
0010
0000
,  // measure 52
0100
0000
0001
0000
0100
0000
0010
0001
1000
0000
0010
0000
0100
0000
0001
0010
,  // measure 53
0100
0000
1000
0000
0001
0000
0100
0000
0010
1000
0010
1000
0001
0000
1000
0000
,  // measure 54
0010
0000
0100
0000
1000
0000
0100
0001
1000
0000
0100
0000
0020
0000
0000
0000
,  // measure 55
0032
0000
0013
0000
1000
0000
0020
0000
0130
0010
0100
0010
0002
0000
1003
0000
,  // measure 56
0002
0000
0103
0000
2000
0000
3100
0010
2000
0000
3100
0000
0020
0000
0031
1000
,  // measure 57
0200
0000
0301
0000
2000
0000
3010
0000
0100
1000
0100
1000
0020
0000
0130
0000
,  // measure 58
2000
3100
0001
0010
0200
0301
1000
0010
,  // measure 59
0021
0000
0000
0000
0130
1000
0001
0000
0100
0000
1020
0000
0000
0000
0130
0000
,  // measure 60
0120
0000
0000
0000
1030
0010
0100
0000
1000
0000
0120
0000
0000
0000
1030
0001
,  // measure 61
0020
0000
0000
0000
0130
0010
0001
0000
0100
0000
2010
0000
0000
0000
3001
0010
,  // measure 62
0200
0000
0000
0000
0310
0001
0100
0000
0010
0000
0102
0000
0000
0000
0103
0010
,  // measure 63
2000
0000
0000
0000
3001
0010
0100
0000
0011
0000
0000
0110
0000
0000
1010
0000
,  // measure 64
0210
0000
0000
0000
1300
0010
0100
0000
1010
0000
0000
0110
0000
0000
0011
0000
,  // measure 65
0210
0000
0000
0000
0301
0100
0010
0000
0101
0000
0000
0110
0000
0000
1100
0000
,  // measure 66
0110
0000
0001
0000
0101
0000
1000
0100
0010
0000
0001
0000
0011
0000
0100
0000
,  // measure 67
1002
0000
0000
0000
,  // measure 68
0000
0000
0000
0000
,  // measure 69
0000
0000
0000
0000
,  // measure 70
0000
0000
0000
0000
,  // measure 71
2003
0000
0000
0000
,  // measure 72
0000
0000
0000
0000
,  // measure 73
3100
0000
0000
0000
0100
0000
0000
0000
0100
0000
0000
0000
,  // measure 74
0010
0000
0000
0001
,  // measure 75
1000
0000
0010
0000
,  // measure 76
0100
0000
0100
0000
0001
0000
0010
0000
0000
0100
0000
0000
,  // measure 77
1000
0000
1000
0000
0000
0001
0000
0000
1000
0000
0010
0100
0001
1000
0100
0010
,  // measure 78
0100
0001
0100
0010
0001
0100
0010
1000
0100
0000
0000
0000
MMMM
0000
0000
0000
,  // measure 79
1000
0000
0000
0001
0000
0000
1000
0000
0000
0001
0000
0000
0100
0000
0000
0010
0000
0000
0100
0000
0000
0001
0000
0000
0010
0000
0000
0000
0000
0000
0000
0000
1000
0000
0000
0000
0000
0000
0000
0000
0010
0000
0000
0000
0000
0000
0000
0000
,  // measure 80
0001
0000
0100
0000
0010
0000
0100
0000
0001
0010
0100
0000
0001
0000
0000
0100
0000
0000
0000
0000
0000
0110
0000
0000
,  // measure 81
0001
0000
0000
1000
0000
0000
0001
0000
0000
1000
0000
0000
0100
0000
0000
0010
0000
0000
0100
0000
0000
1000
0000
0000
0010
0000
0000
0000
0000
0000
0000
0000
0001
0000
0000
0000
0000
0000
0000
0000
0010
0000
0000
0000
0000
0000
0000
0000
,  // measure 82
1000
0000
0100
0000
0010
0000
0100
0000
1000
0010
0100
0000
1000
0000
0000
0100
0000
0000
0000
0000
0000
0110
0000
0000
,  // measure 83
1000
0000
0000
0001
0000
0000
1000
0000
0000
0001
0000
0000
0010
0000
0000
0100
0000
0000
0010
0000
0000
0001
0000
0000
0100
0000
0000
0000
0000
0000
0000
0000
1000
0000
0000
0000
0000
0000
0000
0000
0100
0000
0000
0000
0000
0000
0000
0000
,  // measure 84
0001
0000
0010
0000
0100
0000
0010
0000
0001
0100
0010
0000
0001
0000
0000
0010
0000
0000
1000
0000
0000
0100
0000
0000
,  // measure 85
0010
0000
0000
1000
0000
0000
0010
0000
0000
1000
0000
0000
0010
0000
0000
0001
0000
0000
0010
0000
0000
0001
0000
0000
0100
0000
0000
0000
0000
0000
0000
0000
0010
0000
0000
0000
0000
0000
0000
0000
1000
0000
0000
0000
0100
0000
0000
0000
,  // measure 86
0010
0000
1000
0000
0010
0000
0100
0000
1000
0010
0100
0000
0001
0000
1000
0000
0001
0000
0100
0000
0010
0100
0010
1000
,  // measure 87
0001
0000
0000
0000
0000
0000
0100
0000
0000
0010
0000
0000
0100
0000
0000
0000
0000
0000
0001
0000
0000
0000
0000
0000
0021
0000
0000
0000
0000
0000
0000
0000
0130
0000
0000
0000
1000
0000
0000
0000
2100
0000
0000
0000
0000
0000
0000
0000
,  // measure 88
0000
0000
3001
0000
1000
0000
0010
0000
1000
0100
1000
0000
1100
0000
0000
0000
0100
0000
0010
0000
0001
0000
0000
0000
,  // measure 89
1000
0000
0000
0000
0000
0000
0001
0000
0000
0000
0000
0000
0100
0000
0000
0010
0000
0000
0100
0000
0000
0000
0000
0000
0201
0000
0000
0000
0000
0000
0000
0000
0310
0000
0000
0000
1000
0000
0000
0000
2001
0000
0000
0000
0000
0000
0000
0000
,  // measure 90
0000
0000
0000
0000
3100
0000
0000
0000
0010
0000
0000
0000
0100
0000
0000
0000
1000
0000
0010
0000
0100
0000
0000
0000
0101
0000
0000
0000
0000
0000
0010
0000
0000
0000
0000
0000
1001
0000
0000
0000
0000
0000
0001
0000
0000
0010
0000
0000
,  // measure 91
0100
0000
0000
1000
0000
0000
0001
0000
0000
1000
0000
0000
0010
0000
0000
0100
0000
0000
1000
0000
0000
0100
0000
0000
0102
0000
0000
0000
0000
0000
0000
0000
1003
0000
0000
0000
0001
0000
0000
0000
0021
0000
0000
0000
0000
0000
0000
0000
,  // measure 92
0000
0000
0130
0000
0010
0000
0001
0000
1000
0100
1000
0000
1010
0000
0010
0000
0100
0000
0101
0000
0010
0000
0101
0000
,  // measure 93
2000
0000
3001
0010
0200
0301
0000
0100
2000
3000
0010
0000
0210
0300
0001
1000
,  // measure 94
0020
0030
0001
0000
0020
1030
0000
0100
0002
0103
1000
0001
0100
0010
0001
0010
,  // measure 95
2000
0000
0000
0000
0100
0100
0000
0000
,  // measure 96
3002
0000
0000
0000
0100
0100
0000
0000
,  // measure 97
0023
0000
0000
0000
1000
1000
0000
0000
,  // measure 98
0230
0000
0000
2300
,  // measure 99
0000
0000
3020
0000
,  // measure 100
0000
0030
0000
0000
;

//---------------dance-single - ----------------
#NOTES:
     dance-single:
     :
     Beginner:
     6:
     0.202446,0.318853,0.077942,0.247997,0.000000,200.000000,189.000000,11.000000,35.000000,0.000000,0.000000,0.202446,0.318853,0.077942,0.247997,0.000000,200.000000,189.000000,11.000000,35.000000,0.000000,0.000000:
// measure 0
0000
0000
0000
0000
,  // measure 1
0000
0000
0000
0000
,  // measure 2
0000
0000
0000
0000
,  // measure 3
0000
0000
0000
0000
,  // measure 4
2000
0000
0000
0000
,  // measure 5
3002
0000
0000
0000
,  // measure 6
0103
0100
0100
0000
,  // measure 7
0010
0010
0010
0000
,  // measure 8
0000
0000
0000
0000
,  // measure 9
0000
0000
0000
2000
,  // measure 10
0000
0000
0000
3000
0000
0200
0000
0000
,  // measure 11
0000
0300
0020
0000
,  // measure 12
0000
0030
0000
0002
0000
0000
0000
0000
,  // measure 13
0003
0000
2000
0000
0000
0000
0000
3000
,  // measure 14
0000
0020
0000
0000
0000
0000
0030
0000
,  // measure 15
0200
0000
0300
0000
,  // measure 16
0000
0010
0010
2000
,  // measure 17
0000
0000
0000
0000
0000
3100
0000
0000
,  // measure 18
0000
0100
0200
0000
,  // measure 19
0000
0000
0000
0310
0000
0000
0000
0000
,  // measure 20
0010
0020
0000
0000
,  // measure 21
0000
0031
0000
0000
0000
0000
0001
0000
,  // measure 22
0002
0000
0000
1003
,  // measure 23
0000
0000
0000
0010
,  // measure 24
0000
0000
1000
0000
,  // measure 25
0000
0100
1000
0100
,  // measure 26
1000
0000
0000
0001
,  // measure 27
0000
0000
1000
0000
,  // measure 28
0000
0010
0100
0010
,  // measure 29
0100
0000
0000
0001
,  // measure 30
0000
0000
0010
0000
,  // measure 31
0000
0100
1000
0100
,  // measure 32
1000
0000
0000
0001
,  // measure 33
0000
0001
0000
1000
,  // measure 34
0000
1000
0000
0100
,  // measure 35
0100
0000
0000
1000
0000
0000
0001
0000
,  // measure 36
0200
0000
0000
0310
,  // measure 37
0000
0110
0000
1001
,  // measure 38
0000
1000
0002
0000
,  // measure 39
0000
0013
0000
0110
,  // measure 40
0000
1001
0000
0002
,  // measure 41
0000
0003
1000
0100
,  // measure 42
2000
3000
0000
0001
,  // measure 43
0010
0002
0000
0003
,  // measure 44
0100
0000
0001
0000
1000
0000
0000
0001
,  // measure 45
0000
0010
0200
0000
,  // measure 46
0000
0000
0000
0000
,  // measure 47
0000
0000
0000
0300
,  // measure 48
0000
1000
0000
1000
,  // measure 49
0000
0010
0000
0010
,  // measure 50
0000
0100
0001
0001
,  // measure 51
1000
0000
0001
0000
,  // measure 52
1000
0001
1000
0000
,  // measure 53
0001
0000
0100
0000
,  // measure 54
0010
0010
0010
0000
,  // measure 55
1000
0000
0100
0000
,  // measure 56
0010
0010
0010
0000
,  // measure 57
0001
0000
0100
0000
,  // measure 58
0010
0100
0010
0000
,  // measure 59
0110
0000
0000
0000
,  // measure 60
0110
0000
0000
0000
,  // measure 61
1001
0000
0000
0000
,  // measure 62
1001
0000
0000
0000
,  // measure 63
0110
0000
0010
0000
,  // measure 64
1001
0000
0001
0000
,  // measure 65
1001
0000
1000
0000
,  // measure 66
0001
0001
0001
0001
,  // measure 67
0002
0000
0000
0000
,  // measure 68
0000
0000
0000
0000
,  // measure 69
0000
0000
0000
0000
,  // measure 70
0000
0000
0000
0000
,  // measure 71
2003
3000
0000
0000
,  // measure 72
0002
0003
0020
0030
,  // measure 73
0000
0000
0200
0300
,  // measure 74
2000
3000
0020
0030
,  // measure 75
0200
0300
0001
0000
,  // measure 76
0100
0000
0001
1000
,  // measure 77
0200
0300
0010
0000
,  // measure 78
0100
1000
0001
0000
,  // measure 79
1000
0001
1000
0000
,  // measure 80
0010
0010
0100
0000
,  // measure 81
0001
1000
0001
0000
,  // measure 82
0010
0010
0100
0000
,  // measure 83
1000
0001
1000
0000
,  // measure 84
0001
0001
0100
0000
,  // measure 85
0010
0100
0010
0000
,  // measure 86
1000
1000
0001
0000
,  // measure 87
0001
0001
0001
0000
,  // measure 88
0000
0001
0010
0100
,  // measure 89
1000
1000
1000
0000
,  // measure 90
0000
1000
0010
0100
,  // measure 91
0002
0000
1003
0000
,  // measure 92
0000
1000
0001
1000
,  // measure 93
0010
0010
0010
0010
,  // measure 94
1000
1000
1000
1000
,  // measure 95
2000
0000
3000
0000
,  // measure 96
0002
0000
0003
0000
,  // measure 97
0020
0000
0030
0000
,  // measure 98
0200
0000
0300
2000
,  // measure 99
0000
3000
0020
0000
,  // measure 100
0030
0000
0000
0000
;

//---------------dance-single - ----------------
#NOTES:
     dance-single:
     :
     Easy:
     10:
     0.351244,0.532750,0.148798,0.453479,0.095656,347.000000,326.000000,21.000000,64.000000,4.000000,0.000000,0.351244,0.532750,0.148798,0.453479,0.095656,347.000000,326.000000,21.000000,64.000000,4.000000,0.000000:
// measure 0
0000
0000
0000
0000
,  // measure 1
0000
0000
0000
0000
,  // measure 2
0000
0000
0000
0000
,  // measure 3
0000
0000
0000
0000
,  // measure 4
2000
0000
0000
0000
,  // measure 5
3002
0000
0000
0000
,  // measure 6
0103
0100
0100
0100
,  // measure 7
0010
0010
0010
0010
,  // measure 8
MMMM
0000
0000
0000
,  // measure 9
0000
0000
0001
2000
,  // measure 10
0000
3100
0000
0010
0000
1002
0000
0000
,  // measure 11
0103
0000
0010
0000
0102
0000
0000
0013
,  // measure 12
0000
0100
0000
2001
0000
0000
3010
0000
,  // measure 13
0100
0000
2010
0000
0000
3100
0000
0010
,  // measure 14
0000
1002
0000
0000
0103
0000
0001
0000
,  // measure 15
0120
0000
0000
1030
0000
2000
0000
3001
,  // measure 16
0010
0000
0200
0300
0200
0300
2000
0000
,  // measure 17
0000
0001
3000
0000
0001
0020
0000
0031
,  // measure 18
0010
0000
0010
0000
0002
0000
0000
1000
,  // measure 19
0003
0000
1000
0020
0000
1030
0010
0000
,  // measure 20
0010
0000
2000
0000
0000
0001
3000
0000
,  // measure 21
0001
0200
0000
0301
0100
0000
0100
0000
,  // measure 22
0002
0000
0000
1000
0003
0001
0020
0000
,  // measure 23
0000
0000
0130
0020
,  // measure 24
0000
0000
0230
0300
2000
3000
0020
0030
,  // measure 25
0200
0300
0200
0300
0002
0003
2000
0000
,  // measure 26
3010
0000
0000
0000
0010
1000
0002
0000
,  // measure 27
0003
0020
0000
0030
0200
0300
0020
0030
,  // measure 28
0002
0003
2000
3000
0010
1000
0000
0010
,  // measure 29
0100
0010
0000
0000
2000
3000
0200
0000
,  // measure 30
0000
1300
0200
0310
,  // measure 31
0010
0001
2000
0000
0001
0000
3010
0000
,  // measure 32
0100
0001
0100
0001
,  // measure 33
1000
0100
0010
0100
,  // measure 34
1000
0010
0100
0010
,  // measure 35
2000
0000
0000
3002
0000
0000
1003
0000
,  // measure 36
2000
0000
0000
0001
0000
0000
3010
0000
,  // measure 37
0100
0110
0000
1001
,  // measure 38
0000
0000
0001
0010
0002
0000
0000
1000
,  // measure 39
0000
0013
0100
0110
,  // measure 40
0000
1001
0001
2000
,  // measure 41
3100
1000
0100
0010
,  // measure 42
0002
0103
0001
1000
,  // measure 43
0010
0200
0310
1000
,  // measure 44
0100
0010
0100
0000
1000
0000
0000
1000
,  // measure 45
0000
0010
0200
0000
,  // measure 46
0000
0000
0000
0000
,  // measure 47
0000
0000
0000
0300
,  // measure 48
0000
0010
0010
1000
,  // measure 49
1000
0001
0001
1000
,  // measure 50
1000
0010
0100
0010
,  // measure 51
1000
0000
0001
0100
0000
0000
0001
0000
,  // measure 52
1000
0000
0100
0010
0000
0000
0100
0000
,  // measure 53
1000
0000
0100
0010
0000
0000
0001
0000
,  // measure 54
0100
0001
1000
0100
,  // measure 55
0010
0000
0000
0001
0000
0000
0100
0000
,  // measure 56
0100
0010
1000
0100
,  // measure 57
0010
0100
1000
0001
,  // measure 58
0100
0000
0001
0000
0100
0010
0100
0000
,  // measure 59
1010
0000
0010
0000
0000
0101
0000
0000
,  // measure 60
0011
0000
0010
0000
0000
1100
0000
0000
,  // measure 61
1100
0000
0100
0000
0000
0011
0000
0000
,  // measure 62
0101
0000
0100
0000
0000
1010
0000
0000
,  // measure 63
1001
0000
0000
0000
0000
0000
0000
0000
0001
0000
0000
0001
0000
0000
0001
0000
,  // measure 64
0010
0000
0000
0000
0000
0000
0000
0000
0100
0000
0000
0100
0000
0000
0100
0000
,  // measure 65
1000
0000
0000
0000
0000
0000
0000
0000
0010
0000
0000
0010
0000
0000
0010
0000
,  // measure 66
1000
1000
0001
0001
,  // measure 67
0200
0000
0000
0000
,  // measure 68
0000
0000
0000
0000
,  // measure 69
0000
0000
0000
0000
,  // measure 70
0000
0000
0000
0000
,  // measure 71
0302
0000
0000
0000
,  // measure 72
0000
0000
0000
0000
,  // measure 73
0103
0000
0000
0000
0100
0000
0000
0000
0100
0000
0000
0000
,  // measure 74
0010
0000
0000
1000
,  // measure 75
0001
0000
0010
0000
,  // measure 76
0100
0000
1000
0000
0100
0000
1000
0000
0000
0010
0000
0000
,  // measure 77
0110
0000
0000
0000
0001
0100
0001
0000
,  // measure 78
1000
0001
1001
0000
,  // measure 79
2000
0000
0000
0010
0000
0000
3001
0000
0100
0000
0001
0000
,  // measure 80
0100
0000
0010
0000
1000
0001
0000
1000
,  // measure 81
0200
0000
0000
0010
0000
0000
1300
0000
0100
0000
1000
0000
,  // measure 82
0001
0000
0100
0000
0001
0010
0000
0001
,  // measure 83
2000
0000
0000
0010
0000
0000
3100
0000
0010
0000
0100
0000
,  // measure 84
1000
0000
0100
0000
0010
0001
1000
0000
,  // measure 85
0002
0000
0000
0010
0000
0000
1003
0000
0010
0000
1000
0000
,  // measure 86
0010
0000
0100
0000
0010
0000
1000
0000
0001
0000
0001
0000
,  // measure 87
2000
0000
0000
0100
0000
0000
3001
0000
0100
0000
0002
0000
,  // measure 88
0000
0000
0000
0103
0000
0000
0010
0000
0100
0000
0001
0000
,  // measure 89
0002
0000
0000
0010
0000
0000
1003
0000
0010
0000
2000
0000
,  // measure 90
0000
0000
3010
0000
0100
0010
1000
0000
,  // measure 91
0002
0000
0000
0000
0000
0000
0013
0000
0100
0000
2000
0000
,  // measure 92
0000
0000
3100
0000
0010
0000
0001
1000
,  // measure 93
0010
1000
0010
0000
0100
0001
0100
0000
,  // measure 94
0001
1000
0001
1000
0100
1000
0100
0010
,  // measure 95
0002
0000
0100
0000
,  // measure 96
2003
0000
0100
0000
,  // measure 97
3020
0000
0100
0000
,  // measure 98
2030
0000
0000
3002
,  // measure 99
0000
0000
0023
0000
,  // measure 100
0000
0030
0000
0000
;
