#TITLE:Dive;
#SUBTITLE:;
#ARTIST:Hitomi Toi;
#TITLETRANSLIT:;
#SUBTITLETRANSLIT:;
#ARTISTTRANSLIT:;
#GENRE:City Pop;
#CREDIT:NOWHERE Dance Club;
#MUSIC:Dive.ogg;
#BANNER:Dive.png;
#BACKGROUND:Dive-bg.png;
#CDTITLE:cdtitle.png;
#SAMPLESTART:79.105;
#SAMPLELENGTH:17.438;
#SELECTABLE:YES;
#OFFSET:-0.224;
#BPMS:0.000=110.103;
#STOPS:;
#DISPLAYBPM:110.000;
#BGCHANGES:-0.441=Dive.avi=0.000=0=0=1=====,
99999=-nosongbg-=1.000=0=0=0 // don't automatically add -songbackground- ;
;
#FGCHANGES:;

//--------------- dance-single - NOWHERE Dance Club ----------------
#NOTES:
     dance-single:
     NOWHERE Dance Club:
     Beginner:
     4:
     0,0,0,0,0:
0000
0000
0000
0000
,
0000
0000
0000
0000
,
0000
0000
0000
0000
,
0000
0000
0000
2000
,
3002
0103
0000
0001
,
1000
0100
0000
1000
,
0100
0010
0000
0001
,
0100
0010
0000
1000
,
0100
0010
0100
0010
,
0001
1000
0000
0010
,
1000
0100
0010
0001
,
0100
0001
0000
0010
,
0002
1003
1000
0001
,
0000
1000
0000
1000
,
0010
0100
0000
0100
,
0000
0000
0010
0000
0000
0010
0010
0000
,
0100
0001
0100
0010
,
1000
0100
1000
0100
,
0100
0010
0001
0100
,
0001
0000
0010
0000
0100
0000
0010
0100
,
0100
0010
0001
0100
,
0001
1000
0100
0010
,
0010
0001
0100
0001
,
1000
0100
0010
0010
,
0001
0100
0010
0010
,
0010
1000
0100
0010
,
0001
0000
1000
0010
0010
0000
0100
0000
,
0001
0000
1000
0000
0001
0001
1000
0000
,
2002
3003
0001
0000
0000
0000
1000
0000
,
0010
0010
1000
0000
0010
0000
1000
0000
,
0100
0010
0001
0100
,
0001
1000
0010
0100
,
0010
1000
0001
0000
0010
0000
0001
0000
,
0100
0001
1000
0100
,
0010
0001
0010
0000
0001
0000
0100
0000
,
0010
0000
0100
0010
0100
0010
1000
0010
,
1000
2002
0000
3003
,
1000
0100
1000
0001
,
0100
0010
1000
0100
,
0010
0001
0100
0010
,
0100
0220
0000
0330
,
0010
0100
0001
1000
,
0100
0010
0001
0100
,
0010
1000
0100
1000
,
0001
2002
0000
3003
,
0001
0100
0001
1000
,
0100
0000
1000
0000
0100
0010
0001
0000
,
1000
0000
0001
0000
0100
0010
1000
0000
,
0010
0220
0000
0330
,
1001
2002
0000
3003
,
0001
0000
0100
0010
0010
0000
1000
0000
,
0100
0000
0010
0001
0001
0000
0100
0000
,
0010
0110
0010
1000
,
1010
2000
0100
3001
,
1001
0101
0010
1000
,
0100
0000
0010
0000
0001
0100
0100
0000
,
0001
1001
0001
0100
,
0001
1000
0100
1000
,
0010
2020
0000
0000
,
3000
0000
0000
0000
0000
0030
0000
0000
;

//--------------- dance-single - NOWHERE Dance Club ----------------
#NOTES:
     dance-single:
     NOWHERE Dance Club:
     Easy:
     7:
     0,0,0,0,0:
0000
0000
0000
0000
,
0000
0000
0000
0000
,
0000
0000
0000
0000
,
0000
0000
0000
0000
0000
0000
1000
0001
,
1000
0001
0100
0000
0010
0000
1000
0000
,
1000
0100
0010
0001
,
0001
0100
0001
0010
,
0010
0001
0100
0010
,
0010
1000
0100
1000
,
1000
0001
0100
0001
,
0001
0010
0100
0010
,
0010
0001
0100
0010
,
0010
1000
0100
0010
,
0001
0100
0001
1000
,
0100
0010
0100
1000
,
0100
1000
0001
0100
,
0010
0100
0010
1000
,
0010
1000
0001
0100
,
0001
0010
0001
0100
,
0010
0000
1000
0000
1000
0000
0002
0100
,
0103
0001
0100
0010
,
1000
0010
0100
0001
,
1000
0100
0010
0001
,
0010
0100
1000
0001
,
0001
0100
0010
0100
,
0010
1000
0010
1000
,
0100
1000
0010
1000
,
0001
0000
0100
0000
0010
0000
2000
0010
,
3010
0000
1001
0000
1000
0000
0001
0100
,
0001
0100
0010
0000
0100
0000
0010
0000
,
1000
0001
0010
0000
0001
0000
0100
0000
,
0010
1000
0001
0000
1000
0000
0100
0000
,
0010
0000
0001
0000
0001
0000
0100
0010
,
0100
0000
0010
0000
0010
0000
1000
0100
,
0010
0001
1000
0000
0100
0000
0001
0000
,
0100
2000
0001
3001
,
1000
0000
2002
3003
0001
0000
0100
0000
,
0100
0001
1000
0100
,
0100
1000
0100
0010
,
0001
0100
0010
1000
,
1000
0000
2002
3003
1000
0000
0010
0000
,
0010
1000
0001
0010
,
0010
0001
0100
0010
,
1000
0100
0010
0001
,
0001
0000
2002
3003
1000
0000
0100
0000
,
0001
0100
1000
0001
,
0010
0001
0100
0010
,
1000
0000
0100
0000
0010
0000
0001
1000
,
0001
1000
0010
0001
,
0010
1000
0001
0100
,
0001
1000
0100
0010
,
0001
0100
0010
1000
,
1000
0001
0010
0001
,
0011
0001
0100
0010
,
2010
3001
1000
0100
,
1000
0000
0100
0000
0010
0000
0001
1000
,
0001
0200
0000
0000
,
0000
0320
0000
0000
,
0000
2030
0000
0000
,
0000
0000
3002
0000
0000
0003
0000
0000
;

//--------------- dance-single - NOWHERE Dance Club ----------------
#NOTES:
     dance-single:
     NOWHERE Dance Club:
     Medium:
     9:
     0,0,0,0,0:
0000
0000
0000
0000
,
0000
0000
0000
0000
,
0000
0000
0000
0000
,
0000
0000
0000
0000
0000
0000
1000
0100
,
0010
0001
0000
0001
0100
0000
0010
0000
0100
0000
0010
0000
0010
0000
0000
1000
,
0000
0000
0000
0000
0001
0000
0010
0000
0001
0000
0100
0000
0010
0000
0000
0010
,
1000
0000
0100
0000
0010
0000
0001
0000
0100
0000
0001
0000
0010
0000
0000
0001
,
0000
0000
0000
0000
1000
0000
0010
0000
0100
0000
0001
0000
0010
0000
0000
0010
,
0100
0000
0000
0000
0010
0000
0001
0000
0100
0000
0010
0000
1000
0000
0000
0010
,
0000
0000
0000
0000
1000
0000
0100
0000
0010
0000
0001
0000
0010
0000
0000
0010
,
0001
0000
0000
0000
0010
0000
0001
0000
0100
0000
0010
0000
0100
0000
0000
0010
,
1000
0000
0000
0000
0001
0000
0000
0000
0100
0000
0010
0000
1000
0000
0000
1000
,
0001
0000
0001
1000
0001
0000
0000
0000
0100
0000
0000
0000
0010
0000
0000
0000
,
0100
0000
0020
0000
1000
0000
0000
0000
0001
0000
0000
0000
1030
0000
0000
0001
,
0010
0200
1000
0001
,
1300
0000
0000
0000
0001
0000
0000
0000
0100
0000
0010
0000
1000
0000
0000
1000
,
0010
0000
2000
0000
3010
0100
0002
0000
,
0013
1000
0020
0000
0031
1000
0002
0000
,
0103
1000
0200
0000
0301
1000
0200
0000
,
0310
0001
2000
0000
3010
0100
0001
1000
,
0010
1000
0000
0000
0100
0000
0000
0000
0010
0000
0000
0000
0001
0000
0100
0000
,
0010
0000
0010
0000
1000
0000
0001
0000
1000
0000
0100
0000
0010
0000
0000
0001
,
1000
0000
0001
0000
1000
0100
0001
0100
,
1000
0000
0001
0000
1000
0000
0010
0000
0001
0000
0010
0000
1000
0000
0000
1000
,
0001
0000
0000
0000
0200
0000
0000
0000
0301
0000
0010
0000
0100
1000
0000
0000
,
1000
0001
0000
0000
0200
0000
0000
0000
0310
0000
0100
0000
0002
0000
0000
0000
,
2003
0000
3010
0001
0010
1000
0100
0001
,
0100
1000
0001
0010
0100
1000
0001
0010
,
0012
0000
0103
0000
0010
0000
0100
0010
,
1000
0010
0100
0000
0010
0000
2020
3030
,
0202
0303
0001
0100
0010
0100
0001
1000
,
0100
1000
0010
1000
0100
0010
0012
0000
,
1003
0000
0001
0010
1000
0010
0001
0100
,
1000
0100
0001
1000
0100
0010
0001
0100
,
0010
1000
0002
0000
1003
0000
2000
0000
,
3100
0010
0200
0000
0310
0000
0110
0000
,
1001
0000
0000
2002
0000
0000
3003
0000
0001
0000
1000
0000
0001
0000
0000
0000
,
0200
0000
0000
0310
0000
0000
1000
0000
0100
0000
0100
0000
0010
0000
0000
0000
,
0002
0000
0013
0010
0001
0100
0020
0000
,
1030
0000
0000
1000
0000
0000
0100
0000
0010
0000
0001
0000
0101
0000
0000
0000
,
1001
0000
0000
2010
0000
0000
0000
0000
3010
0000
0000
0000
1000
0000
0000
0000
,
0100
0010
0001
0000
0100
0000
0010
0000
,
2000
0000
3010
0010
1000
0100
0020
0000
,
0031
0000
0000
0001
0000
0000
0100
0000
0010
0000
1000
0000
1100
0000
0000
0000
,
1001
0000
0000
0011
0000
0000
0001
0000
0100
0000
0100
0000
0020
0000
0000
0000
,
1030
0000
0000
1000
0000
0000
0100
0000
0010
0000
0010
0000
0002
0000
0000
0000
,
0103
0000
0000
0210
0000
0000
0310
0000
1000
0000
0100
0000
0010
0000
0000
0000
,
0200
0000
0000
1300
0000
0000
0010
0000
1000
0000
0001
0000
1000
0001
1000
0001
,
1000
0000
0000
1001
0000
0000
0001
0000
0100
0000
0100
0000
0020
0000
0000
0000
,
1030
0000
0000
0100
0000
0000
0010
0000
0010
0000
0001
0000
2000
0000
0000
0000
,
3020
0000
0000
0130
0000
0000
0010
0000
1000
0000
0001
0000
1000
0000
0000
0000
,
0001
0000
0000
0010
0000
0000
0001
0000
0010
0000
0001
0000
0100
0000
0010
0000
,
1000
0001
0000
1001
0000
0000
0000
0000
0001
0000
0001
0000
0100
0000
0000
0000
,
0110
0010
1000
0100
,
0110
0000
0000
1001
0000
0000
0001
0000
0100
0000
0010
0000
1000
0000
0001
0000
,
1000
0000
0000
0010
0000
0000
1000
0000
0100
0000
0010
0000
0001
0010
0000
0001
,
0000
0010
0000
0021
0000
0000
0000
0000
0000
0000
0000
0000
0000
0000
0000
0000
,
0031
0000
0000
0200
0000
0000
0000
0000
0000
0000
0000
0000
0000
0000
0000
0000
,
0310
0000
0000
2020
0000
0000
0000
0000
0000
0000
0000
0000
0000
0000
0000
0000
,
0000
0000
0030
0000
0000
3000
0000
0000
;

//--------------- dance-single - NOWHERE Dance Club ----------------
#NOTES:
     dance-single:
     NOWHERE Dance Club:
     Hard:
     12:
     0,0,0,0,0:
0000
0000
0000
0000
,
0000
0000
0000
0000
,
0000
0000
0000
0000
,
0000
0000
0000
0000
0000
0000
1000
1010
,
0001
0011
0000
0001
0100
0000
0010
0000
1000
0000
0100
0000
0010
0000
0000
0001
,
0000
0000
0100
0010
1000
0000
0010
0000
1000
0000
0100
0000
0010
0000
0000
0001
,
1000
0000
0010
1000
0100
0000
0010
0000
0001
0000
0100
0000
0001
0000
0000
0100
,
0000
0000
0010
1000
0010
0000
1000
0000
0100
0000
0010
0000
0001
0000
0000
0010
,
0001
0000
0100
0001
0100
0000
0010
0000
1000
0000
0100
0000
0010
0000
0000
0010
,
0001
0000
0100
1000
0100
0000
0001
0000
1000
0000
0100
0000
0010
0000
0000
0010
,
0001
0000
0000
0000
0010
0000
0001
0000
0010
0000
0001
0000
0100
0000
0000
0010
,
1000
0000
0100
0001
0100
0000
1000
0000
0001
0000
0100
0000
0020
0000
0000
0000
,
1030
0000
0100
0010
0002
0000
1003
0000
0010
0000
1000
0000
0200
0000
0310
0000
,
0001
0000
0010
0001
0200
0000
0301
0000
0010
0000
1000
0000
0020
0000
0000
0031
,
1000
0001
2000
3001
0100
0001
0020
0130
,
1000
0000
0100
1000
0020
0000
1030
0000
0100
0000
0001
0000
0200
0000
0000
1300
,
0001
0000
1000
0000
0001
0000
0010
0000
1000
0000
0010
0001
0100
0000
0010
0000
,
1000
0000
0100
0001
0100
0000
1000
0000
0010
0000
0001
0010
1000
0000
0001
0000
,
0010
0000
1000
0010
0001
0000
1000
0000
0010
0000
1000
0100
0001
0000
0100
0000
,
1000
0001
0100
0010
1000
0100
0020
0001
,
0031
0100
0000
0000
0001
0000
0200
0000
1000
0000
0301
0000
1000
0000
0020
0000
,
0001
0000
1030
0000
0001
0000
0100
0000
0010
0000
0100
0000
0020
0000
0000
1030
,
0002
0000
1003
0020
0001
1030
0001
0200
,
1000
0000
0301
0000
1000
0000
0010
0000
1000
0000
0010
0000
0200
0000
0000
0301
,
1000
0000
0100
0000
0010
0000
0001
0000
0010
0000
0001
0000
0100
0010
0000
0000
,
0010
1000
0000
0000
2020
0000
3030
0000
0010
0000
1000
0000
0200
0000
0300
0000
,
0010
0001
2000
3000
0010
1000
0002
0003
,
0010
0001
0200
0300
0010
1000
0200
0010
,
0320
0000
0031
0010
0002
0000
0000
0000
1003
0000
0000
0000
0010
0000
1000
0000
,
0100
0000
0010
0001
1000
0000
0010
0000
1000
0000
0100
0010
0002
0000
0000
0000
,
0103
0000
0000
0000
1010
0000
1000
0000
0010
0000
1000
0100
0010
0000
0100
0000
,
0010
0000
0100
0010
0001
0000
0010
0000
0011
0000
0001
0010
0002
0000
1000
0000
,
2003
0000
0010
0000
3010
0000
0100
0010
2000
0000
3100
0000
0010
0000
0001
0010
,
0002
0000
0103
0000
0010
0000
1000
0010
2000
0000
3001
0000
0010
0000
0001
0100
,
0020
1030
0002
0000
0023
0100
0230
0000
,
2300
0000
3002
0100
0103
0000
0110
0000
,
1010
0000
0000
2002
0000
0000
3003
0000
0001
0000
0010
0000
0010
0000
0000
0000
,
0001
0000
0000
0200
0000
0000
1000
0000
1000
0000
0301
0000
1000
0000
0100
0000
,
0010
0001
0000
0010
0000
0001
0100
0000
0010
0000
1000
0000
1010
0000
0000
0000
,
1000
0000
0000
0100
0000
0010
0001
0000
0100
0000
0001
0000
0101
0000
0000
0000
,
0110
0000
0000
2020
0000
0000
3030
0000
1000
0000
0010
0000
0010
0000
0000
0000
,
1000
0000
0000
0200
0000
0000
0001
0000
0001
0000
1300
0000
0001
0000
0100
0000
,
0010
0000
1000
0010
0000
1000
0100
0000
0010
0000
0001
0000
0010
0000
0000
0000
,
0001
0000
0000
0100
0000
0010
1000
0000
0100
0000
1000
0000
0010
1000
0010
1000
,
0100
0010
0000
0022
0000
0000
0033
0000
0001
0000
0010
0000
0010
0000
0000
0000
,
0002
0000
0000
0203
0000
0000
2300
0000
3002
0000
0023
0000
2030
0000
0000
0000
,
3001
0000
0000
0010
0000
0001
0100
0000
0010
0000
1000
0000
1010
0000
0000
0000
,
1000
0000
0000
0100
0000
0010
0001
0000
0100
0000
0001
0000
0010
0001
0010
0001
,
0100
0010
0000
2020
0000
0000
3030
0000
1000
0000
0010
0000
0010
0000
0000
0000
,
2000
0000
0000
3200
0000
0000
0302
0000
2003
0000
3020
0000
0031
0000
0000
0000
,
1000
0000
0000
0010
0000
1000
0100
0000
0010
0000
0001
0000
0010
0000
0000
0000
,
0001
0000
0000
0100
0000
0010
1000
0000
0100
0000
1000
0000
0001
0000
0100
0000
,
0010
1000
0000
0002
0000
0000
0000
0000
0100
0000
1000
0000
1003
0000
0000
0000
,
1010
0000
0000
2000
0000
0100
0000
0000
0001
0000
0100
0000
3001
0000
0000
0000
,
1001
0000
0000
0022
0000
0000
0033
0000
0001
0000
0001
0000
0100
0000
0000
0000
,
0010
0000
1000
0100
0010
0000
0000
0001
0000
0000
0100
0000
0010
1000
0000
0100
,
0000
0010
0000
0002
0000
0000
0000
0000
0000
0000
0000
0000
0000
0000
0000
0000
,
0103
0000
0000
0020
0000
0000
0000
0000
0000
0000
0000
0000
0000
0000
0000
0000
,
1030
0000
0000
0002
0000
0000
0000
0000
0000
0000
0000
0000
0000
0000
0000
0000
,
0000
0000
0000
0000
0000
0003
0000
0000
;
