#VERSION:0.83;
#TITLE:Disco Break;
#SUBTITLE:;
#ARTIST:Art of Hot;
#TITLETRANSLIT:;
#SUBTITLETRANSLIT:;
#ARTISTTRANSLIT:;
#GENRE:;
#CREDIT:TEAM DREAM TEAM (NDC + Venomothim);
#MUSIC:Disco Break.ogg;
#BANNER:Disco Break.png;
#BACKGROUND:Disco Break-bg.png;
#CDTITLE:;
#SAMPLESTART:53.547;
#SAMPLELENGTH:15.000;
#SELECTABLE:YES;
#OFFSET:0.000;
#BPMS:0.000=129.990;
#STOPS:;
#SPEEDS:0.000=1.000=0.000=0;
#SCROLLS:0.000=1.000;
#TICKCOUNTS:0.000=4;
#TIMESIGNATURES:0.000=4=4;
#LABELS:0.000=Song Start;
#COMBOS:0.000=1;
#DISPLAYBPM:130.000;
#ORIGIN:;
#PREVIEWVID:;
#JACKET:Disco Break-jacket.png;
#CDIMAGE:;
#DISCIMAGE:;
#BGCHANGES:;
#FGCHANGES:;

//--------------- dance-single - Venomothim ----------------
#NOTEDATA:;
#STEPSTYPE:dance-single;
#DESCRIPTION:Venomothim;
#DIFFICULTY:Beginner;
#METER:3;
#RADARVALUES:0.123069,0.184803,0.009263,0.018527,0,93,92,1,2,0,0,0,0,0,0.123069,0.184803,0.009263,0.018527,0,93,92,1,2,0,0,0,0,0;
#DISPLAYBPM:130.000;
#CHARTNAME:;
#CHARTSTYLE:;
#CREDIT:Team Dream Team;
#NOTES:
0000
0000
0000
0000
,
0000
0000
0000
0000
,
0000
0000
0000
0000
,
0000
0000
0000
0000
,
0000
0000
0000
0000
,
1000
1000
1000
0000
,
0001
0000
0001
0000
,
0100
0000
0100
0000
,
0010
0000
0010
0000
,
0100
0000
0100
0000
,
0001
0000
0000
0000
,
0001
0000
0001
0000
,
0010
0000
0000
0000
,
0100
0000
0100
0000
,
1000
0000
0000
0000
,
1000
0000
1000
0000
,
0001
0001
0001
0000
,
1000
0000
0000
0000
,
0100
0000
0000
0000
,
0010
0000
0000
0000
,
0001
0000
0000
0000
,
1000
0000
1000
0000
,
0010
0000
0010
0000
,
0100
0000
0100
0000
,
0001
0000
0001
0000
,
1000
0000
0000
0000
,
0100
0000
0000
0000
,
0010
0000
0000
0000
,
0001
0000
0000
0000
,
1000
1000
1000
0000
,
0001
0000
0000
0000
,
0100
0100
0000
0000
,
0010
0000
0010
0000
,
0100
0000
0100
0000
,
0001
0000
0001
0000
,
2000
0000
3000
0000
,
0100
0000
0100
0000
,
1000
0000
1000
0000
,
0010
0000
0010
0000
,
0200
0000
0300
0000
,
0001
0000
0001
0000
,
1000
0000
0000
0000
,
0100
0000
0000
0000
,
0010
0000
0000
0000
,
0001
0000
0000
0000
,
0100
0000
0100
0000
,
0010
0000
0010
0000
,
1000
0000
1000
0000
,
0000
0000
0000
0000
,
0001
0001
0001
0000
,
0100
0000
0100
0000
,
0010
0010
0010
0000
,
1000
0000
1000
0000
,
0100
0100
0100
0000
,
1000
0000
1000
0000
,
0001
0001
0001
0000
,
0100
0000
0100
0000
,
1001
0000
0000
0000
;

//--------------- dance-single - Venomothim ----------------
#NOTEDATA:;
#STEPSTYPE:dance-single;
#DESCRIPTION:Venomothim;
#DIFFICULTY:Easy;
#METER:6;
#RADARVALUES:0.240846,0.290404,0.02779,0.018527,0,182,179,3,2,0,0,0,0,0,0.240846,0.290404,0.02779,0.018527,0,182,179,3,2,0,0,0,0,0;
#DISPLAYBPM:130.000;
#CHARTNAME:;
#CHARTSTYLE:;
#CREDIT:Team Dream Team;
#NOTES:
0000
0000
0000
0000
,
0000
0000
0000
0000
,
0000
0000
0000
0000
,
0000
0000
0000
0000
,
0000
0000
0000
0000
,
1000
1000
1000
0000
,
0001
0000
0100
0000
,
0010
0000
0010
0000
,
0100
0000
0100
0000
,
0001
0010
0100
0000
,
1000
0010
0100
0000
,
0001
1000
0100
0000
,
1000
0001
0100
0000
,
0010
0010
1000
0100
,
0010
0010
0001
0100
,
0001
0001
1000
0100
,
1000
1000
0001
0010
,
0000
0001
0000
0001
0000
1000
0000
1000
,
0000
0010
0000
0010
0000
0000
0000
0100
,
0000
0000
0100
0000
0000
0001
0000
0001
,
0000
0010
0000
0000
0010
0000
0100
0000
,
1000
1000
0010
0100
,
0001
0001
0010
0100
,
1000
1000
0001
0100
,
0001
0001
1000
0100
,
1000
0010
0100
0001
,
1000
0010
0100
0001
,
1000
1000
0100
0100
,
0010
0001
0110
1001
,
0001
0100
0001
0000
,
1000
0000
1000
0000
,
0100
0100
1000
0000
,
0010
0000
0010
0000
,
0100
0100
0010
0010
,
1000
0100
0010
0001
,
0200
0000
0310
0000
,
0100
0001
0010
0000
,
0100
0100
1000
0000
,
0001
1000
0010
0000
0000
0000
0000
0000
,
0200
0000
0301
0000
,
1000
0000
1000
0000
,
0001
0001
0010
0100
,
1000
1000
0001
0001
,
1000
1000
0010
0010
,
0100
0100
0001
0001
,
1000
0100
1000
0000
0001
0000
0010
0000
,
0001
0100
0010
0100
,
0001
0001
0000
0000
1000
1000
0000
0000
,
0100
0000
0000
0000
,
1000
1000
0010
0000
0100
0000
0001
0000
,
0010
0100
1000
0010
,
0100
0100
0001
0000
0010
0000
0100
0000
,
1000
0010
0100
0000
,
0001
0010
0100
1000
,
0010
0100
0001
1000
,
0100
1000
0010
0100
,
0001
0010
0100
0100
,
1001
0000
0000
0000
;

//--------------- dance-single - Venomothim ----------------
#NOTEDATA:;
#STEPSTYPE:dance-single;
#DESCRIPTION:Venomothim;
#DIFFICULTY:Medium;
#METER:10;
#RADARVALUES:0.415525,0.452743,0.101896,0.111159,0,314,303,11,12,0,0,0,0,0,0.415525,0.452743,0.101896,0.111159,0,314,303,11,12,0,0,0,0,0;
#DISPLAYBPM:130.000;
#CHARTNAME:;
#CHARTSTYLE:;
#CREDIT:Team Dream Team;
#NOTES:
0000
0000
0000
0000
,
0000
0000
0000
0000
,
0000
0000
0000
0000
,
0000
0000
0000
0000
,
0000
0000
0000
0000
,
1000
1000
0001
0100
,
0010
0100
0001
1000
,
0001
0010
0100
1000
,
0010
0010
0100
0000
0001
0001
1000
0000
,
0100
1000
0010
0200
0000
0001
0301
0000
,
1000
1100
0001
0011
,
0010
0001
0100
0020
0000
1000
1030
0000
,
0001
0011
1000
1100
,
0001
0100
0001
1000
0010
0000
1000
0000
,
0100
1000
0001
0010
0001
0000
1000
0000
,
0010
0100
0001
0010
0100
0000
1000
0000
,
0001
0000
0001
0000
1000
0000
1000
0001
,
0000
0100
0000
0100
0000
0001
0000
1000
,
0000
0100
0000
1000
0010
0100
0000
0010
,
0000
1000
0001
0000
0010
0100
0000
0010
,
0000
0001
0000
1000
0010
0100
0000
0010
,
1000
0100
1000
0000
0001
0010
0001
0100
,
0000
0010
0000
0100
0001
1000
0000
0100
,
0000
1000
0000
0010
0100
0010
1000
0001
,
0000
0010
0000
0001
0000
0100
0000
0010
,
1000
0000
0100
0010
0001
0000
0100
0010
,
0100
0001
1000
0100
1000
0000
0001
0100
,
0010
1001
0100
1001
,
0010
1001
0100
1001
,
1000
0100
1000
0001
1000
0010
1000
0001
,
1000
0000
1000
0000
0000
0010
1000
0000
,
0001
0100
0001
0010
0000
0001
0100
0001
,
0010
1100
0010
0101
,
0001
0010
0100
1000
0001
0100
0010
1000
,
0200
0000
0320
0000
0032
0000
1003
0010
,
0100
0010
1000
0000
0100
0010
0001
0000
,
1000
0010
0100
0000
0001
0010
0100
0000
,
1000
1000
0001
0000
0001
0001
1000
0000
,
0020
0230
0302
0003
1000
0100
0010
0100
,
1000
0001
0100
0000
0001
1000
0100
0000
,
0010
0001
0100
0000
0010
1000
0100
0000
,
0010
0010
0001
0001
0100
0100
0010
0010
,
0000
1000
0000
0100
1000
1000
0000
0010
,
1000
1000
0001
0001
0100
0100
0010
0010
,
0000
0100
0000
0001
1000
0100
0000
0100
,
1000
1000
0001
0001
0010
0001
1000
0010
,
0000
0100
0000
0001
1000
1000
0001
0001
,
1000
1000
0100
0000
0010
0002
0000
2000
,
0000
0000
0000
3003
,
0001
0100
0010
1000
0100
0001
0100
1000
,
0001
0100
1000
0100
0010
1000
0001
0000
,
1000
0100
0010
0001
1000
0010
0001
0010
,
1000
0001
0010
1000
0010
0001
1000
0000
,
0001
0010
0100
1000
0010
0100
0001
1000
,
0100
0010
0001
0100
0010
0100
0001
0000
,
1000
0100
0010
0100
1000
0010
0100
0001
,
1000
0100
0010
0001
0100
0010
1000
0000
,
2002
0000
3003
0000
;

//--------------- dance-single - Venomothim ----------------
#NOTEDATA:;
#STEPSTYPE:dance-single;
#DESCRIPTION:Venomothim;
#DIFFICULTY:Hard;
#METER:14;
#RADARVALUES:0.565061,0.639167,0.129686,0.194529,0.268635,427,413,14,21,0,0,0,0,0,0.565061,0.639167,0.129686,0.194529,0.268635,427,413,14,21,0,0,0,0,0;
#DISPLAYBPM:130.000;
#CHARTNAME:;
#CHARTSTYLE:;
#CREDIT:Team Dream Team;
#NOTES:
0000
0000
0000
0000
,
0000
0000
0000
0000
,
0000
0000
0000
0000
,
0000
0000
0000
0000
,
0000
0000
0000
0000
,
1000
0100
1000
0100
0010
0001
0010
0001
,
0100
0010
0001
0010
1000
0001
0110
0000
,
0001
0010
0001
0010
1000
0010
0001
1000
,
0001
0001
0100
0010
1000
1000
0001
0000
,
1000
0000
0000
0100
0010
0000
0002
0000
0000
0000
1000
0000
1003
0000
0001
0100
,
0001
1000
0000
1000
0100
0000
0010
0000
0000
0000
0100
0000
0010
0000
0000
0000
,
0001
0000
0000
0100
0010
0000
2000
0000
0000
0000
0001
0000
3001
0000
1000
0100
,
1000
0010
0000
0010
0100
0000
0001
0000
0000
2000
3000
2000
3000
2000
3000
0000
,
0001
0000
0010
0100
0010
0000
0001
1000
0001
0000
0100
0000
0100
0000
0010
1000
,
0001
0000
1000
0000
0100
0000
0010
0100
0010
0000
0100
0000
1000
0000
0001
0100
,
0001
0000
1000
0000
0100
0000
0010
0001
0100
0000
0010
0000
1000
0000
0100
0010
,
0001
0000
1000
0000
0010
0000
0100
0000
0001
1000
0001
1000
0001
0010
0100
2000
,
0000
0010
0000
0100
0000
0010
0000
0001
,
0000
0100
0000
0010
0010
0010
0000
3002
,
0000
0100
0100
0000
0010
0010
0000
1000
,
0000
0100
0000
0010
0010
0010
0000
1003
,
0001
0010
0001
0010
0001
0000
0100
0000
0010
0000
0010
0000
1000
0000
0100
0000
,
1000
0010
0100
0001
0010
0010
0001
1000
,
0100
1000
0010
0100
0001
0001
0010
0100
,
1000
0001
0100
0010
0100
0001
1000
0000
,
0001
0000
0100
0000
0010
0000
0100
0000
0001
0000
0000
0000
1000
0100
1000
0100
,
0010
0100
1000
0100
0001
0000
0100
1000
,
0001
1010
1000
0011
,
0100
0110
0110
1001
,
0001
0010
1000
0001
0100
1000
0010
0100
,
1000
0100
0001
2000
0000
0001
3001
0000
,
0011
1100
1001
1000
0000
0100
0001
0100
,
0010
0001
1000
1000
0010
0100
0001
0000
,
1000
0000
0100
0000
1000
0000
0001
0100
0001
0000
0010
0000
0001
0000
1000
0010
,
2000
0000
0000
0000
3200
0000
0000
0000
0320
0000
0000
0000
0032
0000
0103
0010
,
0100
0000
0001
0000
1000
0000
0100
0010
0100
0000
1000
0000
0001
0000
0010
0001
,
1000
0000
0010
0000
1000
0000
0100
1000
0001
0000
0010
0000
0001
0000
0000
0000
,
1000
0000
0010
0000
1000
0000
0100
1000
0100
0000
0010
0000
0001
0000
0100
0001
,
0200
0000
0320
0000
2030
0000
3000
0000
0100
0000
0010
0000
0001
0000
1000
0001
,
1000
0000
0010
0000
0100
0000
0001
1000
0001
0000
0010
0000
0100
0000
1000
0010
,
0100
0000
0001
0000
1000
0000
0001
0010
0100
0000
1000
0000
0001
0000
0000
0000
,
1000
0010
1000
0010
1000
0010
1000
0010
0100
0001
0100
0000
0001
0010
0001
0000
,
1000
0000
0000
0000
0100
0000
1000
0010
0100
0000
0100
0000
0001
0000
0001
0000
,
1100
1100
1000
1000
0011
0011
0001
0001
,
1000
0000
0010
0000
0001
0000
1000
0100
0001
0000
0001
0000
1000
0000
1000
0000
,
0001
0000
0001
0000
0010
0100
0010
0100
1000
0000
1000
0000
0001
0000
0100
0000
,
0010
0000
0010
0000
0100
0000
0001
1000
0001
0000
0001
0000
1000
0000
1000
0000
,
0100
0200
0000
0300
0010
0020
0000
0032
,
0000
2000
0000
0000
0000
3003
0000
0000
,
0001
0000
0001
0000
0100
0010
0100
0001
1000
0000
1000
0000
0100
0000
0010
0000
,
0100
0000
0000
0000
1000
0000
0010
0100
0001
0000
0001
0000
1000
0000
1000
0000
,
0100
0000
0100
0000
1000
0000
0010
0100
0001
0000
0001
0000
1000
0000
0100
0000
,
0010
0000
0000
0000
0001
0000
1000
0010
0100
0000
0010
0000
1000
0000
0001
0000
,
1000
0000
0000
0000
0100
0000
0010
0001
1000
0000
0010
0000
0100
0000
0001
0000
,
1000
0000
0100
0000
1000
0000
0010
0100
0001
0000
1000
0000
0100
0000
1000
0000
,
0001
0000
0010
0000
0001
0000
1000
0010
0100
0000
0001
0000
1000
0000
0100
0000
,
0010
0000
1000
0000
0010
0000
0001
0100
0010
0000
0001
0000
0010
0000
1000
0000
,
2002
0000
3003
0000
;

//--------------- dance-single - NOWHERE Dance Club + Venomothim ----------------
#NOTEDATA:;
#STEPSTYPE:dance-single;
#DESCRIPTION:NOWHERE Dance Club + Venomothim;
#DIFFICULTY:Challenge;
#METER:15;
#RADARVALUES:0.599467,0.639167,0.259372,0.435375,0.342742,453,425,28,47,0,0,0,0,0,0.599467,0.639167,0.259372,0.435375,0.342742,453,425,28,47,0,0,0,0,0;
#DISPLAYBPM:130.000;
#CHARTNAME:;
#CHARTSTYLE:;
#CREDIT:Team Dream Team;
#NOTES:
0000
0000
0000
0000
,
0000
0000
0000
0000
,
0000
0000
0000
0000
,
0000
0000
0000
0000
,
0000
0000
0000
0000
,
1000
0000
0100
0000
0010
0000
0001
1000
0001
0000
0100
0000
0010
0000
1000
0001
,
1000
0000
0010
0000
0100
0000
0001
1000
0001
0000
1001
0000
1001
0000
0000
0000
,
0001
0000
0010
0000
0100
0000
1000
0100
0010
0000
0001
0000
0100
0000
0010
1000
,
0010
0100
0001
0001
1000
0001
1001
1000
,
0001
0000
0000
0100
0010
0000
2000
0000
0000
3100
0010
0000
0100
0000
0010
0001
,
0100
0010
0000
0010
0100
0000
0020
0000
0000
0000
1000
0000
1030
0000
0000
0000
,
0100
0000
1000
0000
0100
0000
0020
0000
0000
0000
0031
0000
1001
0000
0001
0100
,
0001
0100
0000
0010
1000
0000
0200
0000
0000
0010
0000
0001
0000
0010
0000
0000
,
2300
0000
0001
0000
3001
0000
0100
0010
1000
0000
0100
0000
0010
0000
0001
0100
,
0100
0000
1000
0010
0010
0000
0001
1000
0010
0000
0001
0000
0010
0000
1000
0000
,
0002
0000
0000
0000
0013
0000
0001
1000
0010
0000
1000
0000
1000
0000
0100
0010
,
0002
0000
0000
0000
0000
0000
0000
0000
0203
0300
0000
0000
0200
0300
0000
0000
1000
0000
0010
0000
0100
0000
0010
0000
1000
0000
0100
0000
0010
0000
0000
0000
,
0000
0002
0000
0203
0000
2300
0000
3200
,
0000
0302
0000
0013
1000
0001
0000
0100
,
0000
1000
0002
0000
0103
2000
0000
3200
,
0000
0302
0000
0013
1000
0020
0000
0031
,
0002
0000
0000
0000
0000
0000
0000
0000
0203
0300
0000
0000
0200
0300
0000
0000
1000
0000
0010
0000
0010
0000
0001
0000
0100
0000
0000
0000
0010
0000
0000
0000
,
1000
0000
0100
0000
0110
0000
0000
0010
0002
0000
0203
0000
0000
0000
0310
0000
,
1000
0100
0001
0100
2000
0001
3001
1000
,
0101
0000
0000
0100
0010
0000
2000
0000
0000
0000
3001
0000
0000
0000
1000
0000
,
0011
0001
0000
1000
1010
0000
1000
1100
,
0000
1000
1010
0001
0011
0000
1001
0001
,
1000
1100
0001
0101
,
0100
0000
0000
0000
0000
0000
0000
0000
0110
0000
0000
0000
0000
0000
0000
0000
1001
0000
0000
0000
0000
0000
0000
0000
1000
0000
0000
0000
1000
0100
0010
0001
,
0010
0000
0001
0000
0100
0000
0000
0010
1000
0000
0020
0000
0100
0000
1030
0000
,
0001
0020
0100
0032
0000
1003
1001
0000
,
1000
0010
0001
2000
0000
3100
0001
0010
,
0100
0000
0000
0000
1000
0000
0000
0000
0001
0000
0000
0000
1000
0000
0000
0000
0010
0000
0100
0000
0001
0000
1000
0000
0100
0000
0000
0000
1000
0100
1000
0100
,
1000
0000
0100
0000
0010
0000
0100
1000
0001
0000
0100
0000
0010
0000
0100
0001
,
2000
0000
0000
0000
3200
0000
0000
0000
0320
0000
0000
0000
0032
0000
0103
0010
,
0100
0000
0001
0000
1000
0000
0100
0010
0100
0000
1000
0000
0001
0000
1000
0010
,
0100
0000
0001
0000
1000
0000
0001
0010
0100
0000
0010
0000
1001
0000
0000
0000
,
1000
0000
0010
0000
0100
0000
0001
1000
0100
0000
1000
0000
0001
0000
0010
0001
,
2000
0000
3020
0000
0230
0000
0300
0000
0001
0000
1000
0000
0100
0000
0010
0001
,
1000
0000
0010
0000
0100
0000
0010
1000
0001
0000
0010
0000
0001
0000
0100
0010
,
0100
0000
0001
0000
1000
0000
0100
0010
0100
0000
1000
0000
0001
0000
0000
0000
,
1000
0100
1000
0100
0010
0001
0010
0001
1000
0001
1000
0000
0001
0100
0001
0000
,
1000
0000
0000
0000
0010
0000
0100
0001
1000
0000
1000
0000
0001
0000
0001
0000
,
0100
0000
0100
0000
0010
0000
1000
0010
0100
0000
0100
0000
0001
0000
1000
0000
,
0100
0000
0100
0000
1000
0000
0001
0010
0001
0000
1000
0000
0010
0000
1000
0000
,
0001
0000
0100
0000
0010
1000
0100
0100
0001
0000
0010
0000
0012
0000
0013
0000
,
0001
0100
0000
0010
1000
0100
0110
0010
,
0002
0203
0000
0000
0310
1010
0000
1001
,
0000
0101
0000
0100
0010
0000
0000
0100
,
0001
0000
0000
0000
0020
0030
0000
0000
0020
0030
1000
0000
0100
0000
0100
0000
0001
0000
0000
0000
0010
0000
0000
0000
0110
0000
0000
0000
0000
0000
0000
0000
,
0010
0002
1003
0010
0001
0010
1000
1100
,
0001
0000
0011
0000
0001
0000
0100
0010
1000
0010
0100
0000
0001
0000
1000
0000
,
0000
0000
0100
0000
0100
0000
1000
0100
0010
0000
0001
0000
0001
0000
1000
0000
,
0010
1000
0010
0100
0001
0000
0001
0000
1000
0100
0010
0100
1000
0000
1000
0000
,
0001
0000
1000
0010
0100
0000
0100
0000
0010
0000
1000
0010
1000
0000
1000
0000
,
0001
0000
0001
0000
1000
0000
0010
0100
0010
0000
1000
0000
0001
0000
0001
0000
,
1000
0000
0100
0000
0010
0000
0100
1000
0001
0000
0100
0000
0020
0000
0000
0030
,
2002
0000
3003
0000
;
