#TITLE:Disciples;
#SUBTITLE:;
#ARTIST:Tame Impala;
#TITLETRANSLIT:;
#SUBTITLETRANSLIT:;
#ARTISTTRANSLIT:;
#GENRE:;
#CREDIT:;
#MUSIC:Disciples.ogg;
#BANNER:;
#BACKGROUND:;
#CDTITLE:;
#SAMPLESTART:46.243;
#SAMPLELENGTH:15.000;
#SELECTABLE:YES;
#OFFSET:2.418;
#BPMS:0.000=127.000;
#STOPS:;
#BGCHANGES:;
#FGCHANGES:;

//--------------- dance-single - ----------------
#NOTES:
     dance-single:
     :
     Beginner:
     3:
     0,0,0,0,0:
0000
0000
0000
0000
,
0000
0000
0000
0000
,
0000
0000
0000
0000
,
0000
0000
0000
0000
,
0000
0000
0000
0000
,
0000
0000
0000
0000
,
1000
1000
0100
0000
,
2000
0000
3000
0000
,
0001
0001
0010
0000
,
0002
0000
0003
0000
,
0100
0100
0100
0000
,
0020
0000
0030
0000
,
0010
0010
0010
0000
,
0200
0000
0300
0000
,
0001
0001
0010
0000
,
0200
0000
0300
0000
,
1000
1000
0010
0000
,
0200
0000
0300
0000
,
0001
0000
0001
0000
,
0010
0010
0010
0000
,
0100
0000
0100
0000
,
1000
1000
1000
0000
,
1000
0000
1000
0000
,
0010
0010
0010
0000
,
0100
0000
0100
0000
,
0001
0001
0001
0000
,
1000
1000
0100
0000
,
2000
0000
3000
0000
,
0010
0010
2000
0000
,
0000
0000
3000
0000
,
0001
0001
0010
0000
,
0002
0000
0003
0000
,
0100
0100
0002
0000
,
0000
0000
0003
0000
,
1000
0000
0100
0000
,
0010
0010
0100
0000
,
1000
0000
0010
0000
,
0200
0000
0300
0000
,
0001
0001
0010
0000
,
0100
0000
0010
0000
,
0001
0000
0100
0000
,
0020
0000
0030
0000
,
1000
1000
0001
0000
,
0010
0000
0001
0000
,
0100
0100
0010
0000
,
0200
0000
0300
0000
,
0001
0001
1000
0000
,
0100
0000
1000
0000
,
0010
0010
0100
0000
,
0020
0000
0030
0000
,
2000
0000
3000
0000
,
0002
0000
0003
0000
,
0020
0000
0030
0000
,
0100
0100
0010
0000
,
2002
0000
0000
0000
,
0000
0000
0000
3003
;

//--------------- dance-single - ----------------
#NOTES:
     dance-single:
     :
     Easy:
     5:
     0,0,0,0,0:
0000
0000
0000
0000
,
0000
0000
0000
0000
,
0000
0000
0000
0000
,
0000
0000
0000
0000
,
0000
0000
0000
0000
,
0000
0000
0000
0000
,
1000
1000
0010
0200
,
0001
0302
2000
3003
,
0001
0001
0010
0200
,
1000
2300
0002
3003
,
0001
0100
0001
2000
,
0010
3020
0200
0330
,
1000
0100
1000
0002
,
0100
0203
0020
0330
,
1000
0100
0001
0200
,
0010
1000
2000
3300
,
0001
0100
1000
0200
,
0001
0302
2000
3003
,
0002
0000
0000
0023
0000
0000
0000
0000
,
0100
0100
0100
0000
,
0032
0000
0000
2003
0000
0000
0000
0000
,
0010
0010
0010
0000
,
3002
0000
0000
0203
0000
0000
0000
0000
,
0010
0010
0010
0000
,
0302
0000
0000
2003
0000
0000
0000
0000
,
0010
0010
3010
0000
,
1000
0100
0001
0100
,
1000
0010
0100
0100
,
0010
0001
0010
1000
,
0002
0010
1003
0000
,
0001
0100
1000
0100
,
0001
0010
0100
0100
,
0010
1000
0010
0001
,
2000
0010
3001
0000
,
0001
0000
0000
0011
0000
0000
0201
0000
,
0000
0000
0010
0310
,
1010
0000
0000
0101
0000
0000
1200
0000
,
0000
0010
0310
0001
,
1000
0000
0000
1100
0000
0000
1020
0000
,
0000
0000
0100
0130
,
0101
0000
0000
1010
0000
0000
0021
0000
,
0000
0100
0130
1000
,
0002
0000
0000
0023
0000
0000
2030
0000
,
0000
0000
0010
3010
,
0002
0000
0000
2003
0000
0000
3020
0000
,
0000
0100
0130
0001
,
2000
0000
0000
3020
0000
0000
0032
0000
,
0000
0000
0010
0013
,
2000
0000
0000
3002
0000
0000
0023
0000
,
0000
0100
0130
1000
,
0001
0001
0200
0300
,
0020
2030
3200
2300
,
3020
0230
0302
0023
,
0032
0203
0310
0010
,
2002
0000
0000
0000
,
0000
0000
0000
3003
;

//--------------- dance-single - ----------------
#NOTES:
     dance-single:
     :
     Medium:
     9:
     0,0,0,0,0:
0000
0000
0000
0000
,
0000
0000
0000
0000
,
0000
0000
0000
0000
,
0000
0000
0000
0000
,
0000
0000
0000
0000
,
0000
0000
0000
0000
0000
0000
0001
0010
,
0002
0000
0103
0010
0000
0010
2000
0000
,
0100
0000
0001
0000
0010
0010
3010
0000
,
0100
0001
0010
0200
0000
0001
2300
0000
,
3010
0100
0010
0000
0001
0010
1000
0001
,
2000
0000
3100
0010
0000
0010
0002
0000
,
0100
0000
1000
0000
0010
0010
0013
0000
,
0100
1000
0010
0200
0000
1000
0302
0000
,
0013
0100
0100
0100
0010
0001
1000
0010
,
0200
0000
0301
2000
0000
3001
0020
0000
,
0001
0000
0001
0000
0100
0100
0130
0000
,
1000
0100
1000
0200
0000
0310
0002
0000
,
1000
0000
0100
0000
0010
0010
0013
0000
,
1000
0010
0000
0102
0000
0000
1003
0100
,
0001
0000
0001
0100
0010
0000
0010
0001
,
0100
1000
0000
2100
0000
0000
3100
0001
,
0010
0000
0100
1000
0100
0010
0001
0000
,
0001
0100
0000
2010
0000
0000
0001
0000
,
3100
0010
0001
0000
1000
0010
0100
0001
,
1000
0100
0000
1002
0000
0000
0010
0000
,
0103
0010
1000
0001
2000
0000
3002
0000
,
0103
0100
0000
2010
0000
3002
0200
0003
,
0000
0310
0010
1000
0001
1000
0100
0000
,
0010
0010
0000
2001
0000
3020
0200
0030
,
0000
0301
0010
0001
1000
0010
0100
0001
,
0010
0010
0000
2100
0000
3002
0020
0003
,
0000
0130
0100
1000
0001
1000
0010
0000
,
0100
0100
0000
2001
0000
3200
0020
0300
,
0000
0031
0100
0001
1000
0100
0010
0001
,
2000
0000
0010
3020
0000
0100
0230
0000
,
1000
0000
0001
0000
0010
0010
0310
0000
,
1000
0100
0001
0200
0000
2300
0020
3000
,
1030
0100
0010
0000
0001
0010
0100
1000
,
0002
0000
0010
0023
0000
0100
0230
0000
,
0001
0000
1000
0000
0010
0010
0310
0000
,
0001
0100
1000
0200
0000
0302
0020
0003
,
0031
0100
0010
0000
1000
0010
0100
0001
,
2000
0000
3010
0002
0000
0013
2000
0000
,
3001
0010
0100
1000
0002
0000
1003
0010
,
1000
2200
3300
0202
0303
0002
0020
0033
,
0001
0100
1000
0000
0001
0010
1000
0001
,
0002
0000
0013
2000
0000
3010
0002
0000
,
1003
0010
0200
0000
0310
1000
0001
0010
,
0001
0202
0303
2200
3300
2000
0020
0000
,
0030
0002
0000
3003
0100
0010
0110
0000
,
1000
0100
0000
0022
0000
0000
0033
0001
,
0010
0100
1000
0100
1000
0010
0100
0000
,
0001
0100
0000
2020
0000
0000
3030
0010
,
0100
0001
0100
0010
1000
0100
0010
0000
,
2002
0000
0000
0000
,
0000
0000
0000
3003
;

//--------------- dance-single - ----------------
#NOTES:
     dance-single:
     :
     Hard:
     13:
     0,0,0,0,0:
0000
0000
0000
0000
,
0000
0000
0000
0000
,
0000
0000
0000
0000
,
0000
0000
0000
0000
,
0000
0000
0000
0000
,
0000
0000
0000
0000
0000
1000
0010
0100
,
0001
0000
0000
0011
0000
0000
1010
0000
0000
0000
1000
0000
0200
0000
0000
0000
,
0010
0010
0320
0000
0100
0100
0130
1000
,
0001
0100
0010
2010
0000
3001
0020
0000
,
0031
0100
1001
0000
1001
0001
0010
0100
,
1000
1010
0000
0011
0000
0001
0200
0000
,
0010
0010
0320
0000
0100
0100
0130
0001
,
1000
0100
0010
0012
0000
1003
0020
0000
,
1030
0000
0000
0000
0000
0000
0000
0000
0200
0300
0000
0000
0000
0000
0000
0000
0200
0300
0000
0000
0000
0000
0000
0000
0001
0000
0000
0000
0000
0000
0000
0000
1000
0000
0000
0000
0000
0000
0000
0000
0200
0300
0000
0000
0000
0000
0000
0000
0200
0300
0000
0000
0000
0000
0000
0000
0001
0000
0000
0000
0000
0000
0000
0000
,
0010
0100
1000
2100
0000
3010
0200
0000
,
0301
0010
1000
0000
0001
0100
1000
0100
,
1000
0010
0100
0102
0000
1003
0200
0000
,
0310
0001
1001
0000
1001
0010
1001
0000
,
1000
0000
0000
0000
0000
0000
0000
0000
0200
0300
0000
0000
0000
0000
0000
0000
0000
0000
0000
0000
0000
0000
0000
0000
0202
0000
0000
0000
0000
0000
0000
0000
0000
0000
0000
0000
0000
0000
0000
0000
0300
0000
0000
0000
0000
0000
0000
0000
0000
0000
0000
0000
0000
0000
0000
0000
0023
0000
0000
0000
0000
0000
0000
0000
,
0230
0000
0000
0000
0000
0000
0000
0000
2300
0000
0000
0000
0000
0000
0000
0000
3200
0000
0000
0000
0000
0000
0000
0000
2300
0000
0000
0000
0000
0000
0000
0000
3200
0000
0000
0000
0000
0000
0000
0000
0302
0003
0000
0000
0000
0000
0000
0000
0002
0003
0000
0000
0000
0000
0000
0000
0200
0000
0000
0000
0000
0000
0000
0000
,
0320
0000
0000
0000
0000
0000
0000
0000
2030
0000
0000
0000
0000
0000
0000
0000
3200
0300
0000
0000
0000
0000
0000
0000
0200
0300
0000
0000
0000
0000
0000
0000
0002
0000
0000
0000
0000
0000
0000
0000
0023
0030
0000
0000
0000
0000
0000
0000
0020
0030
0000
0000
0000
0000
0000
0000
0200
0000
0000
0000
0000
0000
0000
0000
,
0302
0000
0000
0000
0000
0000
0000
0000
2003
0000
0000
0000
0000
0000
0000
0000
3200
0000
0000
0000
0000
0000
0000
0000
0302
0003
0000
0000
0000
0000
0000
0000
0002
0003
0000
0000
0000
0000
0000
0000
0200
0000
0000
0000
0000
0000
0000
0000
0320
0000
0000
0000
0000
0000
0000
0000
0030
0000
0000
0000
0000
0000
0000
0000
,
2000
0000
0000
0000
0000
0000
0000
0000
3200
0000
0000
0000
0000
0000
0000
0000
2300
0000
0000
0000
0000
0000
0000
0000
3020
0030
0000
0000
0000
0000
0000
0000
0020
0030
0000
0000
0000
0000
0000
0000
0002
0000
0000
0000
0000
0000
0000
0000
2003
0000
0000
0000
0000
0000
0000
0000
3020
0000
0000
0000
0000
0000
0000
0000
,
0230
0000
0000
0000
0000
0000
0000
0000
2300
3000
0000
0000
0000
0000
0000
0000
2000
3000
0000
0000
0000
0000
0000
0000
0200
0000
0000
0000
0000
0000
0000
0000
0320
0000
0000
0000
0000
0000
0000
0000
2030
0000
0000
0000
0000
0000
0000
0000
3020
0000
0000
0000
0000
0000
0000
0000
0032
0000
0000
0000
0000
0000
0000
0000
,
0203
0300
0000
0000
0000
0000
0000
0000
0200
0300
0000
0000
0000
0000
0000
0000
2000
0000
0000
0000
0000
0000
0000
0000
3020
0030
0000
0000
0000
0000
0000
0000
0020
0030
0000
0000
0000
0000
0000
0000
0002
0000
0000
0000
0000
0000
0000
0000
0203
0000
0000
0000
0000
0000
0000
0000
2300
3000
0000
0000
0000
0000
0000
0000
,
2000
3000
0000
0000
0000
0000
0000
0000
0200
0000
0000
0000
0000
0000
0000
0000
0320
0000
0000
0000
0000
0000
0000
0000
0032
0000
0000
0000
0000
0000
0000
0000
0203
0000
0000
0000
0000
0000
0000
0000
0300
0000
0000
0000
0000
0000
0000
0000
0001
0000
0000
0000
0000
0000
0000
0000
1000
0000
0000
0000
0000
0000
0000
0000
,
0001
0000
0000
0000
0000
0000
0000
0000
0020
0030
0000
0000
0000
0000
0000
0000
0020
0030
0000
0000
0000
0000
0000
0000
1020
0000
0000
0000
0000
0000
0000
0000
0000
0000
0000
0000
0000
0000
0000
0000
1030
0000
0000
0000
0000
0000
0000
0000
2100
0000
0000
0000
0000
0000
0000
0000
0000
0000
0000
0000
0000
0000
0000
0000
,
0000
3001
0100
0001
0010
0001
0100
0010
,
1010
1000
0001
0021
0000
0032
2000
0003
,
3100
0100
0010
0001
0100
0001
0100
0010
,
1000
0000
0000
0000
0000
0000
0000
0000
0200
0300
0000
0000
0000
0000
0000
0000
0200
0300
0000
0000
0000
0000
0000
0000
0201
0000
0000
0000
0000
0000
0000
0000
0000
0000
0000
0000
0000
0000
0000
0000
0301
0000
0000
0000
0000
0000
0000
0000
0012
0000
0000
0000
0000
0000
0000
0000
0000
0000
0000
0000
0000
0000
0000
0000
,
0000
1003
0010
1000
0100
1000
0010
0100
,
0101
0001
1000
1200
0000
2300
0002
3000
,
0103
0100
0010
1000
0100
1000
0100
0010
,
0011
0001
0100
0201
0000
0310
2001
0000
,
0100
0001
0100
0000
0001
0010
3001
0100
,
1000
0000
0000
0000
0000
0000
0000
0000
0001
0000
0000
0000
0000
0000
0000
0000
0010
0000
0000
0000
0000
0000
0000
0000
1020
0030
0000
0000
0000
0000
0000
0000
0000
0000
0000
0000
0000
0000
0000
0000
0020
0030
0000
0000
0000
0000
0000
0000
0012
0000
0000
0000
0000
0000
0000
0000
0000
0000
0000
0000
0000
0000
0000
0000
,
0103
1000
0100
0010
0100
0001
0010
0010
,
1100
1000
0010
1020
0000
0130
1002
0000
,
0010
1000
0010
0000
1000
0100
1003
0010
,
0001
0000
0000
0000
0000
0000
0000
0000
1000
0000
0000
0000
0000
0000
0000
0000
0100
0000
0000
0000
0000
0000
0000
0000
0201
0300
0000
0000
0000
0000
0000
0000
0000
0000
0000
0000
0000
0000
0000
0000
0200
0300
0000
0000
0000
0000
0000
0000
2100
0000
0000
0000
0000
0000
0000
0000
0000
0000
0000
0000
0000
0000
0000
0000
,
3001
0000
0100
0000
0001
0000
0100
0000
0010
1000
0010
0000
1000
0000
0100
0000
,
1000
0010
0001
0012
0000
0013
2000
0000
,
3002
0023
0230
2300
3002
0000
1003
0010
,
1000
0000
0000
0000
0000
0000
0000
0000
0200
0300
0000
0000
0000
0000
0000
0000
0200
0300
0000
0000
0000
0000
0000
0000
0202
0000
0000
0000
0000
0000
0000
0000
0303
0000
0000
0000
0000
0000
0000
0000
1010
0000
0000
0000
0000
0000
0000
0000
1002
0000
0000
0000
0000
0000
0000
0000
0000
0000
0000
0000
0000
0000
0000
0000
,
1000
1000
0100
0100
1003
0010
0010
0100
,
0001
0010
1000
2010
0000
3010
0002
0000
,
0103
0000
0010
1000
0200
0000
0000
0000
0310
0000
0100
0000
0010
0000
0001
0000
,
0200
0300
0000
0000
0000
0000
0000
0000
0200
0300
0000
0000
0000
0000
0000
0000
1000
0000
0000
0000
0000
0000
0000
0000
2020
0000
0000
0000
0000
0000
0000
0000
3030
0000
0000
0000
0000
0000
0000
0000
0101
0000
0000
0000
0000
0000
0000
0000
0012
0000
0000
0000
0000
0000
0000
0000
0000
0000
0000
0000
0000
0000
0000
0000
,
0100
0000
0023
0000
0000
0000
0130
0000
1000
0001
1000
0000
0001
0000
0100
0010
,
0100
1000
0100
0002
0000
0000
0000
0023
,
0230
0000
0000
0000
0000
0000
0000
0000
0302
0003
0000
0000
0000
0000
0000
0000
0002
0003
0000
0000
0000
0000
0000
0000
0200
0000
0000
0000
0000
0000
0000
0000
0320
0000
0000
0000
0000
0000
0000
0000
0230
0000
0000
0000
0000
0000
0000
0000
2300
3000
0000
0000
0000
0000
0000
0000
2000
3000
0000
0000
0000
0000
0000
0000
,
0200
0000
0000
0000
0000
0000
0000
0000
0320
0000
0000
0000
0000
0000
0000
0000
2030
0000
0000
0000
0000
0000
0000
0000
3020
0000
0000
0000
0000
0000
0000
0000
0032
0000
0000
0000
0000
0000
0000
0000
0203
0300
0000
0000
0000
0000
0000
0000
0200
0300
0000
0000
0000
0000
0000
0000
2000
0000
0000
0000
0000
0000
0000
0000
,
3020
0032
0023
0000
0130
0001
1000
0100
,
2100
0000
0010
0002
0000
0000
0000
0000
,
0000
0000
0000
3003
;
