#TITLE:Ding Dong Song;
#SUBTITLE:;
#ARTIST:E-Type;
#TITLETRANSLIT:;
#SUBTITLETRANSLIT:;
#ARTISTTRANSLIT:;
#GENRE:;
#CREDIT:Braeden;
#MUSIC:Ding Ding Song.ogg;
#BANNER:ban.png;
#BACKGROUND:bg.png;
#CDTITLE:;
#SAMPLESTART:37.986;
#SAMPLELENGTH:12.000;
#SELECTABLE:YES;
#OFFSET:0.007;
#BPMS:0.000=101.000;
#STOPS:;
#BGCHANGES:;
#FGCHANGES:;

//--------------- dance-single - ----------------
#NOTES:
     dance-single:
     :
     Beginner:
     2:
     0.057,0,0.051,0,0:
0000
0000
0000
0000
,
0000
0000
0000
0000
,
0000
0000
0000
0000
,
0000
0000
0000
0000
,
1001
0000
0001
0000
,
0200
0000
0300
0000
,
0010
0000
1000
0000
,
0020
0000
0030
0000
,
1001
0000
0001
0000
,
1000
0000
0010
0000
,
0100
0000
0001
0000
,
1000
0000
0001
0000
,
1000
0000
0010
0000
,
1000
0000
0001
0000
,
0010
0000
0100
0000
,
1000
0000
0000
0000
,
1001
0000
0001
0000
,
1000
0000
0010
0000
,
0100
0000
0001
0000
,
2000
0000
3000
0000
,
1001
0000
0001
0000
,
0010
0000
0001
0000
,
1000
0000
0010
0000
,
0200
0000
0300
0000
,
1001
0000
1000
0000
,
0002
0000
0003
0000
,
0100
0000
0010
0000
,
2000
0000
3000
0000
,
1001
0000
0001
0000
,
0100
0000
0010
0000
,
1000
0000
0001
0000
,
1000
0000
0001
0000
,
1001
0000
0001
0000
,
1000
0000
0010
0000
,
0100
0000
0001
0000
,
2000
0000
3000
0000
,
1001
0000
0000
0000
,
0001
0000
1000
0000
,
0010
0000
0000
0000
,
0100
0000
0001
0000
,
1001
0000
1000
0000
,
0010
0000
0100
0000
,
0001
0000
1000
0000
,
0002
0000
0003
0000
,
1001
0000
1000
0000
,
0010
0000
0100
0000
,
0001
0000
1000
0000
,
0002
0000
0003
0000
,
1001
0000
1000
0000
,
0001
0000
0010
0000
,
0100
0000
1000
0000
,
0002
0000
0003
0000
,
1001
0000
0001
0000
,
1000
0000
0010
0000
,
0100
0000
0001
0000
,
2000
0000
3000
0000
;

//--------------- dance-single - ----------------
#NOTES:
     dance-single:
     :
     Easy:
     4:
     0.143,0,0.015,0.073,0:
0000
0000
0000
0000
,
0000
0000
0000
0000
,
1000
0001
0100
0010
,
2000
0000
3000
0000
,
1001
0001
0100
0010
,
2000
0000
3000
0000
,
0001
0010
0100
1000
,
0002
0000
1003
0000
,
1001
0001
0001
0100
,
0010
1000
1000
0100
,
0010
0100
0100
1000
,
0001
0010
0010
0000
,
1001
1000
1000
0000
,
0010
0100
0100
0000
,
0001
1000
0010
1000
,
0001
0010
0100
1000
,
1001
1000
0001
0200
,
0310
1000
0001
1000
,
0100
1000
0001
2000
,
0020
3030
0100
0001
,
1001
1000
0010
0100
,
0001
1000
0001
1000
,
0010
0100
0001
2000
,
0002
3003
0000
1000
,
1001
0001
0010
0100
,
2000
0000
3000
0000
,
0001
0100
0001
0010
,
0002
0000
0003
0000
,
1001
1000
1000
0010
,
0100
0001
0001
0010
,
0100
1000
1000
0010
,
0100
0001
1000
0001
,
0110
0100
0100
0010
,
0100
0001
0001
1000
,
0010
0100
0100
0001
,
2000
0000
3000
0000
,
1001
0000
0001
0000
,
1000
0010
0100
0000
,
0001
1000
0010
0000
,
0100
0001
0010
0100
,
1001
0001
1000
0001
,
0100
0010
1000
0100
,
0010
0001
1000
0002
,
2000
3003
0001
1000
,
1001
0001
0010
0100
,
0010
0001
1000
0001
,
0100
0010
0100
0002
,
0200
0303
0010
1000
,
1001
0001
0100
0010
,
1000
0100
0010
0001
,
1000
0010
0100
0002
,
2000
3003
0001
0100
,
0110
0010
1000
0001
,
0010
0100
1000
0001
,
0100
0001
0010
0002
,
2000
0000
0000
0000
0000
0000
0000
3003
;

//--------------- dance-single - JA XO- ----------------
#NOTES:
     dance-single:
     JA XO-:
     Medium:
     7:
     0.212,0,0.015,0.191,0:
0000
0000
0000
0000
,
0000
0000
0000
0000
,
0002
2003
3020
0230
,
0302
0000
1003
0010
1000
0000
0001
0000
,
2001
3020
0230
0302
,
1003
0010
1000
0000
0001
0100
0001
0000
,
2000
3200
2300
3002
,
0103
0001
0100
0000
0010
1000
0010
0000
,
2010
0000
3001
0001
0100
0000
0010
0000
,
1000
0000
0001
0001
1000
0000
0010
0000
,
0100
0000
0001
0001
1000
0000
0100
0000
,
0010
0000
0100
0100
0010
0000
0100
0000
,
2100
0000
3001
0001
1000
0000
0010
0000
,
0100
0000
0010
0010
1000
0000
0100
0010
,
0100
1000
0001
0000
1000
0010
0100
0000
,
0001
1000
0001
1000
0001
0000
1000
0000
,
1001
0000
1000
0100
0001
0000
0200
0000
,
1300
0000
0001
0100
0001
0000
1000
0000
,
0001
0000
0100
0010
0100
0000
0002
0000
,
2000
3003
1000
0001
,
1001
0000
1000
0100
0001
0000
0200
0000
,
1300
0000
0001
0001
1000
0000
0001
0010
,
0100
0000
1000
0001
1000
0000
0002
0000
,
0200
0000
0303
0000
0010
1000
0001
0000
,
2001
3020
0230
0302
,
1003
0100
1000
0000
0001
0100
0000
0001
,
2000
3200
0320
0032
,
1003
0010
0100
0001
1000
0000
0001
0000
,
1001
0000
1000
1000
1000
0000
0001
0000
,
0010
0000
0100
0100
1000
0000
0001
0000
,
0100
0000
0010
0010
1000
0100
1000
0001
,
1000
0100
1000
0000
0001
0000
0100
0000
,
0101
0000
0001
0001
1000
0000
0010
0000
,
1000
0000
0100
0100
0010
0000
0100
0000
,
0010
0000
0001
0001
1000
0100
0010
0001
,
2000
0000
3010
0000
,
2001
0000
3002
0000
0103
0000
0000
0010
,
1000
0010
1000
0001
1000
0000
0100
0000
,
0010
0000
0002
0000
1003
0000
0000
0001
,
0010
0001
0100
0010
1000
0000
0001
0000
,
1001
0000
1000
0010
0001
0000
0020
0000
,
1030
0000
0001
0100
0010
0000
1000
0100
,
0010
0000
0100
1000
0001
0000
0200
0000
,
0020
0330
0200
0301
,
1001
0000
1000
0100
0001
0000
0200
0000
,
1300
0000
0001
1000
0001
0000
1000
0010
,
1000
0000
0001
0010
0100
0000
2000
0000
,
0200
3300
0010
0001
,
1001
0000
1000
0100
0001
0000
0200
0000
,
0310
0000
0100
1000
0001
0000
1000
0010
,
1000
0000
0001
0010
0100
0000
2000
0000
,
0020
3030
0100
0001
,
1001
0000
1000
0100
0001
0000
0200
0000
,
1300
0000
0001
1000
0001
0000
1000
0010
,
1000
0000
0001
0010
0100
0000
2000
0000
,
0002
0000
3003
0000
0000
1000
0000
0200
,
0000
0300
0000
0000
;

//--------------- dance-single - XO JA ----------------
#NOTES:
     dance-single:
     XO JA:
     Hard:
     11:
     0.285,0,0.029,0.117,0.029:
0000
0000
0000
0000
,
0000
0000
0000
0000
,
0001
0000
0000
0001
0100
0000
0000
0100
0020
0000
0000
0000
2030
0000
0000
0000
,
3001
0000
0100
0000
0001
0000
1000
0100
1000
0000
0001
0000
0100
0000
0010
0000
,
1000
0000
0000
1000
0100
0000
0000
0100
0020
0000
0000
0000
0031
0000
0100
0000
,
0001
0100
0010
1000
0100
1000
0001
0000
,
1000
0000
0000
1000
0100
0000
0000
0100
0020
0000
0000
0000
0032
0000
0000
0000
,
0103
0000
0010
0000
0100
0000
0001
0000
0100
0000
0001
0010
0001
0000
1000
0100
,
1000
0000
0001
0000
0100
0000
0100
0000
0010
0000
1000
0001
1000
0000
0010
1000
,
0010
0000
0100
0000
0001
0010
0001
0000
1000
0000
0001
0000
0100
0000
0001
0000
,
0010
0000
0001
1000
0010
0000
0010
0000
1000
0000
0100
0000
0010
0000
0001
1000
,
0001
0000
1000
0000
0100
0010
0100
0000
1000
0000
0001
0000
0000
1000
0000
0010
,
2000
0000
0000
3001
0100
0000
0100
0000
0020
0000
0000
0000
1030
0000
0000
0001
,
1000
0000
0001
0000
0100
0010
0100
0000
0001
0000
0000
0000
0100
0000
0001
0010
,
0001
0000
1000
0010
1000
0000
0001
0000
0010
0000
0100
0000
1000
0000
0001
0000
,
0100
0000
0001
0000
0010
0000
0100
1000
0001
0000
0000
0000
0100
0000
0000
0000
,
0101
0000
0000
0001
0100
0000
1000
0000
0100
0000
0001
0000
0200
0000
0000
0000
,
0301
0000
0000
0001
0100
0000
0010
0000
1000
0000
0000
0000
0001
0000
1000
0000
,
0010
1000
0000
0010
1000
0000
0100
0000
0010
0000
0001
0000
1000
0000
0000
0000
,
0200
0301
0200
0310
,
0011
0000
0000
0001
0100
0000
1000
0000
0100
0000
0000
0000
0002
0000
0000
0000
,
1003
0000
0000
0001
1000
0000
1000
0000
0001
0000
0000
0000
0100
0000
0001
0000
,
0010
0100
0000
1000
0100
0000
0010
0000
0001
0000
0001
0000
2000
0000
0000
0000
,
3020
0000
0000
0000
1030
0000
0001
0100
0001
0000
1000
0000
0100
0000
0010
0000
,
0011
0000
0000
0001
0100
0000
0000
0100
0020
0000
0000
0000
1030
0000
0000
0000
,
0001
0100
0001
0010
0001
1000
0010
1000
,
0001
0000
0000
0001
0100
0000
0000
0100
0002
0000
0000
0000
0203
0000
0000
0000
,
0301
0000
1000
0000
0000
0000
0001
0100
0001
0100
0000
0010
1000
0000
0001
0000
,
1000
0000
0001
0000
0100
0000
0100
0000
0100
0000
0010
0000
1000
0000
0001
0100
,
0001
0000
1000
0000
0100
0010
0100
0000
1000
0000
0001
0000
1000
0000
0010
0000
,
1000
0001
1000
1000
0001
0010
1000
0010
,
0001
0001
1000
1000
0010
0010
0100
0100
,
0101
0000
0001
0000
1000
0000
1000
0000
0001
0000
0100
0000
0010
0000
1000
0001
,
1000
0000
0001
0000
0100
0010
0100
0000
0001
0000
0010
0000
0100
0000
0010
0000
,
0001
0000
1000
0001
0100
0000
0100
0000
0010
0000
1000
0000
0001
0000
0100
0000
,
1000
0100
0000
0010
0100
0001
0100
0001
,
1000
0100
0000
1000
0200
0000
0000
0000
0310
0000
0000
0000
0001
0000
1000
0000
,
0100
0001
0100
1000
0002
0000
0103
0010
,
1000
0000
0002
0000
0013
0000
0100
1000
,
0001
0000
0010
0000
0001
0000
1000
0001
1000
0000
0010
0000
0100
0000
0001
0000
,
1001
0000
0000
1000
0100
0000
0001
0000
0100
0000
1000
0000
0002
0000
0000
0000
,
0103
0000
0000
0001
0010
0000
0001
0000
1000
0000
0000
0000
0100
0000
0010
0000
,
0001
1000
0000
0001
1000
0000
0001
0000
0010
0000
0100
0000
2000
0000
0000
0000
,
3002
0000
0103
0010
2000
0000
3100
0000
,
1001
0000
0000
1000
0100
0000
0001
0000
0100
0000
1000
0000
0002
0000
0000
0000
,
1003
0000
0000
0001
1000
0000
0001
0000
1000
0000
0000
0000
0001
0000
0010
0000
,
0100
1000
0000
0100
0010
0000
0001
0000
1000
0000
0000
0000
0002
0000
0000
0000
,
0103
0000
0010
0000
1000
0000
0001
1000
0020
0000
0000
0000
0130
0000
0000
0000
,
0101
0000
0000
0001
0010
0000
1000
0000
0010
0000
0000
0000
0200
0000
0000
0000
,
1300
0000
0000
0010
0100
0000
0001
0000
0010
0000
0000
0000
0001
0000
1000
0000
,
0010
1000
0000
0010
1000
0000
0001
0000
0100
0000
0010
0000
2000
0000
0000
0000
,
3001
0100
0001
1000
0100
0010
0001
0000
,
0101
0000
0000
0001
0010
0000
0100
0000
0001
0000
0100
0000
1000
0000
0001
0000
,
0010
0000
0000
0001
1000
0000
0001
0000
1000
0000
0000
0000
0001
0000
0010
0000
,
0100
1000
0000
0100
1000
0000
0001
0000
0010
0000
0000
0000
0002
0000
0000
0000
,
1003
0000
0001
0000
0010
0000
0001
1000
0001
0000
0100
0000
0010
0000
0020
0000
,
0000
0030
0000
0000
;

//--------------- dance-single - BU DS XO FS SS- SJ- ----------------
#NOTES:
     dance-single:
     BU DS XO FS SS- SJ-:
     Challenge:
     13:
     0.599,0,0.11,0.022,0.624:
0000
0000
0000
0000
,
0000
0000
0000
0000
,
2000
0000
0000
3001
0200
0000
0000
0310
2000
0000
0000
3100
0020
0000
0001
0000
,
0032
0000
0000
0000
0000
0000
0000
0000
1003
0000
0000
0000
0001
0100
0001
0000
0010
0000
0000
0000
0001
1000
0001
1000
0001
0000
0000
0000
0100
0000
0000
0000
,
0001
1000
0001
0100
1000
0100
0001
0100
0010
0100
0001
0000
2000
0000
0100
0000
,
3002
0000
1003
0100
0010
0001
0100
0001
,
1000
0100
1000
0010
0001
0010
1000
0001
1000
0001
0200
0000
0310
1000
0010
1000
,
0001
0010
0001
1000
0010
0000
0100
0000
0001
0000
1000
0100
1000
0000
0001
1000
,
1001
0000
0001
0100
1000
0000
1000
0000
0100
0000
0001
0100
0010
0000
0100
0010
,
1000
0000
0010
0100
0001
1000
0001
0000
0100
0000
0001
0010
0001
1000
0100
1000
,
0001
0000
1000
0100
0001
0000
0001
0000
0100
0000
1000
0000
0010
0000
0100
0010
,
0001
0000
0010
0100
0001
0100
0010
0000
1000
0000
0100
0000
0010
0001
0000
1000
,
2100
0000
3001
0010
1000
0000
0010
0100
0010
0000
0001
0000
1000
0100
0000
1000
,
0010
0000
1000
0001
0010
0001
1000
0000
0001
0000
0100
0000
0010
0000
1000
0100
,
0010
0000
0001
1000
0010
0100
0010
1000
0001
0000
0010
0100
1000
0000
0001
0000
,
1001
0000
0000
0000
1000
0000
0000
0000
0010
0000
0000
0000
1000
0001
1000
0001
2000
0000
0000
0000
0000
0000
0000
0000
3001
0000
0000
0000
0000
0000
0000
0000
,
0101
0000
0000
0100
10MM
0000
0100
0000
0001
0000
0010
0000
0001
0000
0100
0000
,
0001
0000
0000
0001
1000
0000
0100
0000
0001
0000
0100
0000
0010
0000
0001
0000
,
1000
0010
0M00
0010
0001
0000
0100
0000
0001
1000
0001
0000
1000
0000
0100
0000
,
0020
0001
0130
0010
0002
0000
1003
0001
,
1100
0000
0000
0100
M0M1
0000
0100
0000
1000
0000
0001
0000
0200
0000
0000
0000
,
0301
0000
0000
1000
0100
0000
0001
00M0
0001
0000
0100
0000
0010
0000
1000
0000
,
0001
0100
00M0
0100
1000
0000
0001
0000
1000
0010
0100
0000
0002
0000
1000
0000
,
0013
0000
0000
0000
0100
0000
0000
0000
1000
0000
0000
0000
0001
0100
0001
0000
1000
0000
0000
0000
0100
0000
0000
0000
0010
0000
0000
0000
0001
0000
0000
0000
,
1002
0000
0000
1003
0200
0000
0000
0310
0002
0000
0000
0000
1003
0000
0010
0000
,
0100
0001
0010
0001
1000
0100
0001
0100
,
2000
0000
0000
3010
2000
0000
0000
3001
0020
0000
0000
0000
0031
0000
0100
0000
,
0010
0000
0000
0000
1000
0000
0000
0000
0001
0000
0000
0000
1000
0001
1000
0000
0010
0000
0100
0000
0000
0000
0001
0000
1000
0000
0000
0000
0001
0000
0100
0000
,
0101
0000
0001
1000
0100
00M0
0100
0000
0001
1000
0000
0001
0100
0000
0001
1000
,
0010
0000
1000
0100
0001
0100
0010
0000
0001
1000
0000
0001
1000
0100
0010
0100
,
1000
0000
0001
1000
0100
00M0
0100
0000
0010
0000
2000
0000
3001
0000
0010
0000
,
0100
0000
0100
0000
0010
0000
0010
0000
0001
1000
0000
0001
0100
0000
0001
1000
,
1001
0000
0001
0000
0010
0M00
0010
0000
1000
0100
0000
1000
0001
0000
1000
0001
,
0100
0000
0001
0010
1000
0010
0100
0000
0010
0001
0000
1000
0010
0100
0001
0010
,
0100
0000
0010
0001
0010
0M00
0010
0000
1000
0000
1001
0000
0001
0000
0100
0000
,
0010
0000
1000
0000
0001
0000
0010
0100
1000
0001
0100
0010
1000
0001
0010
0100
,
1000
0001
0000
1000
0002
0000
0100
0000
1003
0000
0000
0000
0001
0000
1000
0000
,
0100
0010
0001
0100
0010
0000
1000
0001
,
0100
0000
0020
0000
1030
0000
0001
0010
,
0100
0000
0000
0000
1000
0000
0000
0000
0001
0000
0000
0000
0100
0010
0100
0000
0001
0000
0000
0000
1000
0000
0000
0000
0001
0000
0000
0000
0010
0000
0000
0000
,
0011
0000
0000
0010
1M0M
0000
0010
0000
0001
0000
1000
0000
0002
0000
0100
0000
,
0013
0000
0000
0001
1000
0000
0100
0000
0010
0000
0001
0000
1000
0000
0001
0000
,
1000
0010
0M00
0010
0002
0000
1000
0000
0013
0100
0010
0000
0001
0000
1000
0000
,
0001
0010
0001
0000
1000
0100
1000
0000
0001
0000
1000
0000
0010
0000
1000
0000
,
1010
0000
0000
0010
MM01
0000
0010
0000
1000
0000
0001
0000
2000
0000
0010
0000
,
3001
0000
0000
0001
0100
0000
1000
00M0
1000
0000
0001
0000
0100
0000
0010
0000
,
0100
0010
M000
0010
0001
0000
0100
0000
0010
1000
0010
0000
1000
0000
0001
0000
,
1000
0000
0000
0000
0100
0000
0000
0000
0010
0000
0000
0000
0001
0000
1000
0001
1000
0000
0000
0000
0100
0000
0000
0000
0010
0000
0000
0000
0001
0000
0000
0000
,
0101
0000
0000
0100
10MM
0000
0100
0000
0010
0000
1000
0000
0002
0000
0010
0000
,
1003
0000
0000
0001
0100
0000
0010
0000
1000
0000
0100
0000
0010
0000
0001
0000
,
0010
0100
M000
0100
0001
0000
0010
0000
0100
1000
0001
0000
1000
0010
0100
0000
,
0002
0100
1003
0010
0100
0001
1000
0010
,
0011
0000
0000
0010
1M0M
0000
0010
0000
0001
0000
1000
0000
0002
0000
0100
0000
,
1003
0000
0000
1000
0010
0000
0001
0M00
0001
0000
1000
0000
0010
0000
0100
0000
,
0001
0010
0M00
0010
2000
0000
0001
0000
3010
0100
0010
0000
0200
0000
0001
0000
,
0301
0000
0000
0000
0010
0000
0000
0000
0100
0000
0000
0000
1000
0001
1000
0000
0010
0000
0000
0000
0100
0000
0000
0000
0001
0000
0000
0000
0002
0000
0000
0000
,
0000
0003
0000
0000
;

//--------------- dance-double - XO FS- ----------------
#NOTES:
     dance-double:
     XO FS-:
     Hard:
     12:
     0,0,0,0,0:
00000000
00000000
00000000
00000000
,
00000000
00000000
00000000
00000000
,
00001000
00000000
00000000
00001000
00100000
00000000
00000000
00100000
00020000
00000000
00000000
00000000
20030000
00000000
00000000
00000000
,
30010000
00000000
01000000
00000000
00010000
00000000
00100000
00001000
00100000
00000000
00001000
00000000
00010000
00000000
00000100
00000000
,
00010100
00000000
00000000
00010000
00001000
00000000
00000000
00001000
00000200
00000000
00000000
00000000
00000301
00000000
00000000
00000000
,
00000200
00000000
00001300
00000100
00001000
00000100
00010000
00001000
,
00010000
00000000
00000000
00010000
00001000
00000000
00000000
00001000
02000000
00000000
00000000
00000000
03100000
00000000
00000000
00000000
,
02000000
00000000
00010000
00000000
03010000
00000000
10000000
00000000
00010000
00000000
10000000
01000000
10000000
00000000
00010000
00100000
,
00010000
00000000
01000000
00001000
00010000
00000000
00010000
00000000
00000100
00000000
00001000
00000100
00000010
00000000
00000100
00001000
,
00000001
00000000
00001000
00000100
00001000
00000100
00001000
00000000
00000001
00000000
00001000
00000010
00000100
00000001
00000100
00000010
,
00001000
00000000
00001000
00010000
00000100
00000000
00000100
00000000
00010000
00000000
00001000
00000000
01000000
00000000
00010000
10000000
,
00010000
00000000
10000000
01000000
00100000
00010000
00100000
00000000
01000000
00000000
10000000
00000000
00010000
01000000
00000000
00010000
,
00100000
00000000
00001000
00010000
00000100
00000000
00000100
00000000
00010000
00000000
00001000
00000000
01000000
00100000
00000000
01000000
,
00010000
00000000
10000000
01000000
00100000
01000000
10000000
00000000
00010000
00000000
01000000
00000000
00100000
00000000
10000000
00010000
,
10000000
00000000
01000000
00100000
00010000
00100000
00001000
00010000
00001000
00000000
00010000
00000100
00010000
00000000
00000100
00000000
,
00001000
00000001
00000010
00000100
00002000
00000000
00003001
00000000
,
00000101
00000000
00000000
00000100
MMMM10MM
00000000
00000100
00000000
00000010
00000000
00001000
00000000
00000200
00000000
00000000
00000000
,
00010300
00000000
00000000
00001000
00010000
00000000
00001000
00000000
01000000
00000000
00100000
00000000
10000000
00000000
00010000
00000000
,
10000000
01000000
00000000
10000000
01000000
00000000
00100000
00000000
00010000
01000000
00001000
00000000
00020000
00000000
00000010
00000000
,
00031000
00010000
00000010
00000100
00000010
00010000
00001000
00100000
,
00110000
00000000
00000000
00100000
1M0MMMMM
00000000
00100000
00000000
01000000
00000000
00100000
00000000
00002000
00000000
00000000
00000000
,
00013000
00000000
00000000
00001000
00010000
00M00000
00010000
00000000
01000000
00000000
00100000
00000000
10000000
00000000
00010000
00000000
,
00100000
00001000
00000000
00100000
00001000
00000000
00010000
00000000
00000100
00001000
00000001
00000000
00000010
00000000
00000100
00000000
,
00002000
00000000
00000000
00000000
00003000
00000000
00000001
00000100
00000010
00000000
00001000
00000000
00000001
00000000
00000100
00000000
,
00000110
00000000
00000000
00000010
00001000
00000000
00000000
00001000
00000200
00000000
00000000
00000000
00001300
00000000
00000000
00000000
,
00000001
00000100
00000010
00001000
00000100
00001000
00000100
00010000
,
00001000
00000000
00000000
00100000
00010000
00000000
00000000
01000000
00100000
00000000
00000000
00000000
02000000
00000000
00000000
00000000
,
03010000
00000000
10000000
00000000
01000000
00000000
10000000
00010000
10000000
00100000
00000000
10000000
00010000
00000000
10000000
01000000
,
00100000
00000000
00010000
00100000
00001000
00000000
00001000
00000000
00010000
00001000
00000000
00010000
00000010
00000000
00001000
00000100
,
00000010
00000000
00000001
00000010
00000100
00001000
00000100
00000000
00010000
00001000
00000000
00010000
00001000
00100000
00010000
00100000
,
01000000
00000000
00100000
00010000
10000000
00000000
10000000
00000000
00010000
00000000
01000000
00000000
10000000
00000000
01000000
00000000
,
00100000
00000000
00100000
00000000
10000000
00000000
01000000
00000000
00100000
00010000
00000000
01000000
00100000
00000000
10000000
00010000
,
00100000
00000000
00001000
00000000
00010000
00000000
00010000
00000000
00001000
00010000
00000000
00000100
00001000
00000000
00000001
00001000
,
00000001
00000000
00001000
00000010
00000100
00000010
00001000
00000000
00000100
00001000
00000000
00000100
00010000
00001000
00010000
00001000
,
00100000
00000000
00010000
00100000
01000000
00000000
00100000
00000000
00010000
00000000
10000000
00000000
00100000
00000000
01000000
00000000
,
00010000
01000000
00100000
10000000
01000000
00000000
00100000
00000000
,
00010000
10000000
00000000
00010000
02000000
00000000
00000000
00000000
03100000
00000000
00000000
00000000
00000000
00000000
10000000
00000000
,
01000000
00100000
00010000
00001000
00000100
00000000
00000000
00000000
,
00000010
00000001
00000000
00000010
00000002
00000000
00000000
00000000
00000103
00000000
00000000
00000000
00000000
00000000
00000010
00000000
,
00000100
00001000
00010000
00100000
01000000
00010000
01000000
00010000
,
01010000
00000000
00000000
01000000
10MMMMMM
00000000
01000000
00000000
00010000
00000000
00100000
00000000
00002000
00000000
00000000
00000000
,
00013000
00000000
00000000
00000010
00000100
00000000
00000010
00000000
00000100
00000000
00000001
00000000
00001000
00000000
00000100
00000000
,
00000010
00000001
00000000
00000010
00000001
00000000
00001000
00000000
00000010
00000100
00000010
00000000
00002000
00000000
00000000
00000000
,
00003001
00001000
00000100
00010000
00000100
00001000
00000001
00001000
,
00001100
00000000
00000000
00000100
MMMMM0M1
00000000
00000100
00000000
00000010
00000000
00000100
00000000
00001000
00000000
00000100
00000000
,
01000000
00000000
00000000
01000000
00010000
00M00000
00010000
00000000
00001000
00000000
00010000
00000000
00000010
00000000
00000100
00000000
,
00000001
00000010
00000000
00000001
00000010
00000000
00000100
00000000
00001000
00000010
00001000
00000000
00000001
00000000
00001000
00000000
,
00000200
00000000
00010300
00001000
00100000
00010000
01000000
00001000
,
00011000
00000000
00000000
00010000
M010MMMM
00000000
01000000
00000000
00010000
00000000
01000000
00000000
00100000
00000000
00010000
00000000
,
00100000
00000000
00000000
00001000
00010000
00000000
00000010
00000000
00000100
00000000
00000010
00000000
00001000
00000000
00000001
00000000
,
00001000
00000100
00000000
00001000
00000020
00000000
00001000
00000000
00001030
00000001
00001000
00000000
00000020
00000000
00000000
00000000
,
00200030
00000000
00301000
00010000
00000100
00010000
00000010
00001000
,
00001100
00000000
00000000
00001000
MMM10MMM
00000000
00001000
00000000
00000100
00000000
01000000
00000000
00100000
00000000
01000000
00000000
,
00001000
00000000
00000000
00010000
00001000
000000M0
00001000
00000000
00000100
00000000
00001000
00000000
00000001
00000000
00001000
00000000
,
00000010
00000100
00000000
00000001
00000100
00000000
00000001
00000000
00000010
00000001
00001000
00000000
00000010
00000000
00010000
00000000
,
00002000
00000000
01003000
00000000
00010000
00000000
01000000
00002000
,
00000000
00003000
00000000
00000000
;
