#TITLE:Diastrophism;
#SUBTITLE:;
#ARTIST:かめりあ;
#TITLETRANSLIT:;
#SUBTITLETRANSLIT:;
#ARTISTTRANSLIT:;
#GENRE:;
#CREDIT:;
#MUSIC:00086.mp3;
#BANNER:Diastrophism-bn.png;
#BACKGROUND:Diastrophism-bg.png;
#CDTITLE:;
#SAMPLESTART:0.000;
#SAMPLELENGTH:0.000;
#SELECTABLE:YES;
#OFFSET:-0.263;
#BPMS:0.000=228.000;
#STOPS:;
#BGCHANGES:;
#FGCHANGES:;

//--------------- dance-single - Highflyer ----------------
#NOTES:
     dance-single:
     Highflyer:
     Beginner:
     6:
     0,0,0,0,0:
0000
0000
0000
0000
,
0000
0000
0000
0000
,
0000
0000
0000
0000
,
0000
0000
0000
0000
,
0000
0000
0000
0000
,
0000
0000
0000
0000
,
0000
0000
0000
0000
,
0000
0000
0000
0000
,
0000
0000
0000
1000
,
0000
0000
0000
0000
,
0000
0000
0000
0010
,
0000
0000
0000
0000
,
0000
0000
0000
0100
,
0000
0000
0000
0000
,
0000
0000
0000
0001
,
0000
0000
0000
0000
,
0000
0000
0000
1000
,
0000
1000
0000
1000
,
0000
0000
0000
0100
,
0000
0100
0000
0100
,
0000
0000
0000
0010
,
0000
0010
0000
0010
,
0000
0000
0000
0001
,
0000
0000
0000
0000
,
0000
1000
0000
1000
,
0000
0010
0000
0010
,
0000
0100
0000
0010
,
0000
0100
0000
0001
,
0000
1000
0000
0100
,
0000
0010
0000
0100
,
0000
1000
0000
0001
,
0000
0100
0000
0010
,
0000
0100
0000
0010
,
0000
0100
0000
0001
,
0000
1000
0000
0100
,
0000
0010
0000
0100
,
0000
1000
0000
0001
,
0000
0000
0000
1000
,
0000
0000
0000
0010
,
0000
0010
0000
0010
,
0000
0000
0000
0100
,
0000
0000
0000
0000
,
0000
0000
0000
0001
,
0000
0001
0000
0001
,
0000
0000
0000
1000
,
0000
1000
0000
0100
,
0000
0100
0000
0010
,
0000
0010
0000
0001
,
0000
0001
0000
1000
,
0000
1000
0000
0010
,
0000
0010
0000
0100
,
0000
0100
0000
0001
,
0000
0001
0000
0010
,
0000
0010
0000
0100
,
0000
0100
0000
1000
,
0000
1000
0000
0001
,
0000
1000
0000
0001
,
0000
0001
0000
0100
,
0000
0100
0000
0010
,
0000
1000
0000
0001
,
0000
0010
0000
0100
,
0000
0000
0000
0000
,
0000
0000
0000
0010
,
0000
0000
0000
0000
,
0000
0000
0000
0001
,
0000
0000
0000
0000
,
0000
0000
0000
1000
,
0000
0000
0000
0000
,
0000
0000
0000
0010
,
0000
0010
0000
0100
,
0000
0100
0000
0010
,
0000
0010
0000
1000
,
0000
1000
0000
0001
,
0000
0001
0000
0010
,
0000
0010
0000
0100
,
0000
0100
0000
0010
,
0000
0010
0000
0001
,
0000
0000
0001
0000
,
0000
0000
0000
1000
,
0000
0000
1000
0000
,
0000
0000
0000
0010
,
0000
0000
0010
0000
,
0000
0000
0000
1001
,
0000
0000
1001
0000
,
0000
0000
0000
0001
,
0000
0001
0000
0010
,
0000
0010
0000
0001
,
0000
0001
0000
1000
,
0000
1000
0000
0010
,
0000
0010
0000
0100
,
0000
0100
0000
0010
,
0000
1000
0000
0002
,
0000
0000
0003
0010
,
0000
0001
1000
0001
,
1000
0001
1000
0001
,
0000
0100
0010
0100
,
0010
0100
0000
0010
,
0000
1000
0100
1000
,
0100
1000
0100
1000
,
0000
1000
0000
0001
,
0000
0001
0000
0100
,
0000
0010
1000
0010
,
1000
0010
1000
0010
,
0000
1000
0100
1000
,
0100
1000
0000
0001
,
0000
0001
0000
0100
,
0000
0100
0000
0010
,
0000
0010
0000
0010
,
0000
0000
0000
1000
,
0001
1000
0001
1000
,
0001
1000
0001
1000
,
0001
1000
0001
1000
,
0000
1000
0000
0010
,
0100
0010
0100
0010
,
0100
0010
0100
0010
,
0000
0000
0020
0030
;

//--------------- dance-single - Highflyer ----------------
#NOTES:
     dance-single:
     Highflyer:
     Easy:
     9:
     0,0,0,0,0:
0000
0000
0000
0000
,
0000
0000
0000
0000
,
0000
0000
0000
0000
,
0000
0000
0000
0000
,
0000
0000
0000
0001
,
0000
1000
0000
0000
0010
0000
0000
0010
,
0000
0100
0001
1000
,
0000
0001
0000
0000
1000
0000
0000
0010
,
0000
2000
0000
3001
,
0010
0000
0001
0000
0000
1000
0000
0000
,
0010
0100
0000
0010
,
1000
0000
0100
0000
0000
0010
0000
0000
,
0100
1000
0000
0001
,
0100
0000
0001
0000
0000
1000
0000
0000
,
0100
1000
0020
0130
,
0000
0000
0100
0000
0000
0001
0000
0000
,
0010
0100
0010
0001
,
1000
0010
0100
0001
,
0010
0100
0010
0001
,
1000
0010
0100
0001
,
0010
0100
0010
0001
,
1000
0001
0100
0001
,
0010
0100
0010
0002
,
0000
0000
0000
0000
,
0000
2003
0000
3010
,
0010
1000
0100
0001
,
0100
1000
0100
0020
,
0032
1003
0010
0001
,
0010
2000
0000
3001
,
1000
0001
0100
1000
,
0100
0002
0000
0023
,
0000
0230
2300
3020
,
0130
0020
0000
0130
,
0000
0001
0010
1000
,
0010
0001
0010
0100
,
0100
1000
0010
0001
,
0010
2000
0000
3001
,
0000
0011
0000
1000
,
0000
1010
0000
0001
,
0000
0001
0000
0002
,
0000
0000
0000
1003
,
0100
0000
0010
0000
0000
0010
0000
0000
,
0100
1000
0010
0200
,
0000
0302
0000
2003
,
0000
0000
0000
3001
,
0100
0010
0010
1000
,
0100
0010
0002
1003
,
0010
0100
0001
1000
,
0001
0020
0030
0020
,
0130
1000
0001
1000
,
0010
0100
0002
1003
,
0100
0010
0100
1000
,
0010
0200
0000
0310
,
1000
0001
0010
0100
,
1000
0001
0001
0100
,
0010
1000
0100
0010
,
0010
0100
0100
1000
,
0001
0100
0010
0100
,
0100
0010
0010
1000
,
0001
0010
0001
0100
,
0010
1000
0001
2002
,
0000
0000
0000
0000
,
0000
0000
3003
0002
,
0000
0000
0000
0000
,
0000
0000
0000
0023
,
0000
0000
0000
0000
,
0000
0000
0000
0230
,
0000
0000
0000
0000
,
0000
0000
0000
0310
,
0001
0010
0000
0100
,
1000
0100
0000
1000
,
0001
1000
0000
0010
,
0100
0010
0000
0100
,
0001
0100
0000
0001
,
0010
0001
0000
1000
,
0100
1000
0000
0001
,
0100
0001
0000
1010
,
0000
1010
0000
0000
1010
0000
0000
0000
,
0000
0000
0000
0011
,
0000
0011
0000
0000
0011
0000
0000
0000
,
0000
0000
0000
1001
,
0000
1001
0000
0000
1001
0000
0000
0000
,
0000
0000
0000
0000
0000
0000
2000
3000
,
0000
0002
0003
0000
1100
0000
0000
0000
,
0000
0000
0000
1000
,
0001
0100
0001
0010
,
0010
0100
0100
1000
,
0001
1000
0010
0100
,
0100
0010
0010
0100
,
0001
1000
0100
0010
,
0010
0100
0100
2000
,
0000
0000
0000
0000
,
0000
0000
3000
0001
,
0001
1000
0010
0001
,
0010
1000
0010
0200
,
0301
1000
0100
0001
,
0100
2000
3002
0023
,
0230
1300
0010
0001
,
0010
2000
3002
0013
,
0100
0010
0001
1000
,
0001
2000
0000
3001
,
0010
0001
0100
1000
,
0100
0001
0100
0020
,
1030
0001
0010
1000
,
0010
0002
0003
1010
,
0000
1001
0000
0011
,
0000
1001
0000
1010
,
0000
1010
0000
0110
,
0000
0000
0000
1000
,
0100
0001
0100
1000
,
0010
0001
0010
1000
,
0100
0001
0100
1000
,
0010
0100
0100
0001
,
0010
1000
0010
0001
,
0100
1000
0100
0001
,
0000
0001
0000
0000
2000
0000
3000
0000
;

//--------------- dance-single - Highflyer ----------------
#NOTES:
     dance-single:
     Highflyer:
     Medium:
     13:
     0,0,0,0,0:
0000
0000
0000
0000
,
0000
0000
0000
0000
,
0000
0000
0000
0000
,
0000
0000
0000
0000
,
0000
0000
0000
0000
0000
0000
1000
0010
,
0000
0100
0000
0001
0010
0100
0000
0010
,
0100
0000
0020
0000
0032
0000
1003
0010
,
0000
0100
0000
0010
1000
0001
0000
0010
,
0100
0020
0000
0031
,
1000
0000
0001
0100
0000
0010
0000
0100
,
0001
0010
2000
3010
,
0100
0000
1000
0000
0001
0100
0000
0001
,
0100
0020
0032
0013
,
0100
0000
0001
1000
0000
0100
0000
1000
,
0001
0000
0100
0010
0100
0000
0001
0000
,
0010
0000
0100
0000
1000
0001
0000
1000
,
0001
0200
2300
3100
,
0010
1000
0010
0000
1000
0000
1002
0000
,
0013
2001
3010
1000
,
0001
0010
0001
0000
1000
0000
1200
0000
,
0310
0201
0310
1000
,
0001
0100
0010
0000
1000
0000
1002
0000
,
0013
0102
0013
0200
,
0000
0000
0000
0000
,
0000
0000
0320
0000
0000
0030
1002
0000
,
1003
0000
0100
0010
0001
0000
1000
0010
,
0100
0000
0001
0010
0100
0000
2000
0000
,
3001
0100
0001
1000
0010
0000
1000
0001
,
0010
0200
0000
0310
,
1001
0000
0001
1000
0100
0000
1000
0001
,
0100
0000
0000
0001
0000
1000
0200
0000
0000
0320
0000
0000
,
0032
0000
0203
0000
0320
0000
0130
0001
,
0200
0020
0330
1001
,
0000
0000
1000
0100
1000
0000
0001
0100
,
0001
0000
1000
0100
1000
0000
0002
0000
,
0103
0010
0100
0010
1000
0000
0100
0010
,
0001
0000
0000
0000
2000
0000
0000
0000
0000
0000
0000
0000
3001
0000
0000
0100
,
0000
0000
0000
0000
0010
0000
0000
0000
0000
0000
0000
0000
0100
0000
0000
0001
,
0000
0000
0010
0000
0000
0000
0100
1000
,
0000
0000
0010
0100
0000
0000
0002
0000
,
0000
0000
0000
1003
,
0100
0000
0010
0001
0000
0010
0000
0100
,
1000
0000
0001
0100
0002
0000
0023
0000
,
0000
0230
0000
2300
,
0000
0000
0000
0000
0000
0000
3001
0100
,
0001
0000
0010
0000
0100
0000
0010
0001
,
0010
0000
0100
1000
0100
0000
1000
0000
,
0010
0000
0100
0001
0100
0000
0010
1000
,
0010
1000
0002
0000
0000
0000
0013
0100
,
0010
0000
0001
0100
0001
0000
1000
0100
,
1000
0000
0001
0000
0100
0010
0100
0010
,
1000
0000
0001
0010
0001
0000
1000
0010
,
0100
0000
0020
0000
0000
0000
0130
0001
,
0000
0100
0001
0000
1000
0000
0100
0010
,
0100
0010
0001
0000
1000
0010
1000
0000
,
0001
0000
0100
0000
0010
1000
0010
0000
,
1000
0000
0001
0010
0001
0000
1000
0100
,
0010
0000
0001
1000
0001
0000
0100
0010
,
1000
0001
0010
0100
0010
0000
0001
1000
,
0010
0000
1000
0001
0010
0000
0100
1000
,
0001
0000
0100
0001
1000
0100
0020
0000
,
0000
0000
0000
0000
,
0000
0000
0000
0032
,
0000
0000
0000
0000
,
0000
0000
0000
2003
,
0000
0000
0000
0000
,
0000
0000
0000
3020
,
0000
0000
0000
0000
,
0000
0000
0000
0130
,
0001
0000
1000
0100
0000
1000
0000
0001
,
1000
0000
0010
0100
0010
0000
0100
0001
,
0100
0000
0001
0000
1000
0100
0000
1000
,
0100
0020
0032
1003
,
0010
0000
0100
0010
0000
1000
0000
0010
,
0100
0000
0001
0010
0001
0000
1000
0100
,
0010
0000
0100
0000
1000
0001
0000
1000
,
0001
0100
0100
0010
,
0000
0010
0000
0000
1000
0100
0000
0000
,
0000
0000
0000
0010
,
0000
0010
0000
0000
0001
0100
0000
0000
,
0000
0000
0000
0010
,
0000
0010
0000
0000
1000
0100
0000
0000
,
0000
0000
0000
0000
0000
0000
1000
0100
,
0000
0001
0100
0000
1000
0001
0000
0000
,
0000
0000
0000
0100
,
0010
1000
0010
0000
1000
0000
2001
0000
,
3010
1002
0013
0001
,
1000
0010
1000
0000
0001
0000
0201
0000
,
0310
1200
0310
0001
,
1000
0100
0010
0000
0001
0000
2001
0000
,
3010
2100
3010
0200
,
0000
0000
0000
0000
,
0000
0000
0320
0000
0130
0000
0001
0010
,
0100
0000
1000
0010
1000
0000
0001
0010
,
0001
0000
1000
0100
1000
0000
0002
0000
,
0013
0100
1000
0001
1000
0000
0010
0100
,
0010
0100
0001
0000
1000
0000
0100
0000
,
0010
0000
0001
0100
0010
0000
1000
0100
,
0010
0000
0000
0001
0000
1000
0010
0000
1000
0002
0000
0000
,
0023
0230
2300
3020
,
0130
0001
0020
0000
0000
0000
0130
1000
,
0100
1000
0001
0100
0001
0000
1000
0100
,
1000
0000
0010
0100
0010
0000
0100
0001
,
0010
0000
0100
1000
0001
1000
0010
0100
,
0010
0000
0000
0000
0200
0000
0000
0000
0000
0000
0000
0000
0310
0000
0000
1000
,
0000
0000
0000
0000
0001
0000
0000
0000
0000
0000
0000
0000
0010
0000
0000
0100
,
0000
0000
1000
0000
0000
0000
0010
0100
,
0000
0000
0001
0010
0000
0000
0200
0000
,
0000
0000
0000
0000
0000
0000
1300
0001
,
1000
0010
1000
0001
0100
0000
0010
0100
,
0001
1000
0100
0010
0001
0000
1000
0100
,
1000
0001
1000
0010
0100
0000
0010
0000
,
1000
0100
0010
0001
0010
0000
0100
1000
,
0001
1000
0010
0100
0001
1000
0001
0010
,
0100
1000
0001
0100
0001
1000
0010
0100
,
0000
0010
0000
0100
0001
0020
0000
0000
,
0030
0000
0000
0000
;

//--------------- dance-single - Highflyer ----------------
#NOTES:
     dance-single:
     Highflyer:
     Hard:
     16:
     0,0,0,0,0:
0000
0000
0000
0000
,
0000
0000
0000
0000
,
0000
0000
0000
0000
,
0000
0000
0000
0000
,
0000
0000
0000
0000
0000
0000
1000
0010
,
0000
0010
0000
0100
0001
0010
0000
0010
,
0001
0000
2000
0000
3002
0000
1003
0100
,
0000
0100
0000
0010
0001
0100
0000
0100
,
0001
0000
1000
0100
0010
0001
0100
0000
,
0010
0000
1000
0100
0000
0001
0000
0100
,
0010
0000
0001
1000
0020
0000
0130
0001
,
1000
0000
0001
0000
0100
1000
0000
0100
,
0001
0020
0230
0310
,
0001
0000
1000
0010
0000
0001
0000
0010
,
0100
0000
0001
0010
0200
0000
0310
0001
,
1000
0000
0001
0000
0010
1000
0000
0010
,
0001
0000
2000
0000
3020
0000
0130
0001
,
1000
0100
0010
0100
1000
0001
0200
0001
,
0310
1000
0002
1000
0013
0100
1000
0001
,
0100
0001
1000
0001
0010
0100
2000
0001
,
3010
0000
1000
0000
0200
0000
1000
0000
0310
0000
0001
0000
1000
0010
1000
0000
,
0001
0000
0010
0000
0100
1000
0100
0000
0010
0000
0001
0000
1000
0010
1000
0000
,
0001
0000
1000
0000
0001
0010
0001
0000
1000
0000
0001
0000
0200
0000
0000
0000
,
0000
0000
0000
0000
,
0000
0000
0320
0000
0000
0030
1002
0000
,
0103
0000
0010
1000
0001
0010
0001
0100
,
1000
0100
0001
1000
0010
0001
0020
0000
,
0230
0302
1003
0010
1000
0100
0001
0100
,
1000
0010
0002
0000
0023
0000
0230
0000
,
0302
0000
1003
0001
1000
0010
0001
0010
,
0100
0000
0000
0001
0000
0000
1000
0000
0100
0000
1000
0000
0001
0000
0100
0000
0001
0000
0020
0000
0000
0000
0000
0000
,
0230
0000
0320
0000
0032
0000
2003
3200
,
0302
0203
0000
1300
,
0000
0000
0001
0010
0100
0010
0001
0100
,
1000
0100
0001
1000
0100
0001
0200
0000
,
0301
0100
1000
0010
0100
0001
1000
0010
,
0001
0000
0010
0000
0200
0000
0000
0000
0000
0000
0000
0000
0301
0000
0000
1000
,
0000
0000
0100
0000
0020
0000
0000
0000
1030
0000
0010
0000
0001
0000
0000
0001
,
0000
0100
0000
0000
0010
0000
0000
0000
0001
0000
0010
0000
1000
0000
0100
0000
,
0000
0010
0001
0100
0000
0010
2000
0000
,
0000
0000
0000
3001
,
0010
0000
0001
0100
0000
1000
0000
0100
,
0001
1000
0100
0010
0200
0000
0320
0000
,
0000
0032
0000
2003
,
0000
0000
3000
0000
0000
0000
0001
0100
,
0000
0001
0100
0010
1000
0000
0100
0010
,
0100
1000
0001
0010
0100
0001
0100
0010
,
0001
1000
0000
0010
1000
0001
0000
0010
,
0100
1000
0001
0100
1000
0000
0100
0010
,
0000
1000
0001
0010
0100
0000
0010
0001
,
1000
0010
0100
0001
0010
1000
0010
0100
,
1000
0001
0000
0100
0010
0100
0001
0010
,
0100
0000
0010
0000
0002
0000
0000
0000
0000
0000
0000
0000
1003
0010
1000
0000
,
0001
0000
0010
0000
0100
0000
1000
0000
0010
0100
0010
0000
1000
0000
0001
0000
,
0010
0001
0100
0010
0100
1000
0100
0001
,
1000
0000
0100
0000
0010
0000
0100
0000
1000
0000
0001
1000
0100
0000
0010
0000
,
0001
0000
1000
0001
0100
0000
0001
0000
0020
0000
0000
0000
0130
1000
0100
0000
,
1000
0000
0001
0000
0100
0000
0010
1000
0010
0000
0100
0000
0001
0000
1000
0000
,
0010
0000
0100
0000
0001
1000
0001
0000
0010
0000
0100
0000
1000
0000
0001
0100
,
0001
0000
0010
0000
0100
0000
1000
0001
1000
0000
0001
0000
0100
0000
0010
0000
,
0001
0010
1000
0100
0001
0100
2000
0000
,
0000
0000
0000
0000
,
0000
0000
0000
3020
,
0000
0000
0000
0000
,
0000
0000
0000
0230
,
0000
0000
0000
0000
,
0000
0000
0000
0302
,
0000
0000
0000
0000
,
0000
0000
0000
1003
,
0100
0000
1000
0010
0000
0001
0000
0010
,
0100
0000
0010
1000
0100
0000
0010
0001
,
0100
0000
0010
0000
1000
0100
0000
0001
,
0100
2000
3002
0203
,
0302
0000
1003
0010
0000
0001
0000
0010
,
0100
0000
0001
0010
0100
0000
1000
0001
,
1000
0000
0010
0000
1000
0010
0000
0001
,
0010
0200
0310
0110
,
0000
1001
0000
0000
1000
0001
0000
0000
,
0000
0000
0000
0101
,
0000
1100
0000
0000
0001
0010
0000
0000
,
0000
0000
0000
1010
,
0000
0011
0000
0000
1000
0010
0000
0000
,
0000
0000
0000
0000
0000
0000
0000
0000
0000
0000
0000
0000
0100
0001
0100
0000
,
0000
0000
0010
1000
0010
0000
0000
0000
1000
0000
0002
0000
0000
0000
0000
0000
,
1000
0000
0000
0000
1003
0000
0100
1000
,
0001
0100
0010
0100
0001
1000
0200
1000
,
0310
0001
2000
0001
3010
0100
0001
1000
,
0100
1000
0001
1000
0010
0100
0002
1000
,
0013
0000
0001
0000
0200
0000
0001
0000
0310
0000
1000
0000
0001
0010
0001
0000
,
1000
0000
0010
0000
0100
0001
0100
0000
0010
0000
1000
0000
0001
0010
0001
0000
,
1000
0000
0001
0000
1000
0010
1000
0000
0001
0000
1000
0000
0200
0000
0000
0000
,
0000
0000
0000
0000
,
0000
0000
0320
0000
0032
0000
1003
0100
,
0001
0000
0100
0010
0001
1000
0010
0100
,
1000
0100
0001
1000
0100
0001
0200
0000
,
0310
0001
0100
0010
1000
0100
0001
0100
,
1000
0001
0200
0000
0320
0000
2030
0000
,
3002
0000
0103
0010
0001
0010
0100
0001
,
0010
0000
0000
1000
0000
0000
0010
0000
0100
0000
1000
0000
0001
0000
0100
0000
0001
0000
2000
0000
0000
0000
0000
0000
,
3020
0000
0000
0000
0230
0000
0000
0000
2300
0000
0000
0000
3100
0000
0000
0001
,
1000
0100
0002
0000
0000
0000
1003
0010
,
0001
1000
0010
0100
1000
0100
0001
0010
,
0100
0001
0100
1000
0010
0100
1000
0100
,
0002
0000
1003
0100
0001
0100
0010
0100
,
0001
0000
0100
0000
2000
0000
0000
0000
0000
0000
0000
0000
3010
0000
0000
0100
,
0000
0000
0001
0000
0200
0000
0000
0000
1300
0000
0100
0000
0001
0000
0000
1000
,
0000
0100
0000
0000
0020
0000
0000
0000
1030
0000
0010
0000
0001
0000
0100
0000
,
0000
0010
1000
0100
0000
0010
0002
0000
,
0000
0000
0000
0000
0000
0000
1003
0100
,
0001
1000
0010
0001
1000
0001
0010
1000
,
0001
0100
1000
0001
0100
1000
0100
0010
,
0100
1000
0001
0010
1000
0001
0100
0001
,
0010
0000
0100
1000
0100
0000
0010
0000
0001
0000
0100
0000
0001
0000
0010
0000
,
1000
0001
0100
1000
0001
1000
0001
0100
,
1000
0000
0001
0000
0010
0000
1000
0000
0001
0000
0010
0100
0010
0000
0001
0000
,
0000
1000
0000
0001
0100
2000
0000
0000
,
3000
0000
0000
0000
;

//--------------- dance-single - Highflyer ----------------
#NOTES:
     dance-single:
     Highflyer:
     Challenge:
     19:
     0,0,0,0,0:
0000
0000
0000
0000
,
0000
0000
0000
0000
,
0000
0000
0000
0000
,
0000
0000
0000
0000
,
0000
0000
0000
0000
0000
0000
0001
1000
,
0000
0100
0000
0010
0001
0100
0000
0010
,
0100
0000
0001
0000
1000
0000
0100
0010
,
0000
0100
0000
1000
0001
0100
0000
0010
,
1000
0100
0010
0001
1000
0010
1000
0000
,
0010
0000
0100
0001
0000
0010
0000
0100
,
0010
0001
1000
1000
0020
0000
0130
1000
,
0100
0000
0010
0000
1000
0100
0000
1000
,
0001
0020
0230
1300
,
0001
0000
1000
0100
0000
0001
0000
0100
,
0001
0100
0010
0010
0002
0000
1003
0010
,
0100
0000
0001
0000
0010
0000
0000
0000
0001
0000
1000
0000
0010
0100
0010
0000
,
1000
0000
0001
0010
0001
0000
1000
0000
0001
0000
0000
0000
0100
0010
0100
0000
,
0001
0000
1000
0100
1000
0000
0001
0000
0100
0010
0100
0000
0001
1000
0001
0000
,
0100
0000
0010
1000
0010
0000
0100
0000
0001
1000
0001
0000
0010
0100
0010
0000
,
0001
0000
1000
0001
1000
0000
0001
0000
1000
0100
1000
0000
0010
0100
0010
0000
,
1000
0000
0001
0010
0001
0000
1000
0000
0100
0010
0100
0000
1000
0001
1000
0001
,
0100
0010
0100
0010
1000
0001
1000
0001
0010
0100
0010
0100
1000
0001
0100
0010
,
0100
0001
1000
0100
0010
0100
1000
0001
0100
0010
1000
0001
0020
0000
0000
0000
,
0000
0000
0000
0000
,
0000
0000
0230
0000
0000
0300
1002
0000
,
0103
0000
0000
0000
0010
1000
0001
1000
0100
0010
0001
0010
0100
1000
0001
1000
,
0010
0100
0001
1000
0010
0100
0001
1000
0001
0010
0100
1000
0001
0000
0000
0010
,
0100
0000
0001
0000
0100
1000
0001
1000
0010
0100
0010
1000
0001
0100
0010
0100
,
0001
1000
0001
0100
0040
0000
0000
0000
0430
0000
0000
0000
0302
0000
0000
0000
,
2003
0000
0000
0000
3100
0010
0100
1000
0001
1000
0100
0010
0001
1000
0001
1000
,
0010
0000
0000
0100
0000
0000
0001
0000
0000
1000
0000
0000
0100
0000
0000
0000
0010
0000
0000
0000
0001
0000
0000
0000
1000
0000
0000
0000
0010
0000
0000
0000
0100
0000
0000
0000
0020
0000
0000
0000
0000
0000
2030
0000
0000
0000
0000
0000
,
3002
0000
0203
0000
0320
0000
0130
0001
,
0020
0000
0000
0000
0130
1000
0100
1000
0100
1000
0100
1000
0002
0000
0000
0000
,
0000
0000
0000
0000
1003
0010
1000
0010
0100
0001
1000
0001
0010
0100
0010
0001
,
1000
0001
0100
0010
1000
0001
1000
0100
0010
0001
0010
0001
0200
0000
0000
0000
,
0310
0000
0001
0000
0010
1000
0010
0100
0001
1000
0100
1000
0001
0100
0010
0000
,
1000
0001
0010
0100
2000
0000
0000
0000
3002
0000
0000
0000
1003
0000
0000
0010
,
0000
0100
0001
0000
0021
0000
0000
0000
0130
1000
0001
0100
0010
0000
0000
0100
,
0000
0010
1000
0000
1002
0000
0000
0000
0013
0100
1000
0100
0010
0000
1001
0000
,
0000
1000
0110
0001
0000
1000
0200
0000
,
0000
0000
0000
0310
,
0001
0000
1000
0010
0000
0001
0000
0010
,
0100
0001
1000
1000
0200
0000
0320
0000
,
0000
0032
0000
2003
,
0000
0000
0000
0000
3020
0000
0000
0000
0000
0000
0000
0000
0130
0001
1000
0001
,
0010
0000
0100
0000
0010
0000
0001
1000
0010
0100
0001
0000
1000
0000
0100
0000
,
0010
0001
1000
0100
1000
0001
0100
0000
0010
0000
1000
0000
0100
0000
0010
0000
,
0001
1000
0001
0100
0001
0000
1000
0000
0100
0000
0010
0100
0010
0000
0100
0000
,
1000
0000
0001
0000
0100
0010
1000
0010
0200
0000
0000
0000
0301
0010
0001
1000
,
0001
0000
0010
0000
0100
0000
1000
0001
0100
0010
0100
0000
0001
0000
1000
0000
,
0001
1000
0010
1000
0001
0010
0100
0000
1000
0000
0100
0000
0010
0000
0100
0000
,
1000
0001
1000
0001
0100
0000
0010
0000
0100
0000
0001
0010
0100
0000
1000
0000
,
0001
0000
0100
0000
0020
0000
0000
0000
0000
0000
0000
0000
0130
0001
1000
0001
,
0010
0000
0100
0000
0010
0000
0001
1000
0010
1000
0001
0000
0010
0000
0100
0000
,
1000
0100
1000
0001
0100
0010
0100
0000
0001
0000
0010
0000
1000
0000
0010
0000
,
0001
1000
0001
1000
0010
0000
0100
0000
0010
0000
1000
0100
1000
0000
0001
0000
,
0100
0000
0010
0000
0100
0001
0100
0001
2000
0000
0000
0000
3100
0010
0100
1000
,
0001
0000
0100
0000
0010
0000
1000
0001
0100
0010
0100
0000
0001
0000
1000
0000
,
0001
1000
0001
0010
0100
1000
0001
0000
0100
0000
0010
0000
0100
0000
0010
1000
,
0001
1000
0200
0000
0310
0001
1000
0001
0200
0000
0310
1000
0010
0100
0001
0000
,
0001
0000
1000
0100
0010
0000
0010
0000
0100
0000
0100
0000
2002
0000
0000
0000
,
0000
0000
0000
0003
,
0000
0000
0000
3020
,
0000
0000
0000
0000
,
0000
0000
0000
0230
,
0000
0000
0000
0000
,
0000
0000
0000
0302
,
0000
0000
0000
0000
,
0000
0000
0000
1003
,
0100
0000
0010
0001
0000
1000
0000
0010
,
0100
0010
1000
1000
0200
0000
0310
0001
,
1000
0000
0010
0000
0100
1000
0000
0100
,
0002
0023
2030
3010
,
0100
0000
1000
0001
0000
0100
0000
0010
,
0100
0001
0010
0010
0200
0000
0310
0001
,
0200
0000
0310
1000
0001
0010
0001
1000
,
0010
0100
0001
0010
0100
1000
1001
0000
,
0000
0101
0000
0000
0110
0001
0000
0000
,
0000
0000
0000
1100
,
0000
0101
0000
0000
1001
0010
0000
0000
,
0000
0000
0000
1010
,
0000
0011
0000
0000
1100
0001
0000
0000
,
0000
0000
0000
0000
0000
0000
0000
0000
0000
0000
0000
0000
1000
0010
1000
0010
,
0000
0000
0100
0001
0100
0001
0000
0000
1000
0000
0100
0000
0000
0000
0000
0000
,
0000
0000
0000
0000
0000
0000
0010
0001
1000
0000
0000
0000
0010
1000
0010
0000
,
0100
0000
0001
1000
0001
0000
0010
0000
0100
1000
0100
0000
0010
0001
1000
0000
,
0010
0000
0100
0001
0100
0000
0010
0000
0100
0001
0100
0000
0010
1000
0001
0000
,
0010
0000
0100
1000
0100
0000
0010
0000
0001
1000
0001
0000
1000
0010
1000
0000
,
0010
0000
0100
0001
0100
0000
0010
0000
1000
0100
1000
0000
0001
0100
0001
0100
,
0010
1000
0010
1000
0001
0010
0001
0010
0100
1000
0100
1000
0001
0100
0010
1000
,
0100
0010
0001
0100
0010
1000
0001
0010
0100
1000
0001
0100
0004
4000
0000
0000
,
0000
0000
0000
0000
,
0000
0000
0000
0000
0000
0000
0000
0000
0000
0000
0000
3000
0103
0000
0010
0000
,
1001
0000
0000
0000
1000
0100
1000
0001
0100
0010
1000
0001
1000
0100
0010
0001
,
0010
0100
1000
0001
1000
0010
0100
0001
0100
0010
1000
0001
0020
0000
0000
0130
,
1000
0000
0001
0000
0100
0010
1000
0001
0010
0100
1000
0001
1000
0010
0100
0001
,
1000
0100
0010
0001
0020
0000
0000
0000
0230
0000
0000
0000
0302
0000
0000
0000
,
0203
0000
0000
0000
1300
0001
1000
0010
0100
0010
1000
0001
1000
0100
0010
0100
,
1000
0000
0000
0001
0000
0000
1000
0000
0000
0010
0000
0000
0100
0000
0000
0000
0001
0000
0000
0000
1000
0000
0000
0000
0100
0000
0000
0000
0010
0000
0000
0000
0001
0000
0000
0000
1000
0000
0000
0000
0000
0000
0010
0000
0000
0000
0000
0000
,
0200
0000
0000
0000
0302
0000
0000
0000
2003
0000
0000
0000
3100
0000
0000
0010
,
0001
0100
0020
0000
0230
0000
0301
0010
,
1000
0000
0010
0000
0001
1000
0010
0100
0001
0000
1000
0000
0001
0010
0100
0010
,
0001
0000
1000
0010
1000
0001
0010
0001
1000
0000
0010
0100
0001
1000
0001
1000
,
0001
0000
0010
0000
0100
1000
0001
1000
0100
0000
0010
0000
0001
1000
0001
0100
,
0001
0000
1000
0010
0200
0000
0000
0000
0302
0000
0000
0000
1003
0000
0000
0100
,
0010
0000
0001
0000
0201
0000
0000
0000
0310
1000
0010
1000
0001
0000
0000
0010
,
0000
0100
1000
0000
0001
0000
0000
0000
1000
0100
1000
0100
0010
0000
0010
0000
,
0000
0001
0100
0100
0000
0010
2000
0000
,
0000
0000
0000
0000
0000
0000
0000
0000
0000
0000
0000
0000
3001
0100
0010
1000
,
0001
0100
0010
1000
0001
0100
0010
1000
0001
0100
0010
1000
0001
1000
0001
0010
,
0100
1000
0100
1000
0001
0100
0010
0100
0001
1000
0100
1000
0001
0010
0100
1000
,
0001
0010
0100
1000
0001
0010
0100
1000
0001
0010
0100
1000
0001
0000
0100
0000
,
0010
0000
1000
0100
1000
0000
0001
0000
0010
0000
0001
0000
1000
0010
0100
0001
,
1000
0010
0100
0001
1000
0010
0100
0001
1000
0010
0100
0001
1000
0010
0100
0001
,
1000
0010
0100
0001
1000
0100
0010
0100
1000
0001
1000
0100
0010
0000
0010
0000
,
0000
0001
0000
0100
0010
2002
0000
0000
,
3003
0000
0000
0000
;
