#VERSION:0.83;
#TITLE:Deep Deep Inside;
#SUBTITLE:;
#ARTIST:ino.;
#TITLETRANSLIT:;
#SUBTITLETRANSLIT:;
#ARTISTTRANSLIT:;
#GENRE:;
#CREDIT:;
#MUSIC:Deep Deep Inside.ogg;
#BANNER:Deep Deep Inside.png;
#BACKGROUND:Deep Deep Inside-bg.png;
#CDTITLE:;
#SAMPLESTART:71.336;
#SAMPLELENGTH:15.000;
#SELECTABLE:YES;
#OFFSET:-0.003;
#BPMS:0.000=135.000
,112.000=270.000
,115.000=135.000
;
#STOPS:112.000=0.222
,113.000=0.222
,114.000=0.222
;
#DISPLAYBPM:135.000;
#BGCHANGES:;
#FGCHANGES:;

//--------------- dance-single - chronon ----------------
#NOTEDATA:;
#STEPSTYPE:dance-single;
#DESCRIPTION:chronon;
#DIFFICULTY:Beginner;
#METER:3;
#RADARVALUES:0,0,0,0,0;
#CREDIT:chronon;
#NOTES:
0000
0000
0000
0000
,
0000
0000
0000
0000
,
0000
0000
0000
0000
,
0000
0000
0000
0000
,
1000
0001
1000
0000
,
0001
0000
0001
0000
0001
0000
0000
2000
,
0000
3000
0000
0000
0010
0000
0000
0000
,
1000
0000
1000
0000
1000
0000
0000
0002
,
0000
0003
0000
0000
0010
0000
0000
0000
,
0001
0000
0001
0000
0001
0000
0000
0200
,
0000
0300
0000
0000
0010
0000
0000
0000
,
1000
0000
1000
0000
1000
0000
0000
0200
,
0000
0300
0000
0000
0010
0000
0000
0000
,
0001
0000
0000
1000
0000
0000
0000
0000
,
1000
0000
0000
0001
0000
0000
0000
0000
,
0100
0000
0010
0000
,
0000
1001
0000
0000
,
1000
0000
0000
0000
0200
0000
0000
0300
,
0000
0000
0000
0000
,
1000
0000
0000
0000
0020
0000
0000
0030
,
0000
0000
0000
0100
,
0001
0000
0010
0000
,
0100
0000
1000
0000
,
0001
0000
0100
0000
,
0010
0000
0010
0000
,
1001
0000
0001
0000
,
0010
0000
0100
0000
,
1001
0000
1000
0000
,
0020
0000
0000
0030
,
1000
0000
0010
0000
,
0100
0100
0100
0000
,
0001
0000
0010
0000
,
0100
0000
1000
0000
,
0002
0000
0000
0000
,
0000
0000
0000
0000
,
0203
0000
0000
0000
,
0000
0000
0000
0000
,
0310
0000
1000
0000
,
0010
0000
0100
0000
,
0001
1000
0001
0000
,
0020
0000
0000
0030
,
0001
0000
0010
0000
,
0100
0000
1000
0000
,
1000
0000
0010
0000
,
0100
0000
0001
0000
,
0100
0000
0010
0000
,
1000
0000
0001
0000
,
0010
0000
0100
0000
,
1000
0000
0001
0000
,
1000
1000
1000
0000
,
0010
0010
0010
0000
,
0001
0001
0001
0000
,
0100
0100
0100
0000
,
1000
0001
1000
0000
,
0010
0100
0010
0000
,
1001
0000
1001
0000
,
1001
0000
1001
0000
,
1000
0000
1000
0000
1000
0000
0000
0002
,
0000
0003
0000
0000
0010
0000
0000
0000
,
0001
0001
0001
0000
,
1000
0000
0100
0000
,
0001
0000
0000
0000
;

//--------------- dance-single - chronon ----------------
#NOTEDATA:;
#STEPSTYPE:dance-single;
#DESCRIPTION:chronon;
#DIFFICULTY:Easy;
#METER:8;
#RADARVALUES:0,0,0,0,0;
#CREDIT:chronon;
#NOTES:
0000
0000
0000
0000
,
0000
0000
0000
0000
,
0000
0000
0000
0000
,
0000
0000
0000
0000
,
1000
0000
0001
0000
1000
0000
0200
0300
,
1100
0000
0000
0000
1001
0000
0000
0000
0201
0000
0000
0010
0000
0000
2300
0000
,
0000
0000
3100
0000
0010
0000
0000
0000
1000
0000
0000
0001
0000
0000
0010
0000
,
0011
0000
0000
0000
1001
0000
0000
0000
1020
0000
0000
0100
0000
0000
0032
0000
,
0000
0013
0100
0000
0001
1000
0001
0000
,
2000
0100
0000
0001
0000
3010
0000
0002
,
0000
0013
0000
0100
0001
0000
1000
0000
,
0002
0100
0000
1000
0000
0013
0000
2000
,
0000
3010
0100
0000
1000
0001
1000
0000
,
0010
0000
0000
0100
0000
0000
0001
0000
0000
0000
1000
0000
0001
0000
0000
0000
,
0010
0000
0000
0100
0000
0000
1000
0000
0000
0000
0001
0000
1000
0000
0000
0000
,
0010
0100
0010
0000
1000
0001
1000
0000
,
0000
2002
0000
3003
,
0001
0000
0001
0000
0000
0000
0000
0000
0010
0000
0000
0100
0000
0000
2000
0000
,
0000
0000
3001
0000
1000
0001
0000
0000
,
1000
0000
1000
0000
0000
0000
0000
0000
0010
0000
0000
0100
0000
0000
0002
0000
,
0000
0000
0013
0000
0100
0010
0001
0000
,
1000
0000
0000
0000
0010
0000
0000
0000
0100
0000
0000
0001
0000
0000
1000
0000
,
0000
0001
0010
0000
0100
0000
1000
0000
,
0001
0000
0000
0000
0100
0000
0000
0000
0010
0000
0000
1000
0000
0000
0001
0000
,
0010
0000
0000
0100
0000
0000
1000
0000
0000
0000
0000
0000
0010
0000
0000
0000
,
1010
0000
0000
0000
0021
0000
0000
0000
0130
0000
0000
0010
0000
0000
0010
0000
,
0001
0000
0100
0000
0000
0100
0000
0000
0100
0000
0000
0100
0000
0000
0001
0000
,
0101
0000
0000
0000
1200
0000
0000
0000
0310
0000
0000
0100
0000
0000
0100
0000
,
2000
3000
0000
0000
0020
0030
0000
0000
0200
0300
0000
0000
1001
0000
0000
0000
,
0001
0010
0100
0000
0010
0000
1000
0000
,
0010
0000
0001
0000
1000
0010
0100
0000
,
0001
0000
0100
0000
0000
0010
0000
0000
1000
0000
0000
0001
0000
0000
1000
0000
,
0100
0000
0010
0000
0000
0100
0000
0000
1000
0000
0000
0000
1001
0000
0000
0000
,
0002
0000
0000
2003
0000
0000
3020
0000
0230
0000
0000
0000
0000
0000
0000
0000
,
0000
0000
0000
0000
0000
0000
0000
0000
0302
0000
0000
2003
0000
0000
3002
0000
,
0023
0000
0000
0230
0000
0000
0302
0000
0203
0000
0000
0000
0000
0000
0000
0000
,
0000
0000
0000
0000
,
1300
0001
1000
0010
,
1000
0001
1000
0100
,
0010
0001
0010
0000
0001
1000
0001
0000
,
0200
0000
0000
0300
,
0010
0000
0000
1000
0000
0000
0100
0000
0020
0000
0000
0000
0100
0000
0000
0000
,
0000
0000
0000
0000
0130
0000
0000
0000
0010
0000
0000
0001
0000
0000
1000
0000
,
0100
0000
0000
1000
0000
0000
0010
0000
0200
0000
0000
0000
0010
0000
0000
0000
,
0000
0010
0301
0101
,
0100
0000
0000
0001
0000
0000
0010
0000
0200
0000
0000
0000
0010
0000
0000
0000
,
0000
0000
0000
0000
0310
0000
0000
0000
0100
0000
0000
1000
0000
0000
0001
0000
,
0100
0000
0000
1000
0000
0000
0100
0000
0010
0000
0000
0010
0000
0000
1000
0000
,
0002
0000
0000
0003
,
1000
0100
0010
0000
0100
0000
1000
0000
,
0001
0100
0010
0000
0100
0000
0001
0000
,
1000
0100
0010
0001
,
1000
0010
0100
0000
0010
0100
0001
0000
,
1000
0000
0000
0100
0000
0000
0010
0000
0100
0000
0000
0000
1000
0000
0000
0000
,
0001
0000
0000
0100
0000
0000
0010
0000
0100
0000
0000
0000
0001
0000
0000
0000
,
0010
0100
1000
0000
0010
0100
0001
0000
,
0100
0010
1000
0000
0100
0010
0001
0000
,
0011
0000
0000
0000
1001
0000
0000
0000
1020
0000
0000
0100
0000
0000
0032
0000
,
0000
0000
0013
0000
0100
0000
0000
0000
0001
0000
0000
1000
0000
0000
0100
0000
,
1100
0000
0000
0000
1001
0000
0000
0000
0201
0000
0000
0010
0000
0000
1300
0000
,
0100
0010
1000
0100
,
0001
0000
0000
0000
;

//--------------- dance-single - chronon ----------------
#NOTEDATA:;
#STEPSTYPE:dance-single;
#DESCRIPTION:chronon;
#DIFFICULTY:Medium;
#METER:12;
#RADARVALUES:0,0,0,0,0;
#CREDIT:chronon;
#NOTES:
0000
0000
0000
0000
,
0000
0000
0000
0000
,
0000
0000
0000
0000
,
0000
0000
0000
0000
,
2000
0000
0000
0010
0000
0000
3002
0000
0000
0010
0000
0000
1003
0000
0100
0000
0010
0000
0001
0000
0000
0000
0000
0000
,
0011
0000
0000
0000
1001
0000
0000
0000
0101
0000
0000
0210
0000
0000
2300
0000
,
0000
0000
3100
0010
1000
0001
0000
0000
1001
0000
0000
1200
0000
0000
0310
0000
,
1100
0000
0000
0000
1001
0000
0000
0000
1010
0000
0000
0120
0000
0000
0032
0000
,
0000
0000
0013
0100
0010
0000
1000
0000
0001
0010
0100
1000
0001
0000
0000
0000
,
1002
0013
2001
3010
1002
0013
0200
0001
,
0000
0000
0310
0100
1000
0000
0001
0000
1000
0001
1000
0000
0001
1000
0001
0000
,
2001
3100
1002
0103
2001
3100
0020
1000
,
0000
0000
0000
0000
0000
0000
0130
0000
0000
0010
0000
0000
0100
0000
0000
0000
0000
0000
1000
0000
0000
0000
0000
0000
0001
0000
0000
0000
0100
0000
0000
0000
0010
0000
0000
0000
0200
0000
0000
0000
0000
0000
0000
0000
0000
0000
0000
0000
,
1000
0000
0000
0010
0000
0000
0302
0000
0000
0000
1003
0000
0100
0000
0020
0000
,
1000
0000
0000
0100
0000
0000
0032
0000
0000
0000
1003
0000
0010
0000
0100
0000
,
0001
0100
1000
0100
0001
0010
1000
0010
,
0000
2200
0000
3300
,
1000
0000
2000
0000
0000
0000
0000
0000
0100
0000
0000
0001
0000
0000
3020
0000
,
0000
0000
0130
0000
0001
1000
0001
0000
0010
0100
1000
0000
0000
0000
0000
0000
,
0001
0000
0002
0000
0000
0000
0000
0000
0010
0000
0000
1000
0000
0000
0203
0000
,
0000
0310
0002
0000
0013
0100
0001
1000
,
0001
0000
0010
0000
0100
0000
1000
0000
1100
0000
0000
1001
0000
0000
1010
0000
,
0000
0000
0010
0000
0100
0010
0100
0000
0001
1000
0100
0000
0010
0100
0000
0100
,
1000
0000
0100
0000
0010
0000
0001
0000
0011
0000
0000
1001
0000
0000
0201
0000
,
0310
0000
0000
2001
0000
0000
3200
0000
0000
0000
0310
0000
1000
0000
0000
0000
,
1010
0000
0000
0000
0011
0000
0000
0000
0001
0000
2000
0100
0000
3002
0100
0000
,
1003
0000
0010
0000
0000
0010
0000
0000
0010
0000
0000
0010
0100
0000
1000
0000
,
1100
0000
0000
0000
0101
0000
0000
0000
0001
0000
2000
0010
0000
3001
0010
0000
,
0022
0033
0000
0000
0220
0330
0000
0000
2200
3300
0000
0000
1002
0000
0000
0000
,
1003
0000
0010
0100
0010
0000
1000
0000
0001
0000
0010
0100
0010
0000
2000
0000
,
0000
3010
0100
0010
0001
1000
0001
0100
,
0010
0000
0001
0000
0000
0010
0000
0000
0100
0000
0000
0001
0000
0000
1000
0000
,
0200
0000
1000
0000
0000
0010
0000
0000
0010
0000
0000
0001
0000
0000
0000
0000
,
0320
0000
0000
0032
0000
0000
0203
0000
0320
0000
0000
0000
0000
0000
0000
0000
,
0000
0000
0000
0000
0000
0000
0000
0000
2030
0000
0000
3002
0000
0000
2003
0000
,
3200
0000
0000
0320
0000
0000
2030
0000
3020
0000
0000
0000
0000
0000
0000
0000
,
0000
0000
0000
0000
,
0031
1000
0010
1000
0000
1000
0010
0000
,
1000
0001
0010
0001
0000
0001
0010
0000
,
0001
1000
0001
0000
0100
0010
0100
0000
,
0020
0000
0000
0030
,
1000
0000
0000
0010
0000
0000
0001
0000
0010
0000
0000
0000
1000
0000
0001
0000
,
0010
0000
0000
0100
0000
0000
1000
0000
0010
0000
0000
0100
0000
0000
0001
0000
,
1000
0000
0000
0100
0000
0000
0001
0000
0100
0000
0000
0000
1000
0000
0001
0000
,
0100
0000
0000
0010
0000
0000
1000
0000
1010
0000
0000
0000
1001
0000
0000
0000
,
0001
0000
0000
0010
0000
0000
1000
0000
0010
0000
0000
0000
0001
0000
1000
0000
,
0010
0000
0000
0100
0000
0000
0001
0000
0010
0000
0000
0100
0000
0000
1000
0000
,
0010
0000
0000
0001
0000
0000
0010
0000
0100
0000
0000
0001
0000
0000
0010
0000
,
0100
0010
0001
1000
0001
0000
1001
0000
,
1000
0010
0100
0010
1000
0001
1000
0100
,
0010
0001
1000
0010
0100
0010
1000
0001
,
1000
0000
0100
0010
0000
0001
1000
0000
0010
0100
0000
0001
0010
0000
0100
0000
,
0001
0100
0010
0100
1000
0001
1000
0010
,
0200
0000
0000
0010
0000
0000
1300
0000
0100
0000
0000
0001
0000
0000
0010
0000
,
0200
0000
0000
0001
0000
0000
0310
0000
0100
0000
1000
0000
0001
0000
1000
0000
,
0020
0100
1030
0000
0002
1000
0013
0000
,
0200
0000
0010
0000
1300
0000
0000
0000
1000
0100
0010
0001
1000
0000
0000
0000
,
1100
0000
0000
0000
1001
0000
0000
0000
1010
0000
0000
0120
0000
0000
0031
0000
,
0000
0000
0010
0100
0001
1000
0000
0000
1001
0000
0000
0021
0000
0000
0130
0000
,
0011
0000
0000
0000
1001
0000
0000
0000
0101
0000
0000
0210
0000
0000
1300
0000
,
0100
0010
1000
0001
0010
0100
1000
0100
,
0001
0000
0000
0000
;

//--------------- dance-single - chronon ----------------
#NOTEDATA:;
#STEPSTYPE:dance-single;
#DESCRIPTION:chronon;
#DIFFICULTY:Hard;
#METER:15;
#RADARVALUES:0,0,0,0,0;
#CREDIT:chronon;
#NOTES:
0000
0000
0000
0000
,
0000
0000
0000
0000
,
0000
0000
0000
0000
,
0000
0000
0000
0000
,
1000
0000
0000
0000
0000
0000
0010
0000
0000
0100
0000
0000
0001
0000
0000
0000
0000
0000
0010
0000
0000
0100
0000
0000
1000
0000
0000
0000
0100
0000
0000
0000
1000
0000
0000
0000
0010
0000
0000
0000
0000
0000
0000
0000
0000
0000
0000
0000
,
2010
0000
3001
2000
0010
0000
3001
2000
0010
0000
3001
0100
0000
0000
0022
0000
,
0033
0000
0010
0001
0010
0100
0000
0100
0010
0000
0100
1000
0000
0001
0100
0000
,
0102
0000
1003
0002
0100
0000
1003
0002
0100
0000
1003
0010
0000
0000
2200
0000
,
3300
0000
0000
0000
0000
0000
1000
0000
0000
0100
0000
0000
0010
0000
0000
0001
0000
0000
1000
0000
0000
0001
0000
0000
0100
0000
0000
0010
0000
0000
1000
0000
0000
0001
0000
0000
0010
0000
0000
0000
0001
0000
0000
0000
0010
0000
0000
0000
,
0012
0000
1003
0000
0012
0000
0103
0000
0012
0000
1003
0010
0100
0020
0001
0000
,
0000
0000
0130
0010
1000
0001
0000
0001
1000
0001
0100
0000
0001
1000
0010
0000
,
2010
0000
3001
0000
2010
0000
3100
0000
2010
0000
3001
0010
0100
0020
1000
0000
,
0000
0000
0000
0000
0000
0000
0130
0000
0000
1000
0000
0000
0001
0000
0000
0100
0000
0000
0010
0000
0000
1000
0000
0000
0001
0000
0000
0000
0010
0000
0000
0000
0100
0000
0000
0000
1001
0000
0000
0000
0000
0000
0000
0000
0000
0000
0000
0000
,
2010
0000
0000
0001
0000
0000
3200
0000
0000
0310
0100
1000
0001
0100
0001
0000
,
0102
0000
0000
1000
0000
0000
0023
0000
0000
0130
0010
0001
1000
0001
0100
0010
,
1000
0001
0100
0010
0001
0010
0100
0001
1000
0001
0010
0100
0001
0100
1000
0001
,
0000
0000
0000
0000
2020
0000
0000
0000
3030
0000
0000
0000
0010
0100
0001
1000
,
0100
0000
0200
0000
0000
0000
0300
0000
1100
0000
0000
1001
0000
0000
1020
0000
,
0000
0000
0230
0000
0310
0100
0001
1000
0001
0010
0100
0000
0000
0000
0000
0000
,
0010
0000
0020
0000
0000
0000
0030
0000
0011
0000
0000
1001
0000
0000
0201
0000
,
0000
0000
0310
0000
0001
0000
0010
0100
0001
0000
0010
0000
0012
0000
1003
0001
,
1000
0000
0100
0000
0010
0100
1000
0001
0100
0001
1000
0100
1000
0001
0200
0000
,
0000
0000
0310
0000
0100
0010
1000
0001
1000
0100
0010
0000
0100
1000
0000
1000
,
0001
0000
0100
0000
0010
0100
0001
1000
0100
1000
0001
0100
0001
1000
0100
0000
,
1100
0000
0000
1001
0000
0000
1020
0000
0000
0000
0130
0000
1000
0000
0000
0000
,
1100
0000
0000
0000
0101
0000
0001
0000
0010
0100
2000
0010
0000
3002
0010
0000
,
0103
0000
0101
0000
0000
0110
0000
0000
1010
0000
0000
1000
0100
0000
0001
0000
,
0101
0000
0000
0000
1100
0000
1000
0000
0010
0100
0002
0010
0000
1003
0010
0000
,
2020
3030
0000
0000
0220
0330
0000
0000
0202
0303
0000
0000
2001
0000
0000
0000
,
3001
0000
0010
0100
0010
0001
0100
0010
1000
0000
0010
0100
0001
0100
2000
0000
,
0000
0000
3100
0010
1000
0001
0010
0100
0010
0001
0100
0010
1000
0000
0001
0000
,
1000
0100
0001
0000
0100
0010
0000
0100
1000
0000
0001
0100
0000
0010
0100
0000
,
0010
0200
0001
0000
0000
0010
0000
0000
0010
0000
0000
1000
0000
0000
0000
0000
,
0320
0000
0000
2030
0000
0000
3200
0000
0320
0000
0000
0000
0000
0000
0000
0000
,
0000
0000
0000
0000
0000
0000
0000
0000
0032
0000
0000
2003
0000
0000
3002
0000
,
0203
0000
0000
0320
0000
0000
0032
0000
0023
0000
0000
0000
0000
0000
0000
0000
,
0000
0000
0000
0000
,
1030
0001
0010
0001
0000
0001
0010
0000
,
0001
1000
0010
1000
0000
1000
0010
0000
,
1000
0000
0001
0000
0010
0000
0100
0000
1000
0000
0001
0000
0100
0010
1000
0001
,
1000
0020
0230
0320
2030
3002
0023
0230
,
0001
0000
0000
0010
0000
0000
1300
0000
1100
0000
0000
0000
1000
0000
0001
0100
,
0010
0000
0000
0010
0000
0000
0200
0000
1000
0000
0000
0001
0000
0000
0320
0000
,
0001
0000
0000
0100
0000
0000
1030
0000
1010
0000
0000
0000
1000
0000
0001
0010
,
0100
0000
0000
0100
0000
0000
0010
0000
0001
0000
1000
0010
0200
0000
0000
0000
,
1000
0000
0000
0010
0000
0000
0301
0000
0101
0000
0000
0000
0001
0000
1000
0100
,
0010
0000
0000
0010
0000
0000
0200
0000
0001
0000
0000
1000
0000
0000
0320
0000
,
0100
0000
0000
1000
0000
0000
0031
0000
0012
0000
0000
1000
0000
0000
0103
0000
,
0001
0100
0010
0000
0100
0010
1000
0001
0010
0000
0100
1000
0010
0000
0010
0100
,
0001
1000
0100
0000
0001
0100
1000
0001
0100
0010
1000
0001
0010
0100
1000
0001
,
0100
0010
1000
0001
0100
0000
1000
0100
0010
1000
0001
0010
0100
1000
0010
0100
,
0002
0100
0000
2003
0100
0000
3002
0010
0000
2003
0010
0000
3100
0000
0010
0000
,
1000
0010
0100
0010
0001
1000
0001
0100
0010
1000
0001
1000
0100
0010
0001
1000
,
0010
0000
0100
0001
0000
1000
0100
0000
0001
0000
0100
1000
0000
0001
0100
0000
,
0010
0000
0100
1000
0000
0100
0001
0000
1000
0000
0010
0100
0001
1000
0001
0020
,
1000
0000
0130
0000
0010
0100
0000
0200
0001
0000
0310
0000
0001
0100
0000
0200
,
1000
0000
0000
0000
0000
0000
0310
0000
0000
0000
0000
0000
0100
0000
0000
0010
0000
0000
0000
0000
0000
0010
0000
0000
0001
0000
0000
0010
0000
0000
1000
0000
0000
0001
0000
0000
0010
0000
0000
0000
0100
0000
0000
0000
1000
0000
0000
0000
,
1200
0000
0310
0200
1000
0000
0310
0002
1000
0000
0103
0001
0000
0000
0021
0000
,
0000
0000
0130
0010
0001
1000
0000
1000
0010
0000
0100
0001
0000
1000
0001
0000
,
0021
0000
0130
0020
0001
0000
0130
2000
0001
0000
3010
1000
0000
0000
1100
0000
,
1000
0100
0010
0001
1000
0010
0100
0001
1000
0010
0100
0001
1000
0100
0010
0100
,
0001
0000
0000
0000
;
