#TITLE:Dazzling White Town;
#SUBTITLE:;
#ARTIST:Saint Snow;
#TITLETRANSLIT:;
#SUBTITLETRANSLIT:;
#ARTISTTRANSLIT:;
#GENRE:HAKODATE GROOVE;
#CREDIT:;
#BANNER:Dazzling White Town.png;
#BACKGROUND:Dazzling White Town-bg.png;
#LYRICSPATH:;
#CDTITLE:;
#MUSIC:Dazzling White Town.ogg;
#OFFSET:-0.404486;
#SAMPLESTART:76.183121;
#SAMPLELENGTH:15.620000;
#SELECTABLE:YES;
#BPMS:0.000000=133.000000
;
#STOPS:
;
#BGCHANGES:0.250=Dazzling White Town.mp4=1.000=1=0=1===CrossFade==,
99999=-nosongbg-=1.000=0=0=0 // don't automatically add -songbackground-
;
#KEYSOUNDS:;
#ATTACKS:;

//---------------dance-single - ----------------
#NOTES:
     dance-single:
     :
     Hard:
     14:
     0.620553,0.737217,0.330961,0.893596,0.521264,525.000000,485.000000,40.000000,108.000000,24.000000,0.000000,0.620553,0.737217,0.330961,0.893596,0.521264,525.000000,485.000000,40.000000,108.000000,24.000000,0.000000:
// measure 0
0000
0000
0000
0000
,  // measure 1
0000
0000
0000
0000
,  // measure 2
0000
0000
0000
0000
,  // measure 3
0000
0000
0000
0000
,  // measure 4
2100
0000
0001
0000
0100
0000
3001
0100
,  // measure 5
0010
0000
0000
0000
0000
0000
0100
0000
0000
0000
0000
0000
1000
0000
0000
0000
0000
0000
0100
0000
0000
0000
0000
0000
0001
0000
0000
0000
0010
0000
0000
0000
0001
0000
0000
0000
1000
0000
0000
0010
0000
0000
1000
0000
0000
0010
0000
0000
,  // measure 6
0100
0001
0100
0001
2000
0000
3200
0000
0302
0000
0203
0000
1300
0000
0001
0000
,  // measure 7
0000
0000
0000
0000
0000
0000
0000
0000
0000
0000
0000
1000
0010
0000
0100
0000
,  // measure 8
0102
0000
0010
0010
2000
3000
0200
0303
,  // measure 9
0001
0010
1000
0010
0110
0000
2100
0000
,  // measure 10
0010
0000
0001
0001
0200
0300
0020
3030
,  // measure 11
1000
0000
0010
0000
0001
0000
0000
1000
0000
0100
0000
0001
1000
0000
0100
0000
,  // measure 12
2100
0000
0010
0010
0002
0003
0200
3300
,  // measure 13
1000
0010
0001
0010
0110
0000
0101
0001
,  // measure 14
0010
0000
0100
0000
0010
0000
1000
0000
0010
0001
0010
0001
1000
0100
1000
0100
,  // measure 15
0000
0000
1000
0000
0000
0010
0000
0000
0001
0000
0000
0001
0010
0000
1000
0000
,  // measure 16
1001
0000
0001
0000
0100
0010
0000
0100
0010
0000
1000
0020
0000
0001
0000
1030
,  // measure 17
0000
0000
0010
1000
0100
0000
0100
1000
0001
0100
0001
0200
0000
0000
1300
0000
,  // measure 18
0000
0000
0100
0001
0000
0010
0000
0001
1000
0000
1000
0100
0000
0000
0010
0000
,  // measure 19
1000
0000
0010
0000
0001
0000
1000
0010
0200
0302
2003
3002
0023
0032
0003
2000
,  // measure 20
3002
0000
0003
0100
2000
0000
3000
0100
,  // measure 21
0002
0003
0010
0000
2000
3000
0010
0002
0003
2000
3000
0200
0300
0000
2000
0000
,  // measure 22
3001
0000
1000
0010
0100
0001
0000
1000
0001
0000
0010
0100
2000
0000
3001
0000
,  // measure 23
0100
0000
0010
0000
1010
0000
0000
0000
1000
0100
0010
0001
0010
0100
1000
0001
,  // measure 24
1000
0000
0000
0100
0000
M100
0000
0001
0020
0000
0030
0000
0001
0000
1000
0000
,  // measure 25
0002
0000
0003
0100
0000
010M
0000
1000
0020
0000
0030
0000
1010
0000
0000
0102
,  // measure 26
0000
0000
1003
0000
1000
0100
0000
0100
0001
0000
0001
0100
0000
0000
0010
0000
,  // measure 27
0021
0000
0000
1000
0000
0000
0130
0000
2002
0000
3003
0000
1000
0000
0010
0000
,  // measure 28
0001
0000
0000
00M1
0000
0100
0000
0010
2000
0000
3000
0000
0001
0000
0100
0000
,  // measure 29
1000
0000
0000
1M00
0000
0010
0000
0100
0002
0000
0000
0000
1003
0000
0001
0000
,  // measure 30
2000
3100
0002
0103
,  // measure 31
1000
0010
0000
0100
0001
0000
1000
0100
0000
0010
0001
0000
1000
0001
1000
0001
,  // measure 32
1000
0010
1000
0010
0100
0010
0100
0010
0100
0001
0100
0001
2000
0000
3002
0000
,  // measure 33
0023
0000
1000
1000
0031
MMMM
2000
3002
,  // measure 34
0203
0000
1000
1000
0301
MMMM
1000
0001
,  // measure 35
0010
1000
0001
0100
0010
0001
1000
0100
,  // measure 36
2000
0000
3020
0000
0032
0000
0013
1000
,  // measure 37
0002
0000
0000
0023
0000
0000
0230
0000
0301
0000
MMMM
0000
0010
0000
0001
0000
,  // measure 38
2000
0000
0000
3020
0000
0000
0230
0000
1300
0000
0100
0000
0001
0000
1000
0000
,  // measure 39
0001
0000
0000
0000
0000
0000
0010
0000
0000
0000
0000
0000
0100
0000
0000
0000
0000
0000
0010
0000
0000
0000
0000
0000
1000
0000
0000
0000
0010
0000
0000
0000
1000
0000
0000
0000
0010
0000
0000
0001
0000
0000
0010
0000
0000
0001
0000
0000
,  // measure 40
1000
0100
1000
0100
2000
0000
3020
0000
0032
0000
0023
0000
1030
0001
1000
0001
,  // measure 41
0000
0000
0000
0000
0000
0000
0000
0000
0000
0000
0000
1000
0010
0000
0100
0000
,  // measure 42
0101
0000
0000
0011
0000
0000
0101
0000
0000
1001
0000
0000
0001
0000
0010
0000
,  // measure 43
2000
0000
0000
3020
0000
0000
0032
0000
1003
0000
0010
0000
0100
0001
1000
0001
,  // measure 44
0010
0000
0000
101M
0000
0000
1100
0000
0000
1001
0000
0000
0001
0000
0100
0000
,  // measure 45
2000
0000
3100
0000
0020
0000
0130
0000
0001
0010
0000
001M
1000
0010
0100
0001
,  // measure 46
1000
0000
0000
1010
0000
0000
1100
0000
0000
1001
0000
0000
1000
0000
0010
0000
,  // measure 47
0002
0000
0000
0023
0000
0000
2030
0000
3001
0000
0010
0000
0100
1000
0001
1000
,  // measure 48
0010
0000
0000
M011
0000
0000
0101
0000
0000
1001
0000
0000
1000
0000
0100
0000
,  // measure 49
0002
0000
0103
0000
0020
0000
0130
0000
1000
0100
0010
0001
0010
0100
0000
01M0
,  // measure 50
0001
0000
0101
0001
1000
0100
1100
0000
,  // measure 51
1000
0000
0001
0000
0011
0000
0001
0000
1000
0000
0010
0000
1000
0100
0010
0001
,  // measure 52
1000
0000
1010
0010
0100
0001
1001
0000
,  // measure 53
0001
0000
0010
0000
1000
0000
0001
0100
0000
1000
0000
0001
1000
0010
0100
0001
,  // measure 54
1000
0000
1100
0100
0001
0100
0110
0000
,  // measure 55
0010
0000
0001
0000
0101
0000
0100
0000
1000
0000
0100
0000
0001
0010
0100
1000
,  // measure 56
0001
0000
0011
0010
1000
0010
0110
0000
,  // measure 57
1100
0000
0000
0000
0000
0000
0011
0000
0000
0000
0000
0001
1000
0000
0001
0000
,  // measure 58
1002
0103
0020
0130
2000
3100
0020
0230
,  // measure 59
0301
0000
0020
0000
0031
0000
2000
0000
3001
0000
0100
000M
0200
0000
2300
0000
,  // measure 60
3001
0000
0010
000M
0020
0000
2030
0000
3002
0000
0103
0000
0020
0000
2030
0000
,  // measure 61
3002
0000
0013
0000
2000
0000
3010
0001
0010
0100
1000
0100
0020
0000
0031
0000
,  // measure 62
2001
3010
0200
0310
0002
0013
0200
0320
,  // measure 63
1030
0000
0200
0000
1300
0000
0002
0000
1003
0000
0010
M000
0020
0000
0032
0000
,  // measure 64
1003
0000
0100
M000
0200
0000
0302
0000
2003
0000
3010
0000
0200
0000
0302
0000
,  // measure 65
2003
0000
0000
3100
0000
0000
0002
0000
0000
0103
1000
0100
2000
0000
0000
3000
0000
0000
0002
0000
0000
0200
0000
0000
,  // measure 66
0303
0000
0000
0000
;

//---------------dance-single - ----------------
#NOTES:
     dance-single:
     :
     Medium:
     11:
     0.446798,0.464173,0.182029,0.413702,0.169618,378.000000,356.000000,22.000000,50.000000,0.000000,0.000000,0.446798,0.464173,0.182029,0.413702,0.169618,378.000000,356.000000,22.000000,50.000000,0.000000,0.000000:
0000
0000
0000
0000
,
0000
0000
0000
0000
,
0000
0000
0000
0000
,
0000
0000
0000
0000
,
2100
0000
0001
0000
0100
0000
3001
0100
,
0001
0100
1000
0100
0010
0100
0001
0010
,
0100
1000
0001
0010
1000
0010
0002
2003
,
3000
0000
0000
0000
0000
0000
0001
1000
,
2100
0000
0010
0010
0001
0000
3100
0000
,
1000
0010
0100
0001
2000
0000
3002
0000
,
0010
0000
1000
1000
0100
0000
0013
0000
,
0001
0000
0010
0000
0100
0000
0000
1000
0000
0010
0000
0100
0000
0000
0000
0000
,
0102
0000
0010
0010
1000
0000
0103
0000
,
0001
0010
0100
1000
0002
0000
1003
0010
,
0100
0010
0001
0010
1000
0100
0010
0001
,
0000
0000
1000
0000
0000
1000
0000
0000
0001
0000
0000
0001
0000
0000
1000
0000
,
1001
0000
0001
0000
0100
0000
0000
0000
0001
0000
0000
0010
0000
0100
0000
1000
,
0000
0000
0001
0000
0100
0000
1000
0000
0100
0000
0000
0010
0000
0000
1000
0000
,
0000
0000
0001
0000
0000
0010
0000
0000
1000
0000
0000
0010
0000
0000
0001
0000
,
1000
0000
0010
0000
0100
0000
0001
0000
1000
0000
0000
0100
0000
0000
0010
0000
,
0001
0000
0000
0100
1000
0000
0000
0100
,
0001
0010
0100
0010
0001
0100
0010
1000
,
0000
0001
0100
0000
1000
0100
0001
1000
,
0000
0000
0100
0000
0100
0000
0000
0000
0010
0000
0000
1001
0000
0000
0000
0000
,
1000
0000
0000
0010
0000
0100
0000
0000
2000
0000
0000
0000
3100
0000
0000
0000
,
0001
0000
0000
0010
0000
0100
0000
0000
0002
0000
0000
0000
0103
0000
0000
0100
,
0000
0000
1000
0000
0000
1000
0000
0000
0010
0000
0000
0010
0000
0000
0100
0000
,
0100
0000
0000
0001
0000
0000
1000
0000
1000
0000
0000
0000
0001
0000
0010
0000
,
1000
0000
0000
0010
0000
0001
0000
0000
1000
0000
0000
0000
0001
0000
0100
0000
,
1000
0000
0000
0100
0000
0001
0000
0000
2000
0000
0000
0000
3001
0000
0010
0000
,
0100
1001
0010
1001
,
1000
0010
0100
0001
0001
0100
0010
1000
,
2000
0000
0100
0000
0001
0000
3010
1000
,
0002
0000
0010
0000
0103
0000
0001
1000
,
0200
0000
0010
0000
1300
0000
0100
1000
,
0001
0100
0010
1000
0010
0100
0001
1000
,
0002
0000
0023
0000
2030
0000
3010
0001
,
2000
0000
3010
0000
1100
0000
1000
0001
,
0020
0000
0130
0000
0011
0000
0001
0100
,
0010
0100
1000
0100
0001
0010
0100
1000
,
0001
0100
1000
0100
0001
0010
0100
1000
,
0000
0000
0000
0000
0000
0000
0001
0100
,
0020
0000
0000
1000
0000
0000
0001
0000
0000
1030
0000
0000
0010
0000
1000
0000
,
0100
0000
1100
0000
0100
1000
0001
0000
,
0200
0000
0000
1000
0000
0000
0001
0000
0000
1300
0000
0000
0100
0000
0001
0000
,
1000
0000
0100
0000
0010
0000
0001
0000
1000
0001
0000
0001
1000
0000
0000
0000
,
0002
0000
0000
0023
0000
0000
2030
0000
0000
3020
0000
0000
0031
0000
0100
0000
,
0010
0000
0000
1000
0000
0000
0001
0000
0010
0000
0100
0000
1000
0000
0000
0000
,
0002
0000
0000
0203
0000
0000
2300
0000
0000
3200
0000
0000
0301
0000
0010
0000
,
0100
0000
0010
0000
1000
0000
0010
0000
0001
0000
1000
0000
0010
0100
0000
0100
,
0001
0000
1000
0100
0002
0000
0203
0000
,
1300
0010
0100
0001
1000
0000
1001
0000
,
0001
0000
0010
1000
0020
0000
0130
0000
,
1000
0000
0010
0000
0100
0000
0000
0001
0000
0100
0000
1000
0000
0000
0100
0000
,
0001
0000
0011
0001
1000
0000
1010
0000
,
1000
0001
0100
0001
1000
0000
1100
0000
,
1000
0000
1010
0010
0100
0000
0101
0000
,
0011
0000
0000
1100
0000
0000
1000
0001
,
1002
0000
0203
0000
2300
0000
3100
0200
,
0000
0320
0000
1030
0000
0001
0010
0100
,
2000
0000
3200
0000
0302
0000
0103
1000
,
0001
0000
0101
0000
1010
0000
0010
1000
,
0002
0000
0023
0000
2030
0000
3001
0200
,
0000
2300
0000
3001
0000
1000
0010
0100
,
0002
0000
0203
0000
2300
0000
3100
0001
,
0010
0100
1000
0001
1001
0000
2000
0002
,
3003
0000
0000
0000
;

//---------------dance-single - ----------------
#NOTES:
     dance-single:
     :
     Easy:
     6:
     0.290773,0.325170,0.091014,0.132385,0.000000,246.000000,235.000000,11.000000,16.000000,0.000000,0.000000,0.290773,0.325170,0.091014,0.132385,0.000000,246.000000,235.000000,11.000000,16.000000,0.000000,0.000000:
0000
0000
0000
0000
,
0000
0000
0000
0000
,
0000
0000
0000
0000
,
0000
0000
0000
0000
,
1000
1000
1000
0010
,
0100
0100
0001
1000
,
0001
0010
0100
1000
,
0000
0000
0000
0001
,
2000
0010
3010
1000
,
0001
0010
1000
0010
,
0002
0010
0013
0001
,
1000
0100
0001
0100
,
2000
0100
3100
1000
,
0001
0100
1000
0100
,
0001
0010
0100
1000
,
0000
0000
0000
0001
,
1001
0001
0100
0001
,
1000
0100
0010
0001
,
1000
0010
1000
0001
,
1000
0100
0010
0001
,
0100
0000
0110
0000
,
0010
1000
0001
0100
,
0000
0001
0010
1000
,
0000
0001
0100
1000
,
0002
0010
1003
0001
,
2000
0010
3001
1000
,
0001
0001
0100
0100
,
0010
1000
0001
1000
,
0002
0100
1003
0001
,
2000
0100
3001
1000
,
0001
0100
1000
0100
,
0010
0010
0100
0100
,
0002
0000
0003
1000
,
2000
0010
3100
1000
,
0002
0010
0103
0001
,
1000
0100
0001
0100
,
0010
0010
0010
0001
,
2000
0010
3100
1000
,
0002
0010
0103
0001
,
1000
0100
0001
0100
,
0010
0000
0001
0000
1000
0000
0010
0010
,
0000
0000
0000
1001
,
1000
0010
0100
1000
,
0100
0010
1000
1001
,
0001
0010
0100
0001
,
0100
0000
0010
0000
0001
0000
1000
0001
,
1000
0010
0100
1000
,
0001
0010
0100
0101
,
0001
0010
0100
0001
,
1000
0000
0010
0000
0100
0100
0100
0000
,
1000
0001
0100
1010
,
1000
0001
0010
1100
,
1000
0001
0100
0110
,
0010
0100
0001
0010
,
0100
1000
0010
0011
,
0001
0010
1000
1001
,
0001
0010
0100
0001
,
0100
0100
1000
1000
,
0002
0010
1000
0010
,
0103
0001
0100
0010
,
2000
0100
0001
0100
,
3010
1000
0010
0100
,
0002
0010
1000
0100
,
0013
0001
0100
0010
,
2000
0100
0001
0010
,
3100
1000
1001
0000
;

//---------------dance-single - ----------------
#NOTES:
     dance-single:
     :
     Beginner:
     3:
     0.190303,0.216780,0.000000,0.008274,0.000000,161.000000,161.000000,0.000000,1.000000,0.000000,0.000000,0.190303,0.216780,0.000000,0.008274,0.000000,161.000000,161.000000,0.000000,1.000000,0.000000,0.000000:
0000
0000
0000
0000
,
0000
0000
0000
0000
,
0000
0000
0000
0000
,
0000
0000
0000
0000
,
1000
1000
1000
0000
,
0001
0001
0001
0000
,
0100
0100
0100
0100
,
0000
0000
0000
0000
,
0010
0000
0100
0000
,
0001
0001
0001
0000
,
0010
0000
0100
0000
,
1000
1000
1000
0000
,
0001
0000
0100
0000
,
0010
0010
0010
0000
,
1000
0000
0001
0000
,
0000
0000
0000
0010
,
0010
0000
0100
0000
,
1000
1000
1000
0000
,
0001
0000
0100
0000
,
0010
0010
0010
0000
,
0100
0000
0001
0000
,
1000
1000
1000
0000
,
0100
0000
0010
0000
,
0001
0001
0001
0000
,
1000
1000
1000
0000
,
0010
0010
0010
0000
,
0100
0000
0001
0000
,
1000
0000
0100
0000
,
0010
0010
0010
0000
,
0100
0100
0100
0000
,
1000
0000
0001
0000
,
0100
0100
0100
0100
,
0200
0000
0300
0000
,
0010
0010
0010
0000
,
0100
0100
0100
0000
,
0001
0001
0001
0000
,
1000
1000
1000
0000
,
0100
0100
0100
0100
,
0100
0000
0010
0000
,
0001
0001
0001
0001
,
0001
0000
1000
1000
,
0000
0000
0000
0000
,
0010
0010
0010
0010
,
0010
0000
0100
0000
,
0001
0001
0001
0001
,
0001
0000
0010
0000
,
0100
0100
0100
0100
,
0100
0000
1000
0000
,
0001
0001
0001
0001
,
0001
0000
0100
0000
,
0010
0000
1000
0000
,
0001
0001
0001
0000
,
1000
0000
0100
0000
,
0010
0010
0010
0000
,
0001
0000
0100
0000
,
1000
1000
1000
0000
,
0100
0000
0010
0000
,
1000
1000
1000
1000
,
1000
0000
0001
0000
,
0010
0010
0010
0000
,
0001
0000
1000
0000
,
0100
0100
0100
0000
,
1000
0000
0010
0000
,
0100
0100
0100
0000
,
0001
0000
0010
0000
,
0100
0100
0100
0000
;
