#VERSION:0.83;
#TITLE:ダンシング・ヒーロー;
#SUBTITLE:(Eat you Up);
#ARTIST:荻野目洋子;
#TITLETRANSLIT:Dancing Hero;
#SUBTITLETRANSLIT:;
#ARTISTTRANSLIT:Yoko Oginome;
#GENRE:;
#ORIGIN:;
#CREDIT:;
#BANNER:Dancing Hero (Eat You Up).png;
#BACKGROUND:Dancing Hero (Eat You Up) - bg.png;
#PREVIEWVID:;
#JACKET:Dancing Hero (Eat You Up) - jacket.png;
#CDIMAGE:;
#DISCIMAGE:;
#LYRICSPATH:;
#CDTITLE:cdtitle.png;
#MUSIC:Dancing Hero (Eat You Up).ogg;
#OFFSET:-0.149000;
#SAMPLESTART:32.382000;
#SAMPLELENGTH:14.672000;
#SELECTABLE:YES;
#DISPLAYBPM:0.000000:131.000000;
#BPMS:0.000=130.900,
65.000=129.760,
66.000=130.350,
68.000=130.370,
70.000=131.610,
74.000=130.010,
76.000=130.400,
78.000=130.770,
100.000=131.850,
102.000=131.300,
104.000=130.850,
140.000=130.590,
154.000=131.940,
156.000=131.150,
160.000=130.640,
172.000=131.340,
176.000=130.230,
180.000=131.020,
188.000=129.680,
190.000=131.520,
192.000=130.850,
202.000=130.280,
204.000=130.610,
210.000=131.450,
214.000=130.130,
216.000=130.610,
220.000=131.490,
224.000=130.580,
226.000=130.030,
234.000=131.060,
240.000=132.000,
244.000=131.350,
246.000=131.030,
248.000=130.220,
250.000=130.950,
256.000=130.080,
258.000=130.500,
260.000=130.820,
270.000=130.480,
272.000=131.050,
278.000=133.080,
279.000=131.600,
280.000=131.140,
282.000=130.410,
284.000=129.900,
288.000=130.060,
290.000=131.010;
#STOPS:;
#DELAYS:;
#WARPS:;
#TIMESIGNATURES:0.000=4=4;
#TICKCOUNTS:0.000=4;
#COMBOS:0.000=1;
#SPEEDS:0.000=1.000=0.000=0;
#SCROLLS:0.000=1.000;
#FAKES:;
#LABELS:0.000=Song Start;
#BGCHANGES:0.000=Dancing Hero (Eat You Up).avi=1.000=0=0=1=====,
99999=-nosongbg-=1.000=0=0=0 // don't automatically add -songbackground-
;
#KEYSOUNDS:;
#ATTACKS:
;

//---------------dance-single - Pirugurimu Hiro----------------
#NOTEDATA:;
#CHARTNAME:;
#STEPSTYPE:dance-single;
#DESCRIPTION:Pirugurimu Hiro;
#CHARTSTYLE:;
#DIFFICULTY:Hard;
#METER:14;
#RADARVALUES:0.558842,0.674155,0.071910,0.625616,0.208539,544.000000,534.000000,10.000000,87.000000,7.000000,0.000000,0.000000,0.000000,0.000000,0.558842,0.674155,0.071910,0.625616,0.208539,544.000000,534.000000,10.000000,87.000000,7.000000,0.000000,0.000000,0.000000,0.000000;
#CREDIT:Pilgrimsito;
#DISPLAYBPM:131.000000;
#NOTES:
// measure 0
0000
0000
0000
0000
,  // measure 1
0000
0000
0000
0000
,  // measure 2
0000
0000
0000
0000
,  // measure 3
0000
0000
0000
0000
,  // measure 4
0000
0000
0000
0000
,  // measure 5
1000
0100
1000
0100
1000
0000
0010
0100
0010
0000
1000
0000
0100
0000
1000
0000
,  // measure 6
0001
0100
0001
0100
0001
0000
0010
0100
0010
0000
0001
0000
0100
0000
0001
0000
,  // measure 7
2000
0000
3020
0000
0000
0000
0032
0000
0000
0000
0023
0000
0000
0000
1030
0001
,  // measure 8
2000
3200
0000
0302
0000
0203
0000
0300
,  // measure 9
1100
1000
0010
1000
0001
1000
0100
0010
,  // measure 10
0001
0200
0000
0300
0001
0000
1000
0001
,  // measure 11
0200
0000
0301
2000
0000
3001
0010
0100
,  // measure 12
2000
3001
0100
0001
,  // measure 13
1000
0020
0000
1030
0100
0010
0001
0200
,  // measure 14
0000
0302
0000
0003
1000
0000
0001
0000
,  // measure 15
1000
0010
0100
0010
1000
0100
0010
0100
,  // measure 16
2000
0100
3002
0100
2003
0010
3002
0010
,  // measure 17
2003
0100
3002
0100
2003
0010
3001
0010
,  // measure 18
0110
0100
1000
0010
0100
0000
0001
0020
,  // measure 19
0000
0130
0010
0001
1000
0010
M010
0002
,  // measure 20
0000
1003
0010
1000
0200
0000
1300
0001
,  // measure 21
0100
0010
0100
0010
0100
0000
0001
1000
0001
0000
0010
0000
0100
0000
1000
0000
,  // measure 22
1001
0001
0100
0010
1000
0000
1000
0002
,  // measure 23
0000
0103
0001
0010
0001
0100
010M
2000
,  // measure 24
0000
3001
0100
0001
0020
0000
0031
1000
,  // measure 25
0010
0100
0010
0100
0010
0000
1000
0001
1000
0000
0001
0000
0010
0000
0100
0000
,  // measure 26
1100
0100
1000
0010
0100
0000
0001
0020
,  // measure 27
0000
1030
0010
0001
1000
0100
M100
0002
,  // measure 28
0000
1003
0010
0001
0020
0000
1030
0001
,  // measure 29
1000
0100
0010
0100
1000
0000
0001
0100
0001
0000
0010
0000
0100
0000
1000
0000
,  // measure 30
1001
0001
0100
0010
1000
0000
1000
0200
,  // measure 31
0000
0301
0100
1000
0001
0010
001M
2000
,  // measure 32
0000
3001
0100
1000
0200
0000
0301
1000
,  // measure 33
0001
0010
0100
0010
0001
0000
1000
0010
1000
0000
0001
0000
0010
0000
0100
0000
,  // measure 34
1000
0010
0100
0010
1000
0000
0001
0010
0002
0003
0200
0300
0020
0030
2000
3000
,  // measure 35
0001
0010
0100
1000
0001
0000
1000
0000
0001
0000
1000
0010
0100
0000
0001
0000
,  // measure 36
1000
0100
0010
0001
1000
0000
0001
0000
1000
0000
0001
0100
0010
0000
1000
0000
,  // measure 37
0001
0010
0100
1000
0001
0000
1000
0000
0001
0000
1000
0010
0100
0000
0001
0000
,  // measure 38
1000
0100
0010
0001
1000
0000
0001
0000
1000
0000
0001
0100
0010
0000
1000
0000
,  // measure 39
0002
0000
0000
0000
0103
0000
0010
1000
0001
1000
0100
0000
0010
0000
0001
0000
,  // measure 40
0100
0000
1000
0000
0100
0000
0001
0010
0100
0010
0001
0000
1000
0000
0001
0000
,  // measure 41
2000
0000
0000
0000
3100
0000
0010
0001
1000
0001
0100
0000
0010
0000
1000
0000
,  // measure 42
0200
0000
0001
0000
1000
0000
0001
0300
,  // measure 43
1100
1000
0010
1000
0001
1000
0100
0010
,  // measure 44
0200
1000
0320
0001
0230
1000
0310
0001
,  // measure 45
0100
0001
0010
0200
0000
1300
0010
0100
,  // measure 46
0020
1000
0230
0001
0320
1000
0130
0001
,  // measure 47
1000
0002
0000
0003
0000
1000
0001
0200
,  // measure 48
0000
0320
0000
0000
2030
0000
0100
0000
,  // measure 49
3001
2000
0000
3001
0001
0100
0010
1000
,  // measure 50
0002
0100
2003
0100
3002
0010
2003
0010
,  // measure 51
3002
0100
2003
0100
3002
0010
1003
0010
,  // measure 52
0110
0100
0001
0010
0100
0000
1000
0020
,  // measure 53
0000
0130
0010
1000
0001
0010
001M
2000
,  // measure 54
0000
3001
0010
0001
0200
0000
0301
1000
,  // measure 55
0100
0010
0100
0010
0100
0000
1000
0001
1000
0000
0010
0000
0100
0000
0001
0000
,  // measure 56
1001
1000
0100
0010
0001
0000
0001
2000
,  // measure 57
0000
3100
1000
0010
1000
0100
M100
0002
,  // measure 58
0000
1003
0100
1000
0020
0000
1030
0001
,  // measure 59
0010
0100
0010
0100
0010
0000
0001
1000
0001
0000
1000
0000
0100
0000
0020
0000
,  // measure 60
0030
0010
0100
2000
3000
1000
0010
0200
,  // measure 61
0300
0100
0010
2000
3000
1000
0100
0002
,  // measure 62
0003
0001
0100
2000
3000
1000
0010
0100
,  // measure 63
0001
0010
0100
2000
3000
0001
1000
0200
,  // measure 64
0300
1000
0001
0200
0300
0001
1000
0020
,  // measure 65
0030
1000
0001
0020
0030
0001
0100
0020
,  // measure 66
0030
1000
0100
0020
0030
0001
0010
0200
,  // measure 67
0300
0000
0020
0000
0001
0000
0031
0100
,  // measure 68
2000
0000
3100
0002
0000
0000
0013
0200
,  // measure 69
0000
0301
0100
2000
3001
0100
010M
2000
,  // measure 70
0000
3010
0100
0001
0020
0000
1030
0010
,  // measure 71
0001
0010
0100
0010
0001
0000
1000
0010
1000
0000
0100
0000
0010
0000
0001
0000
,  // measure 72
1000
0010
0100
0010
1000
0000
0001
0010
0001
0000
0100
0000
0010
0000
1000
0000
,  // measure 73
0001
0010
0100
1000
0001
0000
1000
0010
0100
0000
0001
0000
0010
0000
0001
0000
,  // measure 74
1000
0010
0100
0001
1000
0000
0001
0010
0100
0000
1000
0000
0010
0000
0110
0000
,  // measure 75
1001
0000
0000
0000
;

//---------------dance-single - Pirugurimu Hiro----------------
#NOTEDATA:;
#CHARTNAME:;
#STEPSTYPE:dance-single;
#DESCRIPTION:Pirugurimu Hiro;
#CHARTSTYLE:;
#DIFFICULTY:Medium;
#METER:10;
#RADARVALUES:0.397559,0.512358,0.201348,0.949210,0.000000,387.000000,359.000000,28.000000,132.000000,0.000000,0.000000,0.000000,0.000000,0.000000,0.397559,0.512358,0.201348,0.949210,0.000000,387.000000,359.000000,28.000000,132.000000,0.000000,0.000000,0.000000,0.000000,0.000000;
#CREDIT:Pilgrimsito;
#DISPLAYBPM:131.000000;
#NOTES:
0000
0000
0000
0000
,
0000
0000
0000
0000
,
0000
0000
0000
0000
,
0000
0000
0000
0000
,
0000
0000
0000
0000
,
0001
0001
1000
0100
0010
0010
0100
0000
,
1000
1000
0001
0100
0010
0010
0100
0000
,
0001
2000
0000
3020
0000
0230
0000
0301
,
1000
0002
0000
0023
0000
0230
0000
0300
,
1000
0001
0010
0001
0100
0001
0010
0200
,
0000
0320
0000
0030
0000
0000
0000
0001
,
2000
0000
3100
0020
0000
0130
1000
0001
,
2000
3000
0000
0000
,
0000
0002
0000
0013
0001
0100
0001
0020
,
0000
0230
0000
0300
0000
0000
0000
0000
,
0000
1000
0010
0100
0001
0100
0010
1000
,
2002
3003
2002
3003
2200
3300
2200
3300
,
0202
0303
0202
0303
2002
3003
2002
3003
,
0001
0010
0100
2000
0000
3000
0001
0020
,
0000
0031
1000
0002
0000
0103
0100
0020
,
0000
1030
0001
1000
0020
0000
0130
0002
,
0000
0003
0000
0000
0000
1000
0100
1000
,
0010
0100
0001
2000
0000
3000
0000
0020
,
0000
1030
0001
0020
0000
0031
0001
2000
,
0000
3010
1000
0001
0200
0000
0310
2000
,
0000
3000
0000
0000
0000
1000
0100
0010
,
0001
0100
0010
2000
0000
3000
0001
0020
,
0000
0031
1000
0002
0000
0013
0010
0200
,
0000
1300
0010
0100
0020
0000
1030
0002
,
0000
0003
0000
0000
0000
1000
0010
0100
,
0001
0010
0100
2000
0000
3000
0000
0002
,
0000
0013
0100
0020
0000
0031
0001
2000
,
0000
3010
1000
0100
0020
0000
0032
2000
,
0000
0000
0000
3003
,
0001
0010
0100
1000
0100
0010
0001
1000
,
2002
3003
2002
3003
1000
0010
0100
0001
,
0202
0303
0202
0303
0001
0010
0100
1000
,
2200
3300
2200
3300
1000
0001
0100
0010
,
0220
0330
0220
0330
1000
0001
0010
0100
,
0210
0000
0000
1000
0000
2000
0000
0000
,
3300
0000
0001
0010
0001
1000
0010
0100
,
0210
0000
0000
0001
0000
0002
0303
0000
,
0002
0023
0230
2300
,
3001
1000
0100
1000
0010
0100
0010
1000
,
0002
0023
2030
3020
,
0031
1000
0010
0200
0000
0301
0010
0001
,
2000
3200
0302
0203
,
1300
2000
0000
3000
0000
0001
1000
0020
,
0030
0020
0000
0000
0230
0000
0000
0000
,
0301
2000
0000
3100
0010
0100
1000
0001
,
2002
3003
2002
3003
0022
0033
0022
0033
,
2020
3030
2020
3030
2002
3003
2002
3003
,
1000
0100
0010
0002
0000
0003
1000
0200
,
0000
1300
0001
2000
0000
3010
0010
0200
,
0000
0301
1000
0001
0200
0000
0310
2000
,
0000
3000
0000
0000
0000
0001
0020
0000
,
0230
0000
0310
0002
0000
0003
0000
2000
,
0000
3020
0000
0230
0000
0301
0001
2000
,
0000
3100
1000
0001
0020
0000
0130
2000
,
0000
0000
3000
0000
0000
0001
0100
0001
,
0000
1000
0100
1000
0000
0001
0010
0001
,
0000
1000
0010
1000
0000
0001
0100
0010
,
0000
1000
0100
0010
0000
0001
0010
0100
,
1000
0100
0010
0001
0000
1000
0010
1000
,
0000
0001
0010
0001
0000
1000
0100
1000
,
0000
0001
0100
0001
0000
1000
0010
0100
,
0000
0001
0010
0100
0000
1000
0010
0100
,
0000
0000
0002
0000
0000
0000
0013
0100
,
2000
0000
3001
0200
0000
0300
0000
0020
,
0000
1030
0001
2000
0000
3010
0010
0200
,
0000
0310
1000
0100
0020
0000
0130
2000
,
0000
0000
0000
3000
,
0001
0001
1000
0100
0010
0010
0100
1000
,
0001
0001
1000
0010
0100
0100
0010
1000
,
0001
0001
1000
0100
0010
0010
0100
1100
,
1100
0000
0000
0000
;
