#VERSION:0.83;
#TITLE:ネコノテ・カリタガール;
#SUBTITLE:;
#ARTIST:Ino(chronoize);
#TITLETRANSLIT:Dancin' on a Cat's Paw;
#SUBTITLETRANSLIT:;
#ARTISTTRANSLIT:;
#GENRE:SPY ACTION/HARD LOUNGE;
#ORIGIN:;
#CREDIT:Song Choice by Cremie, graphics by Frondal;
#BANNER:Dancin' on A Cat's Paw.png;
#BACKGROUND:Dancin' on A Cat's Paw-bg.png;
#PREVIEWVID:;
#JACKET:Dancin' on A Cat's Paw-jacket.png;
#CDIMAGE:;
#DISCIMAGE:;
#LYRICSPATH:;
#CDTITLE:cdtitle.png;
#MUSIC:Dancin' on A Cat's Paw.ogg;
#OFFSET:-0.033000;
#SAMPLESTART:38.547001;
#SAMPLELENGTH:12.568000;
#SELECTABLE:YES;
#DISPLAYBPM:74.000000:148.000000;
#BPMS:0.000=148.000,
173.000=74.000,
182.000=148.000,
231.750=127.000,
232.000=106.000,
232.250=69.000,
233.000=74.000,
241.000=148.000,
252.500=37.000,
253.000=74.000,
253.500=148.000;
#STOPS:;
#DELAYS:;
#WARPS:;
#TIMESIGNATURES:0.000=4=4;
#TICKCOUNTS:0.000=4;
#COMBOS:0.000=1;
#SPEEDS:0.000=1.000=0.000=0;
#SCROLLS:0.000=1.000;
#FAKES:;
#LABELS:0.000=Song Start;
#BGCHANGES:0.000=bga.mp4=1.000=0=0=1=StretchNormal====,
99999=-nosongbg-=1.000=0=0=0 // don't automatically add -songbackground-
;
#KEYSOUNDS:;
#ATTACKS:
;

//---------------dance-single - Frondal----------------
#NOTEDATA:;
#CHARTNAME:Frondal;
#STEPSTYPE:dance-single;
#DESCRIPTION:Frondal;
#CHARTSTYLE:;
#DIFFICULTY:Beginner;
#METER:5;
#RADARVALUES:0.209757,0.302837,0.064778,0.158346,0.000000,204.000000,195.000000,9.000000,22.000000,0.000000,0.000000,0.000000,0.000000,0.000000,0.209757,0.302837,0.064778,0.158346,0.000000,204.000000,195.000000,9.000000,22.000000,0.000000,0.000000,0.000000,0.000000,0.000000;
#CREDIT:Frondal;
#DISPLAYBPM:74.000000:148.000000;
#NOTES:
0000
0000
0000
0000
,
0000
0000
0000
0000
,
0000
0000
0000
0000
,
0000
0000
0000
0000
,
0000
0000
0000
0000
,
0001
0010
0001
0000
,
1000
1000
0200
0000
,
0310
0001
1000
0000
,
0010
0010
0100
0100
,
1001
0000
1010
0000
,
0202
0000
0003
0301
,
0000
0000
1001
0000
,
1000
0000
0010
0000
,
1000
0100
0010
0000
,
0001
0000
0100
0000
,
0010
0100
0001
0000
,
0010
0000
0010
0000
,
0100
1000
0100
0000
,
1000
0000
1000
0000
,
0010
0100
0010
0000
,
0100
0000
0001
0000
,
0010
0100
0010
0000
,
0100
0010
0100
2000
,
0000
0002
3000
1003
,
0001
0100
0000
0010
,
0010
1000
0000
0001
,
0010
0001
0000
1000
,
1000
0010
0010
0100
,
0001
0010
0001
0010
,
0100
1000
0000
0100
,
1000
0100
1000
0100
,
0010
0200
0000
0300
,
0010
0000
0010
0000
,
0100
0000
0100
0000
,
1000
0000
1000
0000
,
0001
0000
0001
0100
,
0010
1000
0010
0100
,
0001
0010
0001
0100
,
0000
0010
0000
1000
,
0000
0010
0200
0000
,
0301
0000
0002
0000
,
0013
0000
0020
0000
,
0130
0000
0100
2001
,
0000
3000
0020
0000
,
0230
0000
0302
0000
,
2003
0000
3100
0010
,
0100
0000
1000
0001
,
1000
0000
0010
1000
,
0010
1000
0010
0100
,
0001
0000
1000
0100
,
0010
0000
0010
0100
,
1000
0000
0001
0100
,
0010
0000
0010
0100
,
0001
0000
0020
0000
,
0230
0000
0300
0010
,
0001
1000
0000
0010
,
0100
0001
1000
0100
,
0010
0200
0000
0000
,
0000
1300
0000
0100
,
0000
0010
0000
0001
,
0000
0100
0000
0100
,
0000
0010
0000
0010
,
0000
1000
0000
0002
,
2000
0003
0000
3010
,
0100
0010
0000
1000
,
1000
0100
0000
0010
,
0001
0010
0100
1000
,
0100
0001
0100
1000
,
0001
0100
0000
0010
,
0010
1000
0000
0001
,
0010
0100
0000
0010
,
0010
0001
0000
2000
,
0000
3020
0000
0230
,
0000
0300
1001
0010
,
0000
1001
0100
0010
,
0001
0001
1010
0000
,
0001
0001
0110
0000
;

//---------------dance-single - Cremie----------------
#NOTEDATA:;
#CHARTNAME:Cremie;
#STEPSTYPE:dance-single;
#DESCRIPTION:Cremie;
#CHARTSTYLE:;
#DIFFICULTY:Easy;
#METER:9;
#RADARVALUES:0.328003,0.395506,0.136754,0.302297,0.000000,319.000000,300.000000,19.000000,42.000000,0.000000,0.000000,0.000000,0.000000,0.000000,0.328003,0.395506,0.136754,0.302297,0.000000,319.000000,300.000000,19.000000,42.000000,0.000000,0.000000,0.000000,0.000000,0.000000;
#CREDIT:Cremie;
#DISPLAYBPM:74.000000:148.000000;
#NOTES:
0000
0000
0000
0000
,
0000
0000
0000
0000
,
0000
0000
0000
0000
,
0000
0000
0000
0000
,
0000
0000
0000
0000
,
1000
0100
1000
0000
1000
0000
0100
0000
,
0010
0001
0010
0000
0001
0100
0001
0000
,
0100
0010
0100
0000
0010
0000
1000
0000
,
0100
1000
0100
0000
1000
0010
1000
0000
,
1010
0000
0000
0011
0000
0000
2002
0000
,
0000
0000
3000
0020
,
0000
0000
0033
0101
,
0001
1000
0010
1000
0010
0000
1000
0100
,
1000
0000
0010
1000
0010
0000
0100
0000
,
0001
1000
0001
1000
0100
0000
0010
0000
,
0001
1000
1001
0001
,
0100
0001
0010
0100
,
1000
0010
0000
1000
,
0100
0000
0010
0001
0010
0001
0200
0000
,
0320
0000
2030
0001
3001
0000
0100
0000
,
0010
0000
1000
0000
0001
1000
0100
0000
,
1000
0000
0001
0000
0000
0000
1000
0010
,
1000
0000
0010
0100
0010
0000
0200
0000
,
0302
0000
2003
0000
3001
0000
0010
0001
,
0010
0000
0010
0000
0100
0000
1000
0010
,
0000
0100
0001
0000
1000
0000
0001
0100
,
0001
0000
0001
0000
0010
0000
0100
1000
,
0000
0100
0010
0000
1001
0000
0100
1000
,
0100
0000
0100
0000
0010
0000
0001
0100
,
0000
0010
1000
0000
0001
0000
1000
0010
,
1000
0000
1000
0000
0100
0000
0010
0001
,
0010
0000
0100
1000
0100
0000
2000
0000
,
0000
3020
0000
0000
0230
0000
0000
0301
,
1000
0100
1001
0002
,
0000
0023
0000
0000
0230
0000
0000
1300
,
0001
1000
0001
0000
1001
0000
0001
0000
,
0001
0000
1000
0000
1000
0000
0010
0100
,
0010
0000
1000
0001
1000
0000
0001
0000
,
0010
0000
0100
1000
0000
0100
0000
1000
,
0010
1000
0010
0000
0000
0110
0000
0000
,
0010
1000
0100
0000
0000
1100
0000
0000
,
1000
0001
0010
0001
0010
0000
0000
0001
,
0100
0001
0000
1000
0001
2002
0000
0000
,
0000
3003
2000
0000
,
3002
0203
0302
0000
,
0023
0100
0130
0000
1000
0000
0001
0000
,
0010
0100
0010
0000
0100
0000
1000
0000
,
0001
0010
0001
0000
0200
0000
0310
0000
,
0020
1030
1000
0001
,
0110
0000
0000
0000
1000
0100
1000
0000
,
0001
0100
0001
0000
0020
0000
0130
0000
,
0020
0000
0031
0000
0100
0001
0100
0000
,
0010
1000
0010
0000
2000
0000
3002
0000
,
1003
0000
0000
0000
0001
0100
0001
0000
,
0100
1000
0100
0000
1000
0010
1000
0000
,
0010
0001
0010
0000
0001
0000
0001
0000
,
1000
0000
1000
0000
0020
0000
0030
2000
,
0000
3000
1001
0000
0000
0000
0000
0000
,
0000
1000
1000
0100
,
0100
0010
0010
0001
,
0001
2000
0100
0000
,
3100
0002
0100
0000
,
0103
0001
0010
0100
,
1000
0000
0000
0000
0000
0000
0010
1000
,
0010
0000
1000
0100
1000
0000
0100
0000
,
0001
0010
1000
0002
,
2003
3002
2003
0000
,
0000
0000
3100
0000
1001
0000
0010
0001
,
0010
0000
0001
0100
0001
0000
0100
0010
,
0000
1000
0010
0000
0100
0000
0001
0010
,
0001
0000
0010
0100
0010
0000
0100
1000
,
0000
0100
0010
0000
0001
0000
0101
0000
,
0000
1100
0000
0000
2002
0000
0000
0000
,
0000
0003
0200
0000
,
0000
3000
0020
0000
,
0330
0000
0110
0000
,
0000
0000
2002
0000
,
0000
0000
0000
0000
,
0000
0000
3003
0000
;

//---------------dance-single - Cremie+Frondal----------------
#NOTEDATA:;
#CHARTNAME:Cremie+Frondal;
#STEPSTYPE:dance-single;
#DESCRIPTION:Cremie+Frondal;
#CHARTSTYLE:;
#DIFFICULTY:Medium;
#METER:12;
#RADARVALUES:0.461672,0.508507,0.172741,0.266310,0.151149,449.000000,425.000000,24.000000,37.000000,1.000000,0.000000,0.000000,0.000000,0.000000,0.461672,0.508507,0.172741,0.266310,0.151149,449.000000,425.000000,24.000000,37.000000,1.000000,0.000000,0.000000,0.000000,0.000000;
#CREDIT:Cremie+Frondal;
#DISPLAYBPM:74.000000:148.000000;
#NOTES:
0000
0000
0000
0000
,
0000
0000
0000
0000
,
0000
0000
0000
0000
,
0000
0000
0000
0000
,
0000
0000
0000
0000
,
0001
0010
0100
0000
1000
0001
0100
0000
,
0001
1000
0100
0000
0010
0001
0100
0001
,
1000
0010
0100
0000
0001
1000
0100
0000
,
0010
0001
0100
0001
0010
0100
1000
0000
,
0010
0000
0000
1010
0000
0000
0100
0000
0000
0101
0000
0000
0001
0000
0000
2002
,
0000
0000
0003
0020
,
0000
0000
0000
0000
3030
0000
0000
0000
0010
0000
0000
0110
0000
0000
0100
0000
,
0001
0100
0010
0000
1010
0000
1000
0100
,
0010
0001
1000
0000
1010
0000
0010
1000
,
0010
0000
0100
0000
0001
0000
0000
0000
0011
0000
0000
0000
0010
0000
0000
0010
,
0000
0000
0010
0000
0001
0000
0100
0000
0101
0000
0000
0000
0001
0000
0000
0100
,
0010
0000
0000
0000
1000
0000
0000
0100
0010
0000
0000
0000
1000
0000
0000
0010
,
0100
0000
1000
0000
0100
0000
0010
0000
0001
0000
0000
0000
0100
0000
0000
0100
,
0001
0000
0010
0000
0100
0000
0000
0100
1000
0000
0010
0000
1000
0000
0100
0000
,
0001
0100
0010
0000
1001
0000
0001
0100
,
0010
0000
0001
0010
1000
0000
0010
1000
,
0100
0001
0100
0000
1100
0000
1000
0010
,
1000
0010
0001
0010
0100
0010
2000
0000
,
0000
0002
0000
0000
3003
0000
0001
1000
,
0100
0000
1000
0001
0100
0000
0010
0100
,
0010
1000
0010
0001
0010
0100
0001
1000
,
0100
0000
0000
0000
1000
0000
0001
0000
0010
0000
0000
0000
0001
0000
0000
0001
,
0000
0001
0010
0100
1000
0000
0001
0100
,
1000
0000
1000
0100
0001
0000
1000
0100
,
0010
0001
0010
0100
1000
1000
0001
0010
,
1000
0000
0000
0000
1000
0000
0010
0000
0001
0000
0000
0000
0100
0000
0000
0001
,
0000
0000
0001
0000
1000
0000
0100
0000
0001
0100
0000
0000
2000
0000
0000
3100
,
0000
0000
0200
0000
0000
1300
0000
0000
2000
0000
0000
3001
0000
0000
0001
0000
,
0100
0010
1000
0100
0000
0100
1000
0001
,
0010
0000
1000
0010
0001
0000
1000
0010
,
0100
0001
1000
0010
0010
0000
1000
0100
,
0010
0100
1000
0010
0100
1000
0100
0010
,
1000
0100
0010
0001
1000
1000
0001
1000
,
0100
0000
0000
0100
0010
0000
0001
0000
1000
0000
0000
0000
0001
0000
0100
0000
,
0001
0010
1000
0010
0001
1001
0000
1000
,
0100
0000
0010
0001
0100
0110
0000
0010
,
1000
0000
0001
0010
0100
0110
0000
0010
,
0001
0000
0000
0000
1000
0100
0000
0010
0000
0001
0000
2002
0000
0000
0000
0000
,
0000
3003
0002
2003
,
3200
2300
3002
0023
,
0032
0100
2003
0010
3001
1000
0001
0000
,
1000
0100
1000
0000
0010
0100
0001
0100
,
0010
0000
1010
0000
1000
0100
1000
0100
,
0010
1000
0010
1000
0010
0001
0010
0100
,
1000
0000
1001
0000
0001
0100
1000
0000
,
0100
0010
1000
0000
0100
0010
0001
0010
,
0100
1000
0001
0000
0100
0001
0010
0000
,
1000
0000
0010
0000
0001
0000
0000
0000
1000
0000
0000
1000
0000
0000
0100
0000
,
0001
1000
0010
0010
0001
0100
0001
0100
,
1000
0100
0001
1000
0001
0010
1000
0010
,
0001
0010
0100
0100
1000
0010
0100
0010
,
1000
0000
0100
0000
0010
0000
0001
0000
0010
0000
0000
1000
0000
0000
0010
0000
,
0000
0001
0000
2000
0002
0000
0000
0000
3000
0000
0000
0000
0000
0000
0000
0000
,
0000
0003
0000
0000
0100
0000
0000
0000
0100
0000
0000
0000
0010
0000
0000
0000
,
0010
1000
1000
0001
,
0001
2000
0100
0001
,
3100
0200
0010
1000
,
0310
0002
0100
1000
,
0203
0000
0320
0000
0030
0000
1000
0100
,
0010
0000
1000
0010
0001
0000
1000
0001
,
0100
0000
0001
0000
0010
0000
0100
0010
0000
0100
1000
0000
1100
0000
0000
0000
,
1010
0000
0000
0000
0011
0000
0000
0001
0000
0000
2000
0000
0000
0000
3001
0000
,
0010
0000
0100
0000
1000
0010
1000
0010
0100
0000
0000
0000
0100
0000
0001
0000
,
0010
0000
0100
1000
0010
0000
0001
0010
,
1000
0000
0001
0000
1000
0000
0100
0010
0000
0001
0010
0000
0001
0000
0100
0000
,
1000
0000
0100
0010
1000
0000
0100
0010
,
0001
0000
1000
0000
0100
0000
0010
0001
0000
0100
0001
0000
0202
0000
0000
0303
,
0000
0000
2002
0000
0000
3003
0000
0000
2020
0000
3000
0200
0000
0000
0000
0000
,
0000
0000
0000
0000
0000
0000
0030
0000
0301
0000
0000
0001
0000
0000
0001
0000
,
0000
1000
0000
0000
1000
0000
0000
2000
0000
0000
0100
0000
0000
0001
0000
0000
,
3010
0000
0100
0000
0010
0000
0000
1001
0000
0000
0000
0000
0000
0000
0000
0000
,
0020
0000
0000
0000
0130
0000
0000
2002
0000
0000
0000
0000
0000
0000
0000
0000
,
0000
0000
0000
0000
0000
0000
0000
00M0
0000
0000
0000
0000
0000
0000
0000
0000
,
0000
0000
3003
0000
;

//---------------dance-single - Cremie+Frondal----------------
#NOTEDATA:;
#CHARTNAME:Cremie+Frondal;
#STEPSTYPE:dance-single;
#DESCRIPTION:Cremie+Frondal;
#CHARTSTYLE:;
#DIFFICULTY:Hard;
#METER:16;
#RADARVALUES:0.694050,0.847513,0.266310,0.338285,0.759342,675.000000,638.000000,37.000000,47.000000,1.000000,0.000000,0.000000,0.000000,0.000000,0.694050,0.847513,0.266310,0.338285,0.759342,675.000000,638.000000,37.000000,47.000000,1.000000,0.000000,0.000000,0.000000,0.000000;
#CREDIT:Cremie+Frondal;
#DISPLAYBPM:74.000000:148.000000;
#NOTES:
// measure 0
0000
0000
0000
0000
,  // measure 1
0000
0000
0000
0000
,  // measure 2
0000
0000
0000
0000
,  // measure 3
0000
0000
0000
0000
,  // measure 4
0000
0000
0000
0000
,  // measure 5
1000
0000
0010
0000
0100
0000
0001
0010
0000
0100
0000
1000
0100
0000
0010
0000
,  // measure 6
0001
0000
1000
0000
1100
0000
0000
1000
0010
1000
0100
0010
0000
0001
0010
0000
,  // measure 7
0001
0000
0100
0000
0010
0000
1000
0100
0000
0010
0000
0001
0010
0000
0100
0000
,  // measure 8
1000
0000
0001
0000
0011
0000
0000
0001
0100
0001
0010
0100
0000
1000
0100
0000
,  // measure 9
1100
0000
1000
0010
0000
0000
0101
0000
0001
0010
0000
0000
0110
0000
0200
2000
,  // measure 10
0000
0000
0000
0000
0000
0300
0002
0000
,  // measure 11
0000
0000
0000
0000
3003
0000
0000
0000
0001
1000
0000
1010
0000
0000
0101
0000
,  // measure 12
0001
0100
0001
1000
0100
0000
0010
0000
0011
0000
0000
0000
0001
0000
1000
0010
,  // measure 13
1000
0100
0000
0010
0100
0000
0010
0001
1000
0000
0000
0000
0001
0000
0100
0000
,  // measure 14
0010
1000
0000
0001
0000
1000
0100
0010
0001
0010
0100
1000
0001
0000
0100
0000
,  // measure 15
0010
1000
0000
0100
0010
0100
0000
1000
0000
0010
0100
0001
1000
0000
0010
0000
,  // measure 16
0100
0000
0001
0000
1000
0000
0100
0000
0010
0000
0001
1000
0001
0000
0010
0000
,  // measure 17
0100
1000
0100
0010
0001
0000
1000
0010
,  // measure 18
0100
0000
0001
0000
0010
0000
0100
0000
0010
0000
0001
1000
0002
0000
0100
0000
,  // measure 19
2003
0000
0010
0000
3001
0010
0100
1000
0001
0000
0000
0000
1000
0000
0010
0000
,  // measure 20
0100
0001
0100
0010
0000
1000
0100
0000
0011
0000
0100
1000
0010
0000
0100
0001
,  // measure 21
1000
0100
0000
0010
0001
0000
1000
0000
1001
0000
0000
0000
0001
0010
0100
1000
,  // measure 22
0001
0010
0100
1000
0100
0010
0001
1000
0100
0010
0001
0010
0100
1000
0000
0100
,  // measure 23
0010
0000
0100
1000
0000
1010
0000
0110
0000
0101
0000
0001
1000
0000
0010
0000
,  // measure 24
0100
0000
0010
1000
0000
0010
0000
0001
0010
0000
1000
0000
0100
0000
0010
0000
,  // measure 25
0011
0000
0000
0001
0100
0010
1000
0100
0000
1000
0010
0100
0001
0000
0010
0000
,  // measure 26
0100
0000
1000
0100
0000
0001
0000
0100
0010
0000
0001
0000
1000
0000
0010
0000
,  // measure 27
1010
0000
0000
1000
0010
0100
0001
0010
0000
0001
0100
0000
0010
0000
1000
0000
,  // measure 28
0100
0000
0010
0100
0000
0001
0000
0100
0010
0000
0001
0000
1000
0000
0010
0000
,  // measure 29
1010
0000
0000
1000
0100
0010
0001
1000
0000
0001
0010
0100
1000
0000
0010
0000
,  // measure 30
0100
0000
1000
0100
0000
0010
0000
1000
0100
0000
0010
0000
0001
0000
0100
0000
,  // measure 31
0010
1000
0001
1000
0100
0000
1000
0000
1001
0000
0000
0000
2000
0000
3010
0100
,  // measure 32
0000
0000
2000
0000
3100
0001
0000
0000
0020
0000
0130
1000
0000
0100
0010
0000
,  // measure 33
0001
0000
1000
0000
0010
0000
1000
0000
1001
0000
0000
0000
0001
0000
0001
0100
,  // measure 34
0000
0100
0010
0000
1000
0000
1000
0100
0000
0100
0010
0000
1000
0000
0010
0000
,  // measure 35
0001
0000
1000
0000
0001
1000
0001
1000
0001
0000
0000
0000
1000
0000
0001
0000
,  // measure 36
0010
0001
1000
0001
0100
0000
0010
0000
0100
0001
0010
0100
1000
0000
0100
0000
,  // measure 37
0001
0000
0100
0000
0010
0001
1000
0001
1000
0000
0000
0000
0001
0000
0100
0000
,  // measure 38
0010
0100
0000
1000
0100
0001
0000
1000
0000
0100
0010
0000
0001
0000
0001
0010
,  // measure 39
0000
0010
0100
0000
0100
1000
0001
1000
0001
0000
1002
0000
0000
0000
0103
0000
,  // measure 40
0010
0000
1000
0000
0100
0000
1000
0010
0000
0000
2010
0000
0000
0000
3100
0000
,  // measure 41
0010
0000
0001
0000
0100
0000
0010
0000
1000
0001
0020
0000
0000
0000
0130
0000
,  // measure 42
1000
0000
0100
0000
0010
0001
0000
1000
0000
0001
0000
2002
0000
0000
0000
0000
,  // measure 43
0000
0000
0000
3003
0000
0000
0000
0000
2000
0000
0010
0000
0001
0000
3010
0000
,  // measure 44
0002
0010
1000
0013
2000
0100
0001
3100
,  // measure 45
1000
0100
0010
0001
0010
0100
1000
0000
0001
0000
0100
0000
0001
0000
0010
0000
,  // measure 46
1000
0000
0010
0000
0100
0000
1000
0001
1000
0000
0010
0000
0100
0000
0010
0000
,  // measure 47
1000
0001
1001
0000
2000
3200
0320
2030
,  // measure 48
3020
0000
0230
0000
2300
0000
3002
0000
0103
0010
1000
0010
0000
0100
0001
0010
,  // measure 49
0000
0100
1000
0001
1000
0000
0000
0000
0001
0010
0100
1000
0010
0000
1000
0100
,  // measure 50
1000
0010
0000
0100
0000
0010
1000
0000
0001
0010
0100
1000
0100
0010
0001
1000
,  // measure 51
0020
0000
0130
0001
2000
0000
3100
0010
0001
0000
0010
0000
0100
1000
0001
1000
,  // measure 52
0100
0000
0010
0000
0011
0000
0000
0000
0001
0100
0010
1000
0001
0010
0100
1000
,  // measure 53
0100
0010
0001
1000
0001
0000
0000
0000
1000
0100
0010
0001
0100
0001
1000
0001
,  // measure 54
0010
0100
1000
0010
1000
0001
1000
0100
0010
0001
1000
0001
1000
0000
0010
0000
,  // measure 55
0100
0001
1000
0001
1000
0000
0000
0000
0100
0000
0010
0000
1000
0000
0010
0000
,  // measure 56
0001
0000
0100
0000
0010
0000
1000
0000
0100
0010
0001
1000
0001
0000
0100
0010
,  // measure 57
1000
0001
1000
0100
0010
0002
2000
0000
0000
0000
0000
0000
0000
0000
0000
0000
,  // measure 58
0000
3003
0000
0000
0002
0000
0000
0000
0023
0000
0000
0000
0230
0000
0000
0000
,  // measure 59
1300
2010
3200
0320
,  // measure 60
0032
1000
0203
0010
0000
0310
2000
0001
,  // measure 61
0000
3001
0020
0100
0000
0130
2000
0010
,  // measure 62
0000
3010
0100
0001
0100
1000
0100
0010
,  // measure 63
0100
0002
2000
0000
0000
3003
1100
1000
,  // measure 64
0010
0000
0100
1000
0000
0100
0000
0001
0010
0000
0100
0000
1000
0000
0001
0000
,  // measure 65
0011
0000
0000
0010
0100
0001
0100
1000
0000
0010
1000
0000
0001
0100
0010
1000
,  // measure 66
0001
0010
0100
1000
0010
0100
0010
1000
0001
1000
0020
0000
0000
0000
0001
0000
,  // measure 67
0100
0000
1000
0000
0130
0001
1000
0001
0010
0100
1000
0000
1010
0000
1000
0000
,  // measure 68
0010
0000
0100
1000
0000
0100
0000
0001
0100
0000
0010
0000
1000
0000
0100
0000
,  // measure 69
1100
0000
0000
0100
0010
1000
0010
0001
0000
1000
0100
0000
0110
0000
0100
0000
,  // measure 70
1000
0000
0001
0100
0000
0010
0000
0001
0010
0000
0100
0000
0010
0000
1000
0000
,  // measure 71
1010
0000
0000
1000
0100
0001
0100
0010
0000
0001
0100
0000
0110
0000
0010
1000
,  // measure 72
0000
0000
1001
0000
1000
0100
0000
0000
0110
0000
0002
2000
0000
0000
0000
0000
,  // measure 73
0000
0000
0000
0003
0020
0000
0000
0000
,  // measure 74
0000
0000
0000
0000
3000
0000
0000
0130
0000
0001
0100
0001
1000
0000
0100
0000
,  // measure 75
1000
0000
0010
0000
0100
0001
0000
0011
0000
0000
0000
0000
0001
0000
1000
0000
,  // measure 76
1100
0000
0000
0000
0011
0000
0000
2002
0000
0000
0000
0000
0000
0000
0000
0000
,  // measure 77
0000
0000
0000
0000
0000
0000
0000
00M0
0000
0000
0000
0000
0000
0000
0000
0000
,  // measure 78
0000
0000
3003
0000
;

//---------------dance-single - (Frondal) The cat's paw on the stairs----------------
#NOTEDATA:;
#CHARTNAME:(Frondal) The cat's paw on the stairs;
#STEPSTYPE:dance-single;
#DESCRIPTION:(Frondal) The cat's paw on the stairs;
#CHARTSTYLE:;
#DIFFICULTY:Edit;
#METER:16;
#RADARVALUES:0.817437,1.031950,0.215927,0.273507,1.234381,795.000000,765.000000,30.000000,38.000000,0.000000,0.000000,0.000000,0.000000,0.000000,0.817437,1.031950,0.215927,0.273507,1.234381,795.000000,765.000000,30.000000,38.000000,0.000000,0.000000,0.000000,0.000000,0.000000;
#CREDIT:(Frondal) The cat's paw on the stairs;
#DISPLAYBPM:74.000000:148.000000;
#NOTES:
0000
0000
0000
0000
,
0000
0000
0000
0000
,
0000
0000
0000
0000
,
0000
0000
0000
0000
,
0000
0000
0000
0000
,
1000
0000
0010
0000
0100
0000
0001
0010
0000
0100
0000
1000
0100
0000
0010
0000
,
0001
0000
1000
0000
1100
0000
0000
1000
0010
1000
0100
0010
0000
0001
0010
0000
,
0001
0000
0100
0000
0010
0000
1000
0100
0000
0010
0000
0001
0010
0000
0100
0000
,
1000
0000
0001
0000
0011
0000
0000
0001
0100
0001
0010
0100
0000
1000
0100
0000
,
1100
0000
1000
0010
0000
0000
0101
0000
0001
0010
0000
0000
0110
0000
0200
2000
,
0000
0000
0000
0000
0000
0300
0002
0000
,
0000
0000
0000
0000
3003
0000
0000
0000
0001
1000
0000
1010
0000
0000
0101
0000
,
0001
0100
0001
1000
0100
0000
0010
0000
0011
0000
0000
0000
0001
0000
1000
0010
,
1000
0100
0000
0010
0100
0000
0010
0001
1000
0000
0000
0000
0001
0000
0100
0000
,
0010
1000
0000
0001
0000
1000
0100
0010
0001
0010
0100
1000
0001
0000
0100
0000
,
0010
1000
0000
0100
0010
0100
0000
1000
0000
0010
0100
0001
1000
0000
0010
0000
,
0100
0000
0001
0000
1000
0000
0100
0000
0010
0000
0001
1000
0001
0000
0010
0000
,
0100
1000
0100
0010
0001
0000
1000
0010
,
0100
0000
0001
0000
0010
0000
0100
0000
0010
0000
0001
1000
0002
0000
0100
0000
,
2003
0000
0010
0000
3001
0010
0100
1000
0001
0000
0000
0000
1000
0000
0010
0000
,
0100
0001
0100
0010
0000
1000
0100
0000
0011
0000
0100
1000
0100
0000
0010
0001
,
0010
0100
0000
0010
0001
0000
1000
0000
1001
0000
0000
0000
0001
0010
0100
1000
,
0001
0010
0100
1000
0100
0010
0001
1000
0100
0010
0001
0010
0100
1000
0000
0100
,
0010
0000
0100
1000
0000
1100
0000
0110
0000
0011
0000
0001
1000
0000
0010
0000
,
0100
0000
0010
1000
0000
0010
0000
0001
0010
0000
1000
0000
0100
0000
0010
0000
,
0011
0000
0000
0001
0100
0010
1000
0100
0000
1000
0010
0100
0001
0000
0010
0000
,
0100
0000
1000
0100
0000
0001
0000
0100
0010
0000
0001
0000
1000
0000
0010
0000
,
1010
0000
0000
1000
0010
0100
0001
0010
0000
0001
0100
0000
0010
0000
1000
0000
,
0100
0000
0010
0100
0000
0001
0000
0100
0010
0000
0001
0000
0010
0000
0100
0000
,
1100
0000
0000
1000
0100
0010
0001
1000
0000
0001
0010
0100
1000
0000
0010
0000
,
0100
0000
1000
0100
0000
0010
0000
1000
0100
0000
0010
0000
0001
0000
0100
0000
,
0010
1000
0001
1000
0100
0000
0010
0001
0000
0010
0100
0000
1000
0000
1000
0010
,
0000
0000
0100
0000
0100
0001
0000
0000
0010
0000
0010
0100
0000
0010
0001
0010
,
0100
1000
0100
1000
0001
0010
0100
1000
0001
0010
0100
0010
0002
1000
0000
0103
,
0000
0001
1000
0000
0010
0000
2000
0100
0000
3001
0010
0100
1000
0000
0010
0100
,
0000
0001
0100
0010
1000
0100
0010
0001
0010
0100
0010
0000
0001
0000
1000
0100
,
1000
0100
0010
0000
0001
0000
0001
0100
0010
0000
0001
0000
0010
0000
1000
0100
,
1000
0000
0001
0000
0010
0000
0001
0100
0001
0000
1000
0000
0000
0000
0011
0000
,
0010
0001
0000
1000
0100
0010
0001
1000
0000
0000
1010
0000
0000
0001
0100
0010
,
0000
0010
0000
1000
0000
0100
0010
0001
0000
0010
2000
0000
0000
0000
3010
0001
,
0010
0001
0000
0000
0010
0000
0100
1000
0010
0000
0002
0000
0000
0000
0013
0000
,
2000
0100
0000
3002
0100
0000
1003
0100
0010
0001
0200
0000
0000
0000
0310
0001
,
0010
0100
0000
0000
0001
1000
0000
0100
0000
0011
0000
1100
0000
0001
0010
0100
,
1000
0100
0010
0001
0000
0000
0200
0000
0302
0000
0000
0000
0020
0000
0003
0000
,
0200
0000
0000
0000
0030
0000
0000
0000
2300
0000
0000
0010
0000
0000
3010
0000
1000
0000
0000
0100
0000
0000
1000
0000
0010
0000
0000
0100
0000
0100
0001
0010
,
0100
0000
1000
0000
0100
0000
0000
0020
0000
0001
0000
0230
0000
0000
1300
0000
1010
0000
0000
0000
0001
0000
0000
0000
1000
0000
0100
0000
0000
0000
0010
0000
,
0100
1000
0010
0100
0001
0010
0000
0100
1000
0001
0010
0100
0010
0001
0100
0010
,
0000
0010
1000
0001
0010
0100
0000
1000
0100
0000
2000
0000
3020
0000
0230
0000
,
2300
0000
3200
0000
0320
0000
2030
0000
3002
0000
0000
0000
1003
0100
0020
0001
,
0000
0031
0000
0100
0010
0000
0000
0000
1000
0100
1000
0100
1000
0000
0010
0000
,
0010
0100
0000
0001
0010
0100
1000
0000
0001
0100
0001
0100
0010
1000
0010
1000
,
0100
0010
0001
0010
0100
1000
0100
0000
0010
0001
0000
0100
0010
1000
0010
0000
,
1000
0000
0001
0000
1000
0000
0001
0000
0000
0010
0000
0000
0000
0000
0000
0000
0000
0000
0100
0000
0000
1000
0000
0000
0000
0000
0000
0100
0000
0000
0010
0000
0000
0001
0000
0000
0010
0000
0000
0100
0000
0000
1000
0000
0000
0001
0000
0000
,
0010
0100
0010
0001
1000
0000
0000
0000
0001
0010
0100
0010
1000
0010
0100
0010
,
0001
0100
0010
0100
1000
0100
0010
0100
0000
0001
0010
0001
0010
0100
1000
0100
,
0010
0000
0010
0001
0100
0010
0000
0010
0000
1000
0001
0100
0001
1000
0010
1000
,
0001
0000
0000
0010
0000
0000
0100
0000
0000
0010
0000
0000
0001
0000
0000
1000
0000
0000
0100
0000
0000
1000
0000
0000
0010
0000
1000
0000
0010
0000
1000
0000
0000
0100
0000
0000
0010
0000
0000
0001
0000
0000
0100
0000
0001
0000
0100
0000
,
0002
0010
0000
2003
0010
0000
3001
0100
0010
0000
0000
0010
0000
0000
0010
0000
,
0000
0000
0000
0000
0000
0000
0000
0000
1000
0000
0100
0000
1000
0000
0100
0010
0000
0001
0000
0010
0001
0000
1000
0000
0000
0000
0001
0000
0100
0000
0000
0010
,
1000
0010
1000
0100
0000
0010
0001
0000
1000
0000
0010
0000
1000
0000
0010
0100
0000
0001
0000
0100
0001
0000
1000
0000
0000
0000
0001
0000
0010
0000
0000
0100
,
1000
0100
1000
0010
0000
0100
0001
0000
1000
0000
0000
0000
0100
0000
0000
0000
0010
0000
0000
0000
0100
0000
1000
0000
0000
0000
0100
0000
0000
0000
0010
0000
,
0001
0000
1000
0000
0000
0000
0001
0000
0010
0000
0000
0001
1000
0100
1000
0100
,
0000
0010
0001
0000
1000
0000
0010
0000
0100
0000
0010
1000
0000
0010
0000
0100
,
0000
0001
0020
0000
0230
0000
0000
0300
0000
0000
0000
0000
1000
0100
0010
0000
,
0001
0000
0010
0100
0000
0010
0000
0001
0010
0000
0100
0000
1000
0001
1000
0000
,
1010
0000
0000
0010
0100
0001
0100
0010
0000
1000
0010
0000
1000
0100
0010
0001
,
1000
0100
0010
0001
0010
0100
0010
0001
0010
0100
1000
0010
1000
0010
0100
0010
,
0100
0001
0010
0001
0010
0100
1000
0010
0100
0001
0010
0100
1000
0100
0010
0000
,
0001
0000
0010
0100
0000
1000
0000
0100
0010
0000
0001
0000
1000
0010
0100
0000
,
0101
0000
0001
0100
0010
1000
0100
0010
0000
1000
0010
0000
0001
0010
0100
0000
,
1000
0000
0100
0010
0000
0001
0000
0010
0100
0000
1000
0000
0001
0000
1000
0100
,
0000
0100
0010
0000
0010
0001
1000
0010
0000
0001
0010
0000
1010
0000
1000
0100
,
0000
0000
0011
0000
0001
0100
0000
0000
1010
0000
1000
0200
0000
0301
0100
0010
,
0001
1000
0100
0010
0001
1000
0010
0100
1000
0000
0100
0010
0000
1000
0010
0000
,
1000
0100
0000
0010
0001
0010
0000
0010
0001
0000
0100
0010
0000
0001
0010
0100
,
0001
0010
0100
1000
0001
1000
0100
2200
0000
3300
0000
0000
1000
0000
0100
0010
,
0011
0000
0000
0000
0101
0000
0000
2200
0000
0000
0000
0000
0000
0000
3300
0000
,
0000
0000
0000
0000
0000
0000
0000
0002
0003
0000
0000
0000
0000
0000
0000
0000
;
