#TITLE:Dancer in the flare;
#SUBTITLE:;
#ARTIST:猫叉Master;
#TITLETRANSLIT:;
#SUBTITLETRANSLIT:;
#ARTISTTRANSLIT:Nekomata Master;
#GENRE:;
#CREDIT:;
#BANNER:Dancer in the flare.png;
#BACKGROUND:Dancer in the flare-bg.png;
#LYRICSPATH:;
#CDTITLE:cdtitle.png;
#MUSIC:Dancer in the flare.ogg;
#OFFSET:0.000000;
#SAMPLESTART:74.571999;
#SAMPLELENGTH:15.000000;
#SELECTABLE:YES;
#BPMS:0.000000=132.000000
;
#STOPS:
;
#BGCHANGES:;
#KEYSOUNDS:;
#ATTACKS:;

//---------------dance-single - ----------------
#NOTES:
     dance-single:
     :
     Hard:
     12:
     0.476814,0.501365,0.350837,0.625818,0.184901,352.000000,315.000000,37.000000,66.000000,0.000000,0.000000,0.476814,0.501365,0.350837,0.625818,0.184901,352.000000,315.000000,37.000000,66.000000,0.000000,0.000000:
0000
0000
0000
0000
,
0000
0000
0000
0000
,
0000
0000
0000
0000
,
0000
0000
0000
0000
,
0000
0000
0000
0000
0000
0000
0000
0100
,
1002
0010
0000
0010
,
0000
0000
1000
0000
0000
0000
0103
0010
,
2000
0010
0000
0001
,
3200
0000
0000
0000
0320
0000
0000
0000
0031
0000
1000
0001
1000
0000
0000
0000
,
0002
0100
0100
2003
0100
0100
3000
0001
,
2000
0010
0010
3001
1000
0100
0010
0001
,
2000
0100
0100
3002
0100
0100
0003
1000
,
0002
0000
0010
0000
0010
0000
0203
0000
0320
0000
2030
0000
3001
1000
0001
0000
,
0020
0100
0100
0032
1000
1000
0003
0100
,
0020
0000
0100
0000
0100
0000
2030
0000
3002
0000
0023
0000
0130
0010
0100
0000
,
2000
0010
3002
0010
,
2000
0000
0000
0000
3003
0000
1000
0001
1000
0000
0010
0000
0100
0000
0001
0000
,
0020
0000
0000
0000
1000
0000
0000
0000
0031
0000
0010
0001
0010
0000
0001
0000
,
1000
0000
0010
1000
0010
0000
1000
0000
0001
0000
0010
0000
0100
0000
1000
0000
,
0001
0000
0000
0000
2001
0000
0000
0000
3010
0000
0100
0010
0100
0000
0001
0000
,
0010
0000
0100
0010
0100
0000
1000
0000
0001
0000
0010
0000
0001
0000
1000
0000
,
0020
0000
0000
0000
0001
0000
0000
0000
1030
0000
0010
1000
0010
0000
1000
0000
,
0001
0000
0010
0001
0010
0000
0001
0000
1000
0000
0010
0000
0100
0000
0001
0100
,
0002
0000
0000
0000
0003
0000
1000
0000
0001
0000
0010
0000
0100
0000
1000
0100
,
1000
0000
2002
0000
3003
1000
0010
0100
,
0002
0000
0100
1000
2003
0000
0100
0001
,
3002
0000
0000
0000
0100
0000
1000
0000
1003
0000
0001
0100
0001
0000
1000
0000
,
0200
0000
0010
1000
2300
0000
0001
0010
,
3020
0000
0000
0000
0130
0000
0010
0100
0001
0000
1000
0000
1001
0000
0000
0000
,
2000
0000
0100
0001
3002
0000
0100
1000
,
2003
0000
0000
0000
0100
0000
0001
0000
3001
0000
1000
0100
1000
0000
0001
0000
,
0200
0000
0010
0001
0302
0000
1000
0010
,
0023
0000
0000
0000
0130
0000
1000
0000
0010
0100
0010
0000
0100
0000
0001
0000
,
1002
0000
0000
0013
0000
0000
0010
0000
0012
0000
0000
1003
0000
0000
1000
0000
,
1002
0000
0000
0203
0000
0000
0000
0000
1000
0000
0000
0000
0301
0000
0000
0000
,
2010
0000
0000
3100
0000
0000
0100
0000
0012
0000
0000
0103
0000
0000
0100
0000
,
1001
0000
0000
1001
0000
0000
0001
1000
0001
0000
0010
0000
0100
0000
1000
0000
,
2001
0000
0000
3010
0000
0000
0010
0000
2010
0000
0000
3001
0000
0000
0001
0000
,
2001
0000
0000
3200
0000
0000
0000
0000
0001
0000
0000
0000
1300
0000
0000
0000
,
0011
0000
0000
1100
0000
0000
0001
0000
1010
0000
0000
0101
0000
0000
1000
0000
,
1002
0000
0000
0000
0203
0000
0000
0000
0310
0000
1000
0000
0001
1000
0001
0000
,
2000
0100
0001
3002
0100
1000
0003
0010
,
0002
0010
1000
1003
0010
0001
0010
1000
,
0002
0100
1000
2003
0100
0001
3000
0010
,
2000
0000
0010
0000
0001
0000
3200
0000
0320
0000
0230
0000
1300
0001
1000
0000
,
0010
0000
0101
1000
0000
1100
0001
0000
,
0011
0000
1000
0000
0000
0000
1010
0000
0001
0000
0000
0000
1001
0000
0001
1000
,
0002
0010
2003
0010
,
0002
0000
0000
0000
3003
0000
0001
1000
0200
0000
0000
0000
0310
0000
0001
0000
,
0011
0000
0000
1001
0000
0000
0100
0000
0101
0000
0000
1001
0000
0000
0010
0000
,
0011
0000
0000
1100
0000
0000
0001
0100
0020
0000
0000
0000
1030
0000
0000
0000
,
1010
0000
0000
1001
0000
0000
0100
0000
1100
0000
0000
1001
0000
0000
0010
0000
,
1010
0000
0000
0000
0101
0000
0000
0000
0001
1000
0001
0000
0010
0000
0110
0000
;

//---------------dance-single - ----------------
#NOTES:
     dance-single:
     :
     Medium:
     9:
     0.333228,0.350956,0.265498,0.540479,0.000000,246.000000,218.000000,28.000000,57.000000,0.000000,0.000000,0.333228,0.350956,0.265498,0.540479,0.000000,246.000000,218.000000,28.000000,57.000000,0.000000,0.000000:
0000
0000
0000
0000
,
0000
0000
0000
0000
,
0000
0000
0000
0000
,
0000
0000
0000
0000
,
0000
0000
0000
0000
0000
0000
0000
0001
,
0001
0011
0000
0011
,
0000
0000
1100
0000
0000
0000
0001
1000
,
1000
1010
0000
0101
,
2002
0000
3003
0000
0001
1000
0001
0000
,
1000
0100
0010
0000
0200
0000
0310
0000
,
0100
0010
0001
0000
0001
0010
0100
1000
,
0001
0100
0010
0000
0200
0000
0310
0000
,
0100
0010
1000
0001
0010
0000
1001
0000
,
1000
0010
0100
0000
0020
0000
0130
0000
,
0010
0100
0001
1000
0100
0000
0010
0001
,
2000
0100
3002
0100
,
2000
0000
3003
0000
0001
1000
0001
0000
,
0021
0000
0100
0000
0000
0031
0010
0001
,
0000
0001
0010
0001
0100
0000
0010
0000
,
1000
0000
1020
0000
0000
1030
0010
1000
,
0000
1000
0010
1000
0100
0000
0010
0000
,
0210
0000
1000
0000
0000
0310
0001
1000
,
0000
0001
1000
0010
0100
0000
0001
0000
,
0002
0000
0003
0100
0001
0000
0010
0100
,
2000
0000
0200
0000
3300
0000
0100
1000
,
0002
0000
0000
0100
0203
0000
0000
0010
,
0320
0000
0000
1030
0010
0100
0001
0000
,
2000
0000
0000
0001
3002
0000
0000
0013
,
0011
0000
1100
0000
1000
0001
0100
0010
,
2000
0000
0000
0100
3200
0000
0000
0010
,
0320
0000
0000
0031
0010
0100
1000
0000
,
0002
0000
0000
1000
2003
0000
0000
3010
,
1010
0000
0101
0000
1000
0010
0100
0001
,
0020
0000
2030
0000
,
3020
0000
0031
0100
,
0202
0303
0220
0330
,
2020
0000
3030
0000
0001
0010
0001
1000
,
0020
0000
0032
0000
,
0023
0000
1030
0100
,
2200
3300
0022
0033
,
2002
0000
3003
0000
1000
0001
1000
0000
,
0001
0100
1000
0000
0200
0000
0301
0000
,
1000
0010
0100
0000
0100
0010
1000
0001
,
1000
0100
0001
0000
0200
0000
1300
0000
,
0001
0010
0001
1000
0010
0000
1001
0000
,
1000
0000
0100
0001
0000
0100
1000
0000
,
0010
0001
0000
0010
1000
0000
0001
1000
,
0002
0010
2003
0010
,
0002
0000
3003
0000
1000
0001
1000
0000
,
2200
0000
3300
0100
0220
0000
0330
0010
,
0022
0000
0033
0001
0010
0001
0100
0000
,
0202
0000
0303
0100
0220
0000
0330
0010
,
1010
0000
1001
0000
1000
1000
0100
0001
;

//---------------dance-single - ----------------
#NOTES:
     dance-single:
     :
     Easy:
     5:
     0.218088,0.275751,0.227570,0.417212,0.000000,161.000000,137.000000,24.000000,44.000000,0.000000,0.000000,0.218088,0.275751,0.227570,0.417212,0.000000,161.000000,137.000000,24.000000,44.000000,0.000000,0.000000:
0000
0000
0000
0000
,
0000
0000
0000
0000
,
0000
0000
0000
0000
,
0000
0000
0000
0000
,
0000
0000
0000
0000
,
0000
0001
0000
0001
,
0000
1000
0000
1000
,
0000
0010
0000
0100
,
2002
3003
1000
0001
,
1000
0100
0020
0030
,
0100
0010
0001
1000
,
0001
0100
0020
0030
,
0100
0010
1010
0101
,
1000
0100
0020
0030
,
0100
0010
0011
1100
,
0002
0203
0320
2030
,
0002
3003
0001
1000
,
0002
0010
0003
0010
,
0000
0001
0010
0100
,
0000
2000
3000
0010
,
0000
1000
0010
0100
,
0002
1000
0003
1000
,
0000
0001
1000
0100
,
0020
0030
0001
0100
,
0010
2020
3030
0001
,
2000
0000
0100
0000
,
0001
0000
0100
3001
,
0002
0000
0010
0000
,
1000
0000
1003
0001
,
0002
0000
0100
0000
,
1000
0000
0100
1003
,
2000
0000
0010
0000
,
0001
0000
3001
0010
,
0110
0000
0110
0000
,
0110
0000
1000
1000
,
1001
0000
1010
0000
,
0101
0000
0001
0100
,
0110
0000
0110
0000
,
0110
0000
0001
0001
,
2001
0000
3200
0000
,
0320
0000
0031
1000
,
0001
0100
0020
0030
,
0100
0010
1000
0001
,
1000
0100
0020
0030
,
0100
0010
0011
1100
,
0002
0003
2000
3000
,
0002
0003
1000
1000
,
0002
0203
0320
2030
,
0002
3003
0001
1000
,
2200
3300
0220
0330
,
0022
0033
1000
0001
,
0202
0303
0220
0330
,
1010
0000
0001
0000
2000
0000
0000
3100
;

//---------------dance-single - ----------------
#NOTES:
     dance-single:
     :
     Beginner:
     2:
     0.112430,0.199124,0.075857,0.142231,0.000000,83.000000,75.000000,8.000000,15.000000,0.000000,0.000000,0.112430,0.199124,0.075857,0.142231,0.000000,83.000000,75.000000,8.000000,15.000000,0.000000,0.000000:
0000
0000
0000
0000
,
0000
0000
0000
0000
,
0000
0000
0000
0000
,
0000
0000
0000
0000
,
0000
0000
0000
0000
,
0001
0000
0000
0000
,
1000
0000
0000
0000
,
0001
0000
0000
0000
,
0020
0000
0030
0000
,
0001
0000
0001
0000
,
1000
0000
0001
0000
,
1000
0000
1000
0000
,
0001
0000
1000
0000
,
0010
0000
0010
0000
,
0100
0000
0010
0000
,
0100
0000
0100
0000
,
0200
0000
0300
0000
,
0002
0000
0003
0000
,
0001
0000
0001
0000
,
0000
2000
3000
0000
,
1000
0000
1000
0000
,
0002
0000
0003
0000
,
0001
0000
1000
0000
,
0200
0000
0300
0000
,
0020
0000
0030
0000
,
0001
0000
0010
0000
,
0001
0000
0000
0000
,
0001
0000
0100
0000
,
0001
0000
0000
0000
,
1000
0000
0010
0000
,
1000
0000
0000
0000
,
1000
0000
0100
0000
,
1000
0000
0000
0000
,
0001
0000
0001
0000
,
0002
0000
0003
0000
,
0100
0000
0100
0000
,
0200
0000
0300
0000
,
0010
0000
0010
0000
,
0020
0000
0030
0000
,
1001
0000
1001
0000
,
2002
0000
3003
0000
,
1000
0000
1000
0000
,
0001
0000
1000
0000
,
0100
0000
0100
0000
,
0010
0000
0100
0000
,
2000
0000
3000
0000
,
0002
0000
0003
0000
,
0100
0000
0100
0000
,
0200
0000
0300
0000
,
1001
0000
0110
0000
,
1001
0000
0000
0000
,
1001
0000
1001
0000
,
0100
0100
0100
0000
;

//---------------dance-single - ----------------
#NOTES:
     dance-single:
     :
     Challenge:
     15:
     0.693547,0.726980,0.398248,0.407730,0.967173,512.000000,470.000000,42.000000,43.000000,0.000000,0.000000,0.693547,0.726980,0.398248,0.407730,0.967173,512.000000,470.000000,42.000000,43.000000,0.000000,0.000000:
// measure 0
0000
0000
0000
0000
,  // measure 1
0000
0000
0000
0000
,  // measure 2
0000
0000
0000
0000
,  // measure 3
0000
0000
0000
0000
,  // measure 4
0000
0000
0000
0000
0000
0000
0000
0100
,  // measure 5
1002
0000
0010
0000
1003
0010
2000
0000
0010
0000
3001
0010
,  // measure 6
0002
0000
0000
0000
0000
0000
0000
0000
0010
0000
0000
0000
0000
0000
0000
0000
1000
0000
0000
0000
0000
0000
0000
0000
0103
0000
0000
0000
0000
0000
0000
0000
0000
0001
0000
0000
0100
0000
0000
0000
0000
0000
0010
0000
0000
0000
0000
0000
,  // measure 7
2000
0000
0010
0000
3100
0010
0002
0000
0010
0000
0103
0010
,  // measure 8
2000
0000
0000
0000
0000
0000
3020
0000
0000
0000
0000
0000
0130
0000
0000
0001
1000
0001
2000
0000
0000
0000
0000
0000
,  // measure 9
3001
0010
0001
0010
0100
0000
0001
0010
0001
0010
0200
0000
0300
0000
0010
0001
,  // measure 10
1000
0010
1000
0010
0100
0000
1000
0010
1000
0010
0200
0000
0310
0100
0001
1000
,  // measure 11
0001
0010
0001
0010
0100
0000
0001
0010
0001
0010
0200
0000
0300
0000
0010
0001
,  // measure 12
1000
0010
1000
0010
0200
0000
0320
0000
0032
0000
0013
0100
0010
1000
0001
0000
,  // measure 13
1000
0100
1000
0100
0010
0000
1000
0100
1000
0100
0020
0000
0030
0000
0100
1000
,  // measure 14
0001
0100
0001
0100
0020
0000
0230
0000
2300
0000
3100
0010
0100
0010
1000
0001
,  // measure 15
0020
1000
0230
0001
,  // measure 16
0020
0000
0000
0000
0000
0000
0000
0000
0000
0000
0000
0000
0330
0000
0000
0000
0000
0000
0010
0000
0100
0000
0010
0000
0100
0000
0000
0010
0000
0000
0000
0000
0000
0100
0000
0000
1000
0000
0000
0001
0000
0000
0100
0000
0000
0000
0000
0000
,  // measure 17
0110
0000
0000
0000
0000
0000
0000
0000
0000
0010
0000
0000
1000
0000
0000
0000
0000
0000
0000
0000
0000
1000
0000
0000
0100
0000
0000
0000
0000
0000
0010
0000
0001
0000
0010
0000
0002
0000
0000
0000
0000
0000
0010
0000
0000
0000
0000
0000
,  // measure 18
1003
0000
0000
0000
0000
0000
0010
0000
1000
0000
0010
0000
2000
0000
0000
0000
0000
0000
0010
0000
0000
0000
0000
0000
3001
0000
0000
0000
0000
0000
1000
0000
0000
0100
0000
0000
0010
0000
0000
0001
0000
0000
0010
0000
0000
0100
0000
0000
,  // measure 19
1000
0000
0000
0000
0000
0000
0001
0000
0000
1000
0000
0000
0001
0000
0000
0000
0000
0000
0000
0000
0000
1000
0000
0000
0010
0000
0000
0000
0000
0000
0100
0000
0001
0000
0100
0000
0002
0000
0000
0000
0000
0000
0100
0000
0000
0000
0000
0000
,  // measure 20
1003
0000
0000
0000
0000
0000
0100
0000
1000
0000
0100
0000
2000
0000
0000
0000
0000
0000
0100
0000
0000
0000
0000
0000
3001
0000
0000
0100
0000
0000
0010
0000
0000
1000
0000
0000
0000
0000
0000
0010
0000
0000
1000
0000
0000
0000
0000
0000
,  // measure 21
0001
0000
0000
0000
0000
0000
0000
0000
0000
0001
0000
0000
0010
0000
0000
0000
0000
0000
0000
0000
0000
0010
0000
0000
0100
0000
0000
0000
0000
0000
1000
0000
0001
0000
1000
0000
0002
0000
0000
0000
0000
0000
0010
0000
0000
0000
0000
0000
,  // measure 22
1003
0000
0000
0000
0000
0000
0001
0000
1000
0000
0001
0000
2000
0000
0000
0000
0000
0000
0010
0000
0000
0000
0000
0000
3001
0000
0000
0000
0000
0000
1000
0000
0000
0100
0000
0000
0010
0000
0000
0001
0000
0000
0100
0000
0000
0010
0000
0000
,  // measure 23
1000
0000
0000
1000
0100
0000
0010
0000
0001
0000
0010
0001
0100
0010
0100
0010
,  // measure 24
1000
0000
0000
0000
0000
0000
0000
0000
0001
0000
0010
0000
0001
0000
0000
0000
0000
0000
0000
0000
0000
1000
0000
0000
0010
0000
0000
1000
0000
0000
0010
0000
0000
0100
0000
0000
0001
0000
0000
1000
0000
0000
0100
0000
0000
0010
0000
0000
,  // measure 25
0001
0000
0011
0000
1000
0001
0100
0000
0101
0000
1000
0001
,  // measure 26
0100
0000
0000
0000
0000
0000
0000
0000
0101
0000
0000
0000
0000
0000
0000
0000
1000
0000
0000
0000
0000
0000
0000
0000
0001
0000
0000
0000
0000
0000
0010
0000
0000
0100
0000
0000
0010
0000
0000
0100
0000
0000
1000
0000
0000
0001
0000
0000
,  // measure 27
0100
0000
0101
0000
1000
0001
0010
0000
0011
0000
1000
0010
,  // measure 28
0100
0000
0000
0000
0000
0000
0000
0000
0110
0000
0000
0000
0000
0000
0000
0000
1000
0000
0000
0000
0100
0000
0000
0000
0010
0000
0000
0000
0000
0000
0100
0000
0000
0010
0000
0000
0100
0000
0000
1000
0000
0000
0001
0000
0000
0000
0000
0000
,  // measure 29
1000
0000
1010
0000
0001
1000
0100
0000
1100
0000
0001
1000
,  // measure 30
0100
0000
0000
0000
0000
0000
0000
0000
1100
0000
0000
0000
0000
0000
0000
0000
0001
0000
0000
0000
0000
0000
0000
0000
1000
0000
0000
0000
0000
0000
0010
0000
0000
0100
0000
0000
0010
0000
0000
0100
0000
0000
0001
0000
0000
1000
0000
0000
,  // measure 31
0100
0000
1100
0000
0001
1000
0010
0000
1010
0000
0001
0010
,  // measure 32
0100
0000
0000
0000
0000
0000
0000
0000
0110
0000
0000
0000
0000
0000
0000
0000
0001
0000
0000
0000
0100
0000
0000
0000
0010
0000
0000
1000
0000
0000
0001
0000
0000
1000
0000
0000
0010
0000
0000
1000
0000
0000
0100
0000
0000
0010
0000
0000
,  // measure 33
0100
0000
0000
0011
0000
0000
1000
0001
1000
0000
0000
0101
0000
0000
1000
0000
,  // measure 34
1001
0000
0000
1002
0000
0000
0000
0013
0001
0000
0000
0001
0100
0000
0010
0000
,  // measure 35
0110
0000
0000
1010
0000
0000
0001
1000
0001
0000
0000
1100
0000
0000
0001
0000
,  // measure 36
1001
0000
0000
2001
0000
0000
3010
1000
0100
0000
1000
0100
1000
0100
0010
0001
,  // measure 37
0100
0000
0000
1010
0000
0000
0001
1000
0100
0000
0000
0011
0000
0000
1000
0000
,  // measure 38
1001
0000
0000
2001
0000
0000
0000
3010
1000
0000
0000
1000
0100
0000
0010
0000
,  // measure 39
0011
0000
0001
0100
0000
0000
1001
0000
1010
0000
1000
0100
0000
0000
0110
0000
,  // measure 40
2002
0000
0000
0000
0000
0000
3003
0000
0000
0001
0000
0000
0010
0000
0000
0100
0000
0000
1000
0001
1000
0001
0000
0000
,  // measure 41
1000
0010
1000
0010
0100
0000
1000
0010
0100
0010
2000
0000
3000
0000
0010
1000
,  // measure 42
0001
0010
0001
0010
0100
0000
0001
0010
0100
0010
0002
0000
0013
0100
1000
0001
,  // measure 43
1000
0010
1000
0010
0100
0000
1000
0010
0100
0010
2000
0000
3000
0000
0010
1000
,  // measure 44
0001
0010
0001
0010
0200
0000
0320
0000
2030
0000
3010
0100
0010
0001
1000
0000
,  // measure 45
0001
0100
0001
0100
0010
0000
0001
0100
0010
0100
0001
0000
1000
0100
1000
0100
,  // measure 46
0010
0000
1000
0100
0010
0100
1000
0000
0001
0100
0001
0100
0010
1000
0100
1000
,  // measure 47
0020
0001
0230
1000
,  // measure 48
0020
0000
0000
0000
0000
0000
0330
0000
0000
1000
0010
0100
0002
0000
0000
0010
0000
0000
2003
0000
0000
0010
0000
0000
,  // measure 49
3001
0000
0000
0011
0000
0000
1000
0000
0101
0000
0000
0101
0000
0000
1000
0000
,  // measure 50
0011
0000
0010
0100
0000
0000
1000
0001
1000
0000
0001
0100
0010
0000
0100
0010
,  // measure 51
1000
0000
0000
1010
0000
0000
0001
0000
1100
0000
0000
1100
0000
0000
0001
0000
,  // measure 52
0101
0000
0000
0000
0000
0000
1010
0000
0000
0000
0000
0000
0001
1000
0001
0010
0000
0000
0100
0000
0000
0110
0000
0000
;
